  0
SECTION
  2
HEADER
  9
$ACADVER
  1
AC1018
  9
$ACADMAINTVER
 70
     0
  9
$DWGCODEPAGE
  3
ANSI_932
  9
$INSBASE
 10
0.0
 20
0.0
 30
0.0
  9
$EXTMIN
 10
-0.3806061572176986
 20
-0.267313596810709
 30
-0.0015258207003583
  9
$EXTMAX
 10
12450.37928153898
 20
8760.267619465452
 30
0.0000000349246037
  9
$LIMMIN
 10
0.0
 20
0.0
  9
$LIMMAX
 10
420.0
 20
297.0
  9
$ORTHOMODE
 70
     0
  9
$REGENMODE
 70
     1
  9
$FILLMODE
 70
     1
  9
$QTEXTMODE
 70
     0
  9
$MIRRTEXT
 70
     0
  9
$LTSCALE
 40
1.0
  9
$ATTMODE
 70
     1
  9
$TEXTSIZE
 40
2.5
  9
$TRACEWID
 40
1.0
  9
$TEXTSTYLE
  7
Standard
  9
$CLAYER
  8
0
  9
$CELTYPE
  6
ByLayer
  9
$CECOLOR
 62
   256
  9
$CELTSCALE
 40
1.0
  9
$DISPSILH
 70
     0
  9
$DIMSCALE
 40
1.0
  9
$DIMASZ
 40
2.5
  9
$DIMEXO
 40
0.625
  9
$DIMDLI
 40
3.75
  9
$DIMRND
 40
0.0
  9
$DIMDLE
 40
0.0
  9
$DIMEXE
 40
1.25
  9
$DIMTP
 40
0.0
  9
$DIMTM
 40
0.0
  9
$DIMTXT
 40
2.5
  9
$DIMCEN
 40
2.5
  9
$DIMTSZ
 40
0.0
  9
$DIMTOL
 70
     0
  9
$DIMLIM
 70
     0
  9
$DIMTIH
 70
     0
  9
$DIMTOH
 70
     0
  9
$DIMSE1
 70
     0
  9
$DIMSE2
 70
     0
  9
$DIMTAD
 70
     1
  9
$DIMZIN
 70
     8
  9
$DIMBLK
  1

  9
$DIMASO
 70
     1
  9
$DIMSHO
 70
     1
  9
$DIMPOST
  1

  9
$DIMAPOST
  1

  9
$DIMALT
 70
     0
  9
$DIMALTD
 70
     3
  9
$DIMALTF
 40
0.03937007874016
  9
$DIMLFAC
 40
1.0
  9
$DIMTOFL
 70
     1
  9
$DIMTVP
 40
0.0
  9
$DIMTIX
 70
     0
  9
$DIMSOXD
 70
     0
  9
$DIMSAH
 70
     0
  9
$DIMBLK1
  1

  9
$DIMBLK2
  1

  9
$DIMSTYLE
  2
ISO-25
  9
$DIMCLRD
 70
     0
  9
$DIMCLRE
 70
     0
  9
$DIMCLRT
 70
     0
  9
$DIMTFAC
 40
1.0
  9
$DIMGAP
 40
0.625
  9
$DIMJUST
 70
     0
  9
$DIMSD1
 70
     0
  9
$DIMSD2
 70
     0
  9
$DIMTOLJ
 70
     0
  9
$DIMTZIN
 70
     8
  9
$DIMALTZ
 70
     0
  9
$DIMALTTZ
 70
     0
  9
$DIMUPT
 70
     0
  9
$DIMDEC
 70
     2
  9
$DIMTDEC
 70
     2
  9
$DIMALTU
 70
     2
  9
$DIMALTTD
 70
     3
  9
$DIMTXSTY
  7
Standard
  9
$DIMAUNIT
 70
     0
  9
$DIMADEC
 70
     0
  9
$DIMALTRND
 40
0.0
  9
$DIMAZIN
 70
     0
  9
$DIMDSEP
 70
    46
  9
$DIMATFIT
 70
     3
  9
$DIMFRAC
 70
     0
  9
$DIMLDRBLK
  1

  9
$DIMLUNIT
 70
     2
  9
$DIMLWD
 70
    -2
  9
$DIMLWE
 70
    -2
  9
$DIMTMOVE
 70
     0
  9
$LUNITS
 70
     2
  9
$LUPREC
 70
     4
  9
$SKETCHINC
 40
1.0
  9
$FILLETRAD
 40
0.0
  9
$AUNITS
 70
     0
  9
$AUPREC
 70
     0
  9
$MENU
  1
.
  9
$ELEVATION
 40
0.0
  9
$PELEVATION
 40
0.0
  9
$THICKNESS
 40
0.0
  9
$LIMCHECK
 70
     0
  9
$CHAMFERA
 40
0.0
  9
$CHAMFERB
 40
0.0
  9
$CHAMFERC
 40
0.0
  9
$CHAMFERD
 40
0.0
  9
$SKPOLY
 70
     0
  9
$TDCREATE
 40
2457296.384432049
  9
$TDUCREATE
 40
2457296.009432049
  9
$TDUPDATE
 40
2457296.385797778
  9
$TDUUPDATE
 40
2457296.010797778
  9
$TDINDWG
 40
0.0013660764
  9
$TDUSRTIMER
 40
0.0013659028
  9
$USRTIMER
 70
     1
  9
$ANGBASE
 50
0.0
  9
$ANGDIR
 70
     0
  9
$PDMODE
 70
     0
  9
$PDSIZE
 40
0.0
  9
$PLINEWID
 40
0.0
  9
$SPLFRAME
 70
     0
  9
$SPLINETYPE
 70
     6
  9
$SPLINESEGS
 70
     8
  9
$HANDSEED
  5
3EF
  9
$SURFTAB1
 70
     6
  9
$SURFTAB2
 70
     6
  9
$SURFTYPE
 70
     6
  9
$SURFU
 70
     6
  9
$SURFV
 70
     6
  9
$UCSBASE
  2

  9
$UCSNAME
  2

  9
$UCSORG
 10
0.0
 20
0.0
 30
0.0
  9
$UCSXDIR
 10
1.0
 20
0.0
 30
0.0
  9
$UCSYDIR
 10
0.0
 20
1.0
 30
0.0
  9
$UCSORTHOREF
  2

  9
$UCSORTHOVIEW
 70
     0
  9
$UCSORGTOP
 10
0.0
 20
0.0
 30
0.0
  9
$UCSORGBOTTOM
 10
0.0
 20
0.0
 30
0.0
  9
$UCSORGLEFT
 10
0.0
 20
0.0
 30
0.0
  9
$UCSORGRIGHT
 10
0.0
 20
0.0
 30
0.0
  9
$UCSORGFRONT
 10
0.0
 20
0.0
 30
0.0
  9
$UCSORGBACK
 10
0.0
 20
0.0
 30
0.0
  9
$PUCSBASE
  2

  9
$PUCSNAME
  2

  9
$PUCSORG
 10
0.0
 20
0.0
 30
0.0
  9
$PUCSXDIR
 10
1.0
 20
0.0
 30
0.0
  9
$PUCSYDIR
 10
0.0
 20
1.0
 30
0.0
  9
$PUCSORTHOREF
  2

  9
$PUCSORTHOVIEW
 70
     0
  9
$PUCSORGTOP
 10
0.0
 20
0.0
 30
0.0
  9
$PUCSORGBOTTOM
 10
0.0
 20
0.0
 30
0.0
  9
$PUCSORGLEFT
 10
0.0
 20
0.0
 30
0.0
  9
$PUCSORGRIGHT
 10
0.0
 20
0.0
 30
0.0
  9
$PUCSORGFRONT
 10
0.0
 20
0.0
 30
0.0
  9
$PUCSORGBACK
 10
0.0
 20
0.0
 30
0.0
  9
$USERI1
 70
     0
  9
$USERI2
 70
     0
  9
$USERI3
 70
     0
  9
$USERI4
 70
     0
  9
$USERI5
 70
     0
  9
$USERR1
 40
0.0
  9
$USERR2
 40
0.0
  9
$USERR3
 40
0.0
  9
$USERR4
 40
0.0
  9
$USERR5
 40
0.0
  9
$WORLDVIEW
 70
     1
  9
$SHADEDGE
 70
     3
  9
$SHADEDIF
 70
    70
  9
$TILEMODE
 70
     1
  9
$MAXACTVP
 70
    64
  9
$PINSBASE
 10
0.0
 20
0.0
 30
0.0
  9
$PLIMCHECK
 70
     0
  9
$PEXTMIN
 10
1.000000000000000E+20
 20
1.000000000000000E+20
 30
1.000000000000000E+20
  9
$PEXTMAX
 10
-1.000000000000000E+20
 20
-1.000000000000000E+20
 30
-1.000000000000000E+20
  9
$PLIMMIN
 10
0.0
 20
0.0
  9
$PLIMMAX
 10
420.0
 20
297.0
  9
$UNITMODE
 70
     0
  9
$VISRETAIN
 70
     1
  9
$PLINEGEN
 70
     0
  9
$PSLTSCALE
 70
     1
  9
$TREEDEPTH
 70
  3020
  9
$CMLSTYLE
  2
Standard
  9
$CMLJUST
 70
     0
  9
$CMLSCALE
 40
20.0
  9
$PROXYGRAPHICS
 70
     1
  9
$MEASUREMENT
 70
     1
  9
$CELWEIGHT
370
    -1
  9
$ENDCAPS
280
     0
  9
$JOINSTYLE
280
     0
  9
$LWDISPLAY
290
     0
  9
$INSUNITS
 70
     4
  9
$HYPERLINKBASE
  1

  9
$STYLESHEET
  1

  9
$XEDIT
290
     1
  9
$CEPSNTYPE
380
     0
  9
$PSTYLEMODE
290
     1
  9
$FINGERPRINTGUID
  2
{309F6412-6F58-407E-AE7A-4952FE3BDA62}
  9
$VERSIONGUID
  2
{7303DF04-437E-409D-B135-C725A9DE8B4F}
  9
$EXTNAMES
290
     1
  9
$PSVPSCALE
 40
0.0
  9
$OLESTARTUP
290
     0
  9
$SORTENTS
280
   127
  9
$INDEXCTL
280
     0
  9
$HIDETEXT
280
     1
  9
$XCLIPFRAME
290
     0
  9
$HALOGAP
280
     0
  9
$OBSCOLOR
 70
   257
  9
$OBSLTYPE
280
     0
  9
$INTERSECTIONDISPLAY
280
     0
  9
$INTERSECTIONCOLOR
 70
   257
  9
$DIMASSOC
280
     2
  9
$PROJECTNAME
  1

  0
ENDSEC
  0
SECTION
  2
CLASSES
  0
CLASS
  1
ACDBDICTIONARYWDFLT
  2
AcDbDictionaryWithDefault
  3
ObjectDBX Classes
 90
        0
 91
        1
280
     0
281
     0
  0
ENDSEC
  0
SECTION
  2
TABLES
  0
TABLE
  2
VPORT
  5
8
330
0
100
AcDbSymbolTable
 70
     3
  0
VPORT
  5
3EE
330
8
100
AcDbSymbolTableRecord
100
AcDbViewportTableRecord
  2
*Active
 70
     0
 10
0.0
 20
0.0
 11
1.0
 21
1.0
 12
6224.999337690882
 22
4380.000152934321
 13
0.0
 23
0.0
 14
10.0
 24
10.0
 15
10.0
 25
10.0
 16
0.0
 26
0.0
 36
1.0
 17
0.0
 27
0.0
 37
0.0
 40
10073.17552721535
 41
1.499378881987577
 42
50.0
 43
0.0
 44
0.0
 50
0.0
 51
0.0
 71
     0
 72
  1000
 73
     1
 74
     3
 75
     0
 76
     0
 77
     0
 78
     0
281
     0
 65
     1
110
0.0
120
0.0
130
0.0
111
1.0
121
0.0
131
0.0
112
0.0
122
1.0
132
0.0
 79
     0
146
0.0
  0
ENDTAB
  0
TABLE
  2
LTYPE
  5
5
330
0
100
AcDbSymbolTable
 70
     1
  0
LTYPE
  5
14
330
5
100
AcDbSymbolTableRecord
100
AcDbLinetypeTableRecord
  2
ByBlock
 70
     0
  3

 72
    65
 73
     0
 40
0.0
  0
LTYPE
  5
15
330
5
100
AcDbSymbolTableRecord
100
AcDbLinetypeTableRecord
  2
ByLayer
 70
     0
  3

 72
    65
 73
     0
 40
0.0
  0
LTYPE
  5
16
330
5
100
AcDbSymbolTableRecord
100
AcDbLinetypeTableRecord
  2
Continuous
 70
     0
  3
Solid line
 72
    65
 73
     0
 40
0.0
  0
ENDTAB
  0
TABLE
  2
LAYER
  5
2
330
0
100
AcDbSymbolTable
 70
     7
  0
LAYER
  5
10
330
2
100
AcDbSymbolTableRecord
100
AcDbLayerTableRecord
  2
0
 70
     0
 62
     7
  6
Continuous
370
    -3
390
F
  0
LAYER
  5
131
330
2
100
AcDbSymbolTableRecord
100
AcDbLayerTableRecord
  2
DEFPOINTS
 70
     0
 62
     7
  6
Continuous
290
     0
370
    -3
390
F
  0
LAYER
  5
132
330
2
100
AcDbSymbolTableRecord
100
AcDbLayerTableRecord
  2
実線
 70
     0
 62
     2
  6
Continuous
370
    -3
390
F
  0
LAYER
  5
133
330
2
100
AcDbSymbolTableRecord
100
AcDbLayerTableRecord
  2
寸法
 70
     0
 62
     4
  6
Continuous
370
    -3
390
F
  0
LAYER
  5
134
330
2
100
AcDbSymbolTableRecord
100
AcDbLayerTableRecord
  2
DH
 70
     0
 62
     3
  6
Continuous
370
    -3
390
F
  0
LAYER
  5
135
330
2
100
AcDbSymbolTableRecord
100
AcDbLayerTableRecord
  2
WH
 70
     0
 62
     7
  6
Continuous
370
    -3
390
F
  0
LAYER
  5
136
330
2
100
AcDbSymbolTableRecord
100
AcDbLayerTableRecord
  2
インサート
 70
     0
 62
     6
  6
Continuous
370
    -3
390
F
  0
ENDTAB
  0
TABLE
  2
STYLE
  5
3
330
0
100
AcDbSymbolTable
 70
     1
  0
STYLE
  5
11
330
3
100
AcDbSymbolTableRecord
100
AcDbTextStyleTableRecord
  2
Standard
 70
     0
 40
0.0
 41
1.0
 50
0.0
 71
     0
 42
2.5
  3

  4

1001
ACAD
1000
MS Gothic
1071
    32817
  0
ENDTAB
  0
TABLE
  2
VIEW
  5
6
330
0
100
AcDbSymbolTable
 70
     0
  0
ENDTAB
  0
TABLE
  2
UCS
  5
7
330
0
100
AcDbSymbolTable
 70
     0
  0
ENDTAB
  0
TABLE
  2
APPID
  5
9
330
0
100
AcDbSymbolTable
 70
     1
  0
APPID
  5
12
330
9
100
AcDbSymbolTableRecord
100
AcDbRegAppTableRecord
  2
ACAD
 70
     0
  0
ENDTAB
  0
TABLE
  2
DIMSTYLE
  5
A
330
0
100
AcDbSymbolTable
 70
     3
100
AcDbDimStyleTable
 71
     0
  0
DIMSTYLE
105
29
330
A
100
AcDbSymbolTableRecord
100
AcDbDimStyleTableRecord
  2
ISO-25
 70
     0
 41
2.5
 42
0.625
 43
3.75
 44
1.25
 73
     0
 74
     0
 77
     1
 78
     8
140
2.5
141
2.5
143
0.03937007874016
147
0.625
171
     3
172
     1
271
     2
272
     2
274
     3
283
     0
284
     8
340
11
  0
DIMSTYLE
105
137
102
{ACAD_REACTORS
330
1A0
330
19F
330
1A4
330
1B4
330
19E
330
1A1
330
196
330
1A9
330
1AD
330
1B0
330
1AB
330
197
330
198
330
1B5
330
193
330
190
330
191
330
192
330
194
330
14B
330
148
330
1C9
330
1CC
330
211
330
212
330
213
330
214
330
215
330
217
330
218
330
219
330
21F
330
220
330
221
330
222
330
225
330
22A
330
22C
330
22E
330
231
330
235
330
236
102
}
330
A
100
AcDbSymbolTableRecord
100
AcDbDimStyleTableRecord
  2
25
 70
     0
 40
25.0
 41
2.0
 42
2.0
 43
4.0
 44
1.5
 73
     0
 74
     0
 77
     1
 78
     8
140
2.5
141
2.5
143
0.0394
147
1.0
171
     4
173
     1
271
     0
273
     8
274
     4
279
     2
340
11
341
2D
343
2D
344
2D
  0
DIMSTYLE
105
138
330
A
100
AcDbSymbolTableRecord
100
AcDbDimStyleTableRecord
  2
25$7
 70
     0
 40
25.0
 41
2.0
 42
2.0
 43
4.0
 44
1.5
 73
     0
 74
     0
 77
     1
 78
     8
140
2.6
141
2.5
143
0.0394
147
1.0
171
     4
173
     1
271
     0
273
     8
274
     4
279
     2
340
11
341
31
343
31
344
31
  0
ENDTAB
  0
TABLE
  2
BLOCK_RECORD
  5
1
330
0
100
AcDbSymbolTable
 70
    46
  0
BLOCK_RECORD
  5
21
330
1
100
AcDbSymbolTableRecord
100
AcDbBlockTableRecord
  2
*Model_Space
340
24
  0
BLOCK_RECORD
  5
1D
330
1
100
AcDbSymbolTableRecord
100
AcDbBlockTableRecord
  2
*Paper_Space
340
20
  0
BLOCK_RECORD
  5
25
330
1
100
AcDbSymbolTableRecord
100
AcDbBlockTableRecord
  2
*Paper_Space0
340
28
  0
BLOCK_RECORD
  5
2D
330
1
100
AcDbSymbolTableRecord
100
AcDbBlockTableRecord
  2
_OBLIQUE
340
0
102
{BLKREFS
331
3C
331
3D
331
47
331
48
331
52
331
53
331
5E
331
5F
331
6A
331
6B
331
76
331
77
331
82
331
83
331
8E
331
8F
331
9A
331
9B
331
A6
331
A7
331
B2
331
B3
331
BF
331
C0
331
CA
331
CB
331
D7
331
D8
331
E3
331
E4
331
EF
331
F0
331
FB
331
FC
331
107
331
108
331
112
331
113
331
11E
331
11F
331
12B
331
12C
331
336
331
337
331
33E
331
33F
331
348
331
349
331
351
331
352
331
35A
331
35B
331
363
331
364
331
36C
331
36D
331
374
331
375
331
37D
331
37E
331
387
331
388
331
38F
331
390
331
397
331
398
331
3A0
331
3A1
331
3A9
331
3AA
331
3B1
331
3B2
331
3BA
331
3BB
331
3C3
331
3C4
331
3CC
331
3CD
331
3D5
331
3D6
331
3DE
331
3DF
331
3E7
331
3E8
102
}
  0
BLOCK_RECORD
  5
31
330
1
100
AcDbSymbolTableRecord
100
AcDbBlockTableRecord
  2
_OPEN
340
0
  0
BLOCK_RECORD
  5
37
330
1
100
AcDbSymbolTableRecord
100
AcDbBlockTableRecord
  2
*D3
340
0
  0
BLOCK_RECORD
  5
43
330
1
100
AcDbSymbolTableRecord
100
AcDbBlockTableRecord
  2
*D4
340
0
  0
BLOCK_RECORD
  5
4E
330
1
100
AcDbSymbolTableRecord
100
AcDbBlockTableRecord
  2
*D5
340
0
  0
BLOCK_RECORD
  5
59
330
1
100
AcDbSymbolTableRecord
100
AcDbBlockTableRecord
  2
*D6
340
0
  0
BLOCK_RECORD
  5
65
330
1
100
AcDbSymbolTableRecord
100
AcDbBlockTableRecord
  2
*D7
340
0
  0
BLOCK_RECORD
  5
71
330
1
100
AcDbSymbolTableRecord
100
AcDbBlockTableRecord
  2
*D8
340
0
  0
BLOCK_RECORD
  5
7D
330
1
100
AcDbSymbolTableRecord
100
AcDbBlockTableRecord
  2
*D9
340
0
  0
BLOCK_RECORD
  5
89
330
1
100
AcDbSymbolTableRecord
100
AcDbBlockTableRecord
  2
*D10
340
0
  0
BLOCK_RECORD
  5
95
330
1
100
AcDbSymbolTableRecord
100
AcDbBlockTableRecord
  2
*D11
340
0
  0
BLOCK_RECORD
  5
A1
330
1
100
AcDbSymbolTableRecord
100
AcDbBlockTableRecord
  2
*D12
340
0
  0
BLOCK_RECORD
  5
AD
330
1
100
AcDbSymbolTableRecord
100
AcDbBlockTableRecord
  2
*D13
340
0
  0
BLOCK_RECORD
  5
B9
330
1
100
AcDbSymbolTableRecord
100
AcDbBlockTableRecord
  2
*D14
340
0
  0
BLOCK_RECORD
  5
C5
330
1
100
AcDbSymbolTableRecord
100
AcDbBlockTableRecord
  2
*D15
340
0
  0
BLOCK_RECORD
  5
D1
330
1
100
AcDbSymbolTableRecord
100
AcDbBlockTableRecord
  2
*D16
340
0
  0
BLOCK_RECORD
  5
DD
330
1
100
AcDbSymbolTableRecord
100
AcDbBlockTableRecord
  2
*D17
340
0
  0
BLOCK_RECORD
  5
E9
330
1
100
AcDbSymbolTableRecord
100
AcDbBlockTableRecord
  2
*D18
340
0
  0
BLOCK_RECORD
  5
F5
330
1
100
AcDbSymbolTableRecord
100
AcDbBlockTableRecord
  2
*D19
340
0
  0
BLOCK_RECORD
  5
101
330
1
100
AcDbSymbolTableRecord
100
AcDbBlockTableRecord
  2
*D20
340
0
  0
BLOCK_RECORD
  5
10D
330
1
100
AcDbSymbolTableRecord
100
AcDbBlockTableRecord
  2
*D21
340
0
  0
BLOCK_RECORD
  5
119
330
1
100
AcDbSymbolTableRecord
100
AcDbBlockTableRecord
  2
*D22
340
0
  0
BLOCK_RECORD
  5
125
330
1
100
AcDbSymbolTableRecord
100
AcDbBlockTableRecord
  2
*D23
340
0
  0
BLOCK_RECORD
  5
238
330
1
100
AcDbSymbolTableRecord
100
AcDbBlockTableRecord
  2
*D25
340
0
  0
BLOCK_RECORD
  5
244
330
1
100
AcDbSymbolTableRecord
100
AcDbBlockTableRecord
  2
*D26
340
0
  0
BLOCK_RECORD
  5
250
330
1
100
AcDbSymbolTableRecord
100
AcDbBlockTableRecord
  2
*D27
340
0
  0
BLOCK_RECORD
  5
25C
330
1
100
AcDbSymbolTableRecord
100
AcDbBlockTableRecord
  2
*D28
340
0
  0
BLOCK_RECORD
  5
268
330
1
100
AcDbSymbolTableRecord
100
AcDbBlockTableRecord
  2
*D29
340
0
  0
BLOCK_RECORD
  5
274
330
1
100
AcDbSymbolTableRecord
100
AcDbBlockTableRecord
  2
*D30
340
0
  0
BLOCK_RECORD
  5
280
330
1
100
AcDbSymbolTableRecord
100
AcDbBlockTableRecord
  2
*D31
340
0
  0
BLOCK_RECORD
  5
28C
330
1
100
AcDbSymbolTableRecord
100
AcDbBlockTableRecord
  2
*D32
340
0
  0
BLOCK_RECORD
  5
298
330
1
100
AcDbSymbolTableRecord
100
AcDbBlockTableRecord
  2
*D33
340
0
  0
BLOCK_RECORD
  5
2A4
330
1
100
AcDbSymbolTableRecord
100
AcDbBlockTableRecord
  2
*D34
340
0
  0
BLOCK_RECORD
  5
2B0
330
1
100
AcDbSymbolTableRecord
100
AcDbBlockTableRecord
  2
*D35
340
0
  0
BLOCK_RECORD
  5
2BC
330
1
100
AcDbSymbolTableRecord
100
AcDbBlockTableRecord
  2
*D36
340
0
  0
BLOCK_RECORD
  5
2C7
330
1
100
AcDbSymbolTableRecord
100
AcDbBlockTableRecord
  2
*D37
340
0
  0
BLOCK_RECORD
  5
2D3
330
1
100
AcDbSymbolTableRecord
100
AcDbBlockTableRecord
  2
*D38
340
0
  0
BLOCK_RECORD
  5
2DF
330
1
100
AcDbSymbolTableRecord
100
AcDbBlockTableRecord
  2
*D39
340
0
  0
BLOCK_RECORD
  5
2EA
330
1
100
AcDbSymbolTableRecord
100
AcDbBlockTableRecord
  2
*D40
340
0
  0
BLOCK_RECORD
  5
2F6
330
1
100
AcDbSymbolTableRecord
100
AcDbBlockTableRecord
  2
*D41
340
0
  0
BLOCK_RECORD
  5
302
330
1
100
AcDbSymbolTableRecord
100
AcDbBlockTableRecord
  2
*D42
340
0
  0
BLOCK_RECORD
  5
30E
330
1
100
AcDbSymbolTableRecord
100
AcDbBlockTableRecord
  2
*D43
340
0
  0
BLOCK_RECORD
  5
31A
330
1
100
AcDbSymbolTableRecord
100
AcDbBlockTableRecord
  2
*D44
340
0
  0
BLOCK_RECORD
  5
326
330
1
100
AcDbSymbolTableRecord
100
AcDbBlockTableRecord
  2
*D45
340
0
  0
ENDTAB
  0
ENDSEC
  0
SECTION
  2
BLOCKS
  0
BLOCK
  5
22
330
21
100
AcDbEntity
  8
0
100
AcDbBlockBegin
  2
*Model_Space
 70
     0
 10
0.0
 20
0.0
 30
0.0
  3
*Model_Space
  1

  0
ENDBLK
  5
23
330
21
100
AcDbEntity
  8
0
100
AcDbBlockEnd
  0
BLOCK
  5
1E
330
1D
100
AcDbEntity
 67
     1
  8
0
100
AcDbBlockBegin
  2
*Paper_Space
 70
     0
 10
0.0
 20
0.0
 30
0.0
  3
*Paper_Space
  1

  0
ENDBLK
  5
1F
330
1D
100
AcDbEntity
 67
     1
  8
0
100
AcDbBlockEnd
  0
BLOCK
  5
26
330
25
100
AcDbEntity
 67
     1
  8
0
100
AcDbBlockBegin
  2
*Paper_Space0
 70
     0
 10
0.0
 20
0.0
 30
0.0
  3
*Paper_Space0
  1

  0
ENDBLK
  5
27
330
25
100
AcDbEntity
 67
     1
  8
0
100
AcDbBlockEnd
  0
BLOCK
  5
2E
330
2D
100
AcDbEntity
  8
0
100
AcDbBlockBegin
  2
_OBLIQUE
 70
     0
 10
0.0
 20
0.0
 30
0.0
  3
_OBLIQUE
  1

  0
LINE
  5
2F
330
2D
100
AcDbEntity
  8
0
  6
ByBlock
 62
     0
100
AcDbLine
 10
-0.5
 20
-0.5
 30
0.0
 11
0.5
 21
0.5
 31
0.0
  0
ENDBLK
  5
30
330
2D
100
AcDbEntity
  8
0
100
AcDbBlockEnd
  0
BLOCK
  5
32
330
31
100
AcDbEntity
  8
0
100
AcDbBlockBegin
  2
_OPEN
 70
     0
 10
0.0
 20
0.0
 30
0.0
  3
_OPEN
  1

  0
LINE
  5
33
330
31
100
AcDbEntity
  8
0
  6
ByBlock
 62
     0
100
AcDbLine
 10
-1.0
 20
0.166667
 30
0.0
 11
0.0
 21
0.0
 31
0.0
  0
LINE
  5
34
330
31
100
AcDbEntity
  8
0
  6
ByBlock
 62
     0
100
AcDbLine
 10
0.0
 20
0.0
 30
0.0
 11
-1.0
 21
-0.166667
 31
0.0
  0
LINE
  5
35
330
31
100
AcDbEntity
  8
0
  6
ByBlock
 62
     0
100
AcDbLine
 10
0.0
 20
0.0
 30
0.0
 11
-1.0
 21
0.0
 31
0.0
  0
ENDBLK
  5
36
330
31
100
AcDbEntity
  8
0
100
AcDbBlockEnd
  0
BLOCK
  5
38
330
37
100
AcDbEntity
  8
0
100
AcDbBlockBegin
  2
*D3
 70
     1
 10
0.0
 20
0.0
 30
0.0
  3
*D3
  1

  0
LINE
  5
39
330
37
100
AcDbEntity
  8
0
  6
ByBlock
 62
     0
100
AcDbLine
 10
26144.300514
 20
74731.314352
 30
0.0
 11
26144.300514
 21
74443.814352
 31
0.0
  0
LINE
  5
3A
330
37
100
AcDbEntity
  8
0
  6
ByBlock
 62
     0
100
AcDbLine
 10
26644.300514
 20
74731.314352
 30
0.0
 11
26644.300514
 21
74443.814352
 31
0.0
  0
LINE
  5
3B
330
37
100
AcDbEntity
  8
0
  6
ByBlock
 62
     0
100
AcDbLine
 10
26144.300514
 20
74481.314352
 30
0.0
 11
26644.300514
 21
74481.314352
 31
0.0
  0
INSERT
  5
3C
330
37
100
AcDbEntity
  8
0
  6
ByBlock
 62
     0
100
AcDbBlockReference
  2
_OBLIQUE
 10
26144.300514
 20
74481.314352
 30
0.0
 41
50.0
 42
50.0
 43
50.0
 50
180.0
  0
INSERT
  5
3D
330
37
100
AcDbEntity
  8
0
  6
ByBlock
 62
     0
100
AcDbBlockReference
  2
_OBLIQUE
 10
26644.300514
 20
74481.314352
 30
0.0
 41
50.0
 42
50.0
 43
50.0
  0
MTEXT
  5
3E
330
37
100
AcDbEntity
  8
0
  6
ByBlock
 62
     0
100
AcDbMText
 10
26394.300514
 20
74537.564352
 30
0.0
 40
62.5
 41
0.0
 71
     5
 72
     1
  1
\A1;500
 73
     1
 44
1.0
  0
POINT
  5
3F
330
37
100
AcDbEntity
  8
DEFPOINTS
  6
ByBlock
 62
     0
100
AcDbPoint
 10
26144.300514
 20
74781.314352
 30
0.0
  0
POINT
  5
40
330
37
100
AcDbEntity
  8
DEFPOINTS
  6
ByBlock
 62
     0
100
AcDbPoint
 10
26644.300514
 20
74781.314352
 30
0.0
  0
POINT
  5
41
330
37
100
AcDbEntity
  8
DEFPOINTS
  6
ByBlock
 62
     0
100
AcDbPoint
 10
26644.300514
 20
74481.314352
 30
0.0
  0
ENDBLK
  5
42
330
37
100
AcDbEntity
  8
0
100
AcDbBlockEnd
  0
BLOCK
  5
44
330
43
100
AcDbEntity
  8
0
100
AcDbBlockBegin
  2
*D4
 70
     1
 10
0.0
 20
0.0
 30
0.0
  3
*D4
  1

  0
LINE
  5
45
330
43
100
AcDbEntity
  8
0
  6
ByBlock
 62
     0
100
AcDbLine
 10
27644.300514
 20
74731.314352
 30
0.0
 11
27644.300514
 21
74443.814352
 31
0.0
  0
LINE
  5
46
330
43
100
AcDbEntity
  8
0
  6
ByBlock
 62
     0
100
AcDbLine
 10
26644.300514
 20
74481.314352
 30
0.0
 11
27644.300514
 21
74481.314352
 31
0.0
  0
INSERT
  5
47
330
43
100
AcDbEntity
  8
0
  6
ByBlock
 62
     0
100
AcDbBlockReference
  2
_OBLIQUE
 10
26644.300514
 20
74481.314352
 30
0.0
 41
50.0
 42
50.0
 43
50.0
 50
180.0
  0
INSERT
  5
48
330
43
100
AcDbEntity
  8
0
  6
ByBlock
 62
     0
100
AcDbBlockReference
  2
_OBLIQUE
 10
27644.300514
 20
74481.314352
 30
0.0
 41
50.0
 42
50.0
 43
50.0
  0
MTEXT
  5
49
330
43
100
AcDbEntity
  8
0
  6
ByBlock
 62
     0
100
AcDbMText
 10
27144.300514
 20
74537.564352
 30
0.0
 40
62.5
 41
0.0
 71
     5
 72
     1
  1
\A1;1000
 73
     1
 44
1.0
  0
POINT
  5
4A
330
43
100
AcDbEntity
  8
DEFPOINTS
  6
ByBlock
 62
     0
100
AcDbPoint
 10
26644.300514
 20
74781.314352
 30
0.0
  0
POINT
  5
4B
330
43
100
AcDbEntity
  8
DEFPOINTS
  6
ByBlock
 62
     0
100
AcDbPoint
 10
27644.300514
 20
74781.314352
 30
0.0
  0
POINT
  5
4C
330
43
100
AcDbEntity
  8
DEFPOINTS
  6
ByBlock
 62
     0
100
AcDbPoint
 10
27644.300514
 20
74481.314352
 30
0.0
  0
ENDBLK
  5
4D
330
43
100
AcDbEntity
  8
0
100
AcDbBlockEnd
  0
BLOCK
  5
4F
330
4E
100
AcDbEntity
  8
0
100
AcDbBlockBegin
  2
*D5
 70
     1
 10
0.0
 20
0.0
 30
0.0
  3
*D5
  1

  0
LINE
  5
50
330
4E
100
AcDbEntity
  8
0
  6
ByBlock
 62
     0
100
AcDbLine
 10
28144.300514
 20
74731.314352
 30
0.0
 11
28144.300514
 21
74443.814352
 31
0.0
  0
LINE
  5
51
330
4E
100
AcDbEntity
  8
0
  6
ByBlock
 62
     0
100
AcDbLine
 10
27644.300514
 20
74481.314352
 30
0.0
 11
28144.300514
 21
74481.314352
 31
0.0
  0
INSERT
  5
52
330
4E
100
AcDbEntity
  8
0
  6
ByBlock
 62
     0
100
AcDbBlockReference
  2
_OBLIQUE
 10
27644.300514
 20
74481.314352
 30
0.0
 41
50.0
 42
50.0
 43
50.0
 50
180.0
  0
INSERT
  5
53
330
4E
100
AcDbEntity
  8
0
  6
ByBlock
 62
     0
100
AcDbBlockReference
  2
_OBLIQUE
 10
28144.300514
 20
74481.314352
 30
0.0
 41
50.0
 42
50.0
 43
50.0
  0
MTEXT
  5
54
330
4E
100
AcDbEntity
  8
0
  6
ByBlock
 62
     0
100
AcDbMText
 10
27894.300514
 20
74537.564352
 30
0.0
 40
62.5
 41
0.0
 71
     5
 72
     1
  1
\A1;500
 73
     1
 44
1.0
  0
POINT
  5
55
330
4E
100
AcDbEntity
  8
DEFPOINTS
  6
ByBlock
 62
     0
100
AcDbPoint
 10
27644.300514
 20
74781.314352
 30
0.0
  0
POINT
  5
56
330
4E
100
AcDbEntity
  8
DEFPOINTS
  6
ByBlock
 62
     0
100
AcDbPoint
 10
28144.300514
 20
74781.314352
 30
0.0
  0
POINT
  5
57
330
4E
100
AcDbEntity
  8
DEFPOINTS
  6
ByBlock
 62
     0
100
AcDbPoint
 10
28144.300514
 20
74481.314352
 30
0.0
  0
ENDBLK
  5
58
330
4E
100
AcDbEntity
  8
0
100
AcDbBlockEnd
  0
BLOCK
  5
5A
330
59
100
AcDbEntity
  8
0
100
AcDbBlockBegin
  2
*D6
 70
     1
 10
0.0
 20
0.0
 30
0.0
  3
*D6
  1

  0
LINE
  5
5B
330
59
100
AcDbEntity
  8
0
  6
ByBlock
 62
     0
100
AcDbLine
 10
26144.300514
 20
74731.314352
 30
0.0
 11
26144.300514
 21
74143.814352
 31
0.0
  0
LINE
  5
5C
330
59
100
AcDbEntity
  8
0
  6
ByBlock
 62
     0
100
AcDbLine
 10
28144.300514
 20
74731.314352
 30
0.0
 11
28144.300514
 21
74143.814352
 31
0.0
  0
LINE
  5
5D
330
59
100
AcDbEntity
  8
0
  6
ByBlock
 62
     0
100
AcDbLine
 10
26144.300514
 20
74181.314352
 30
0.0
 11
28144.300514
 21
74181.314352
 31
0.0
  0
INSERT
  5
5E
330
59
100
AcDbEntity
  8
0
  6
ByBlock
 62
     0
100
AcDbBlockReference
  2
_OBLIQUE
 10
26144.300514
 20
74181.314352
 30
0.0
 41
50.0
 42
50.0
 43
50.0
 50
180.0
  0
INSERT
  5
5F
330
59
100
AcDbEntity
  8
0
  6
ByBlock
 62
     0
100
AcDbBlockReference
  2
_OBLIQUE
 10
28144.300514
 20
74181.314352
 30
0.0
 41
50.0
 42
50.0
 43
50.0
  0
MTEXT
  5
60
330
59
100
AcDbEntity
  8
0
  6
ByBlock
 62
     0
100
AcDbMText
 10
27144.300514
 20
74237.564352
 30
0.0
 40
62.5
 41
0.0
 71
     5
 72
     1
  1
\A1;2000
 73
     1
 44
1.0
  0
POINT
  5
61
330
59
100
AcDbEntity
  8
DEFPOINTS
  6
ByBlock
 62
     0
100
AcDbPoint
 10
26144.300514
 20
74781.314352
 30
0.0
  0
POINT
  5
62
330
59
100
AcDbEntity
  8
DEFPOINTS
  6
ByBlock
 62
     0
100
AcDbPoint
 10
28144.300514
 20
74781.314352
 30
0.0
  0
POINT
  5
63
330
59
100
AcDbEntity
  8
DEFPOINTS
  6
ByBlock
 62
     0
100
AcDbPoint
 10
28144.300514
 20
74181.314352
 30
0.0
  0
ENDBLK
  5
64
330
59
100
AcDbEntity
  8
0
100
AcDbBlockEnd
  0
BLOCK
  5
66
330
65
100
AcDbEntity
  8
0
100
AcDbBlockBegin
  2
*D7
 70
     1
 10
0.0
 20
0.0
 30
0.0
  3
*D7
  1

  0
LINE
  5
67
330
65
100
AcDbEntity
  8
0
  6
ByBlock
 62
     0
100
AcDbLine
 10
26094.300514
 20
74781.314352
 30
0.0
 11
25806.800514
 21
74781.314352
 31
0.0
  0
LINE
  5
68
330
65
100
AcDbEntity
  8
0
  6
ByBlock
 62
     0
100
AcDbLine
 10
26094.300514
 20
75531.314352
 30
0.0
 11
25806.800514
 21
75531.314352
 31
0.0
  0
LINE
  5
69
330
65
100
AcDbEntity
  8
0
  6
ByBlock
 62
     0
100
AcDbLine
 10
25844.300514
 20
74781.314352
 30
0.0
 11
25844.300514
 21
75531.314352
 31
0.0
  0
INSERT
  5
6A
330
65
100
AcDbEntity
  8
0
  6
ByBlock
 62
     0
100
AcDbBlockReference
  2
_OBLIQUE
 10
25844.300514
 20
74781.314352
 30
0.0
 41
50.0
 42
50.0
 43
50.0
 50
270.0
  0
INSERT
  5
6B
330
65
100
AcDbEntity
  8
0
  6
ByBlock
 62
     0
100
AcDbBlockReference
  2
_OBLIQUE
 10
25844.300514
 20
75531.314352
 30
0.0
 41
50.0
 42
50.0
 43
50.0
 50
90.0
  0
MTEXT
  5
6C
330
65
100
AcDbEntity
  8
0
  6
ByBlock
 62
     0
100
AcDbMText
 10
25788.050514
 20
75156.314352
 30
0.0
 40
62.5
 41
0.0
 71
     5
 72
     1
  1
\A1;750
 11
0.0
 21
1.0
 31
0.0
 73
     1
 44
1.0
  0
POINT
  5
6D
330
65
100
AcDbEntity
  8
DEFPOINTS
  6
ByBlock
 62
     0
100
AcDbPoint
 10
26144.300514
 20
74781.314352
 30
0.0
  0
POINT
  5
6E
330
65
100
AcDbEntity
  8
DEFPOINTS
  6
ByBlock
 62
     0
100
AcDbPoint
 10
26144.300514
 20
75531.314352
 30
0.0
  0
POINT
  5
6F
330
65
100
AcDbEntity
  8
DEFPOINTS
  6
ByBlock
 62
     0
100
AcDbPoint
 10
25844.300514
 20
75531.314352
 30
0.0
  0
ENDBLK
  5
70
330
65
100
AcDbEntity
  8
0
100
AcDbBlockEnd
  0
BLOCK
  5
72
330
71
100
AcDbEntity
  8
0
100
AcDbBlockBegin
  2
*D8
 70
     1
 10
0.0
 20
0.0
 30
0.0
  3
*D8
  1

  0
LINE
  5
73
330
71
100
AcDbEntity
  8
0
  6
ByBlock
 62
     0
100
AcDbLine
 10
28194.300514
 20
76281.314352
 30
0.0
 11
28781.800514
 21
76281.314352
 31
0.0
  0
LINE
  5
74
330
71
100
AcDbEntity
  8
0
  6
ByBlock
 62
     0
100
AcDbLine
 10
28194.300514
 20
74781.314352
 30
0.0
 11
28781.800514
 21
74781.314352
 31
0.0
  0
LINE
  5
75
330
71
100
AcDbEntity
  8
0
  6
ByBlock
 62
     0
100
AcDbLine
 10
28744.300514
 20
76281.314352
 30
0.0
 11
28744.300514
 21
74781.314352
 31
0.0
  0
INSERT
  5
76
330
71
100
AcDbEntity
  8
0
  6
ByBlock
 62
     0
100
AcDbBlockReference
  2
_OBLIQUE
 10
28744.300514
 20
76281.314352
 30
0.0
 41
50.0
 42
50.0
 43
50.0
 50
90.0
  0
INSERT
  5
77
330
71
100
AcDbEntity
  8
0
  6
ByBlock
 62
     0
100
AcDbBlockReference
  2
_OBLIQUE
 10
28744.300514
 20
74781.314352
 30
0.0
 41
50.0
 42
50.0
 43
50.0
 50
270.0
  0
MTEXT
  5
78
330
71
100
AcDbEntity
  8
0
  6
ByBlock
 62
     0
100
AcDbMText
 10
28688.050514
 20
75531.314352
 30
0.0
 40
62.5
 41
0.0
 71
     5
 72
     1
  1
\A1;1500
 11
0.0
 21
1.0
 31
0.0
 73
     1
 44
1.0
  0
POINT
  5
79
330
71
100
AcDbEntity
  8
DEFPOINTS
  6
ByBlock
 62
     0
100
AcDbPoint
 10
28144.300514
 20
76281.314352
 30
0.0
  0
POINT
  5
7A
330
71
100
AcDbEntity
  8
DEFPOINTS
  6
ByBlock
 62
     0
100
AcDbPoint
 10
28144.300514
 20
74781.314352
 30
0.0
  0
POINT
  5
7B
330
71
100
AcDbEntity
  8
DEFPOINTS
  6
ByBlock
 62
     0
100
AcDbPoint
 10
28744.300514
 20
74781.314352
 30
0.0
  0
ENDBLK
  5
7C
330
71
100
AcDbEntity
  8
0
100
AcDbBlockEnd
  0
BLOCK
  5
7E
330
7D
100
AcDbEntity
  8
0
100
AcDbBlockBegin
  2
*D9
 70
     1
 10
0.0
 20
0.0
 30
0.0
  3
*D9
  1

  0
LINE
  5
7F
330
7D
100
AcDbEntity
  8
0
  6
ByBlock
 62
     0
100
AcDbLine
 10
13307.438104
 20
42095.37656
 30
0.0
 11
13894.938104
 21
42095.37656
 31
0.0
  0
LINE
  5
80
330
7D
100
AcDbEntity
  8
0
  6
ByBlock
 62
     0
100
AcDbLine
 10
13307.438104
 20
41025.37656
 30
0.0
 11
13894.938104
 21
41025.37656
 31
0.0
  0
LINE
  5
81
330
7D
100
AcDbEntity
  8
0
  6
ByBlock
 62
     0
100
AcDbLine
 10
13857.438104
 20
42095.37656
 30
0.0
 11
13857.438104
 21
41025.37656
 31
0.0
  0
INSERT
  5
82
330
7D
100
AcDbEntity
  8
0
  6
ByBlock
 62
     0
100
AcDbBlockReference
  2
_OBLIQUE
 10
13857.438104
 20
42095.37656
 30
0.0
 41
50.0
 42
50.0
 43
50.0
 50
90.0
  0
INSERT
  5
83
330
7D
100
AcDbEntity
  8
0
  6
ByBlock
 62
     0
100
AcDbBlockReference
  2
_OBLIQUE
 10
13857.438104
 20
41025.37656
 30
0.0
 41
50.0
 42
50.0
 43
50.0
 50
270.0
  0
MTEXT
  5
84
330
7D
100
AcDbEntity
  8
0
  6
ByBlock
 62
     0
100
AcDbMText
 10
13801.188104
 20
41560.37656
 30
0.0
 40
62.5
 41
0.0
 71
     5
 72
     1
  1
\A1;1070
 11
0.0
 21
1.0
 31
0.0
 73
     1
 44
1.0
  0
POINT
  5
85
330
7D
100
AcDbEntity
  8
DEFPOINTS
  6
ByBlock
 62
     0
100
AcDbPoint
 10
13257.438104
 20
42095.37656
 30
0.0
  0
POINT
  5
86
330
7D
100
AcDbEntity
  8
DEFPOINTS
  6
ByBlock
 62
     0
100
AcDbPoint
 10
13257.438104
 20
41025.37656
 30
0.0
  0
POINT
  5
87
330
7D
100
AcDbEntity
  8
DEFPOINTS
  6
ByBlock
 62
     0
100
AcDbPoint
 10
13857.438104
 20
41025.37656
 30
0.0
  0
ENDBLK
  5
88
330
7D
100
AcDbEntity
  8
0
100
AcDbBlockEnd
  0
BLOCK
  5
8A
330
89
100
AcDbEntity
  8
0
100
AcDbBlockBegin
  2
*D10
 70
     1
 10
0.0
 20
0.0
 30
0.0
  3
*D10
  1

  0
LINE
  5
8B
330
89
100
AcDbEntity
  8
0
  6
ByBlock
 62
     0
100
AcDbLine
 10
26094.300514
 20
72107.996512
 30
0.0
 11
25806.800514
 21
72107.996512
 31
0.0
  0
LINE
  5
8C
330
89
100
AcDbEntity
  8
0
  6
ByBlock
 62
     0
100
AcDbLine
 10
26094.300514
 20
71507.99651199999
 30
0.0
 11
25806.800514
 21
71507.99651199999
 31
0.0
  0
LINE
  5
8D
330
89
100
AcDbEntity
  8
0
  6
ByBlock
 62
     0
100
AcDbLine
 10
25844.300514
 20
72107.996512
 30
0.0
 11
25844.300514
 21
71507.99651199999
 31
0.0
  0
INSERT
  5
8E
330
89
100
AcDbEntity
  8
0
  6
ByBlock
 62
     0
100
AcDbBlockReference
  2
_OBLIQUE
 10
25844.300514
 20
72107.996512
 30
0.0
 41
50.0
 42
50.0
 43
50.0
 50
90.0
  0
INSERT
  5
8F
330
89
100
AcDbEntity
  8
0
  6
ByBlock
 62
     0
100
AcDbBlockReference
  2
_OBLIQUE
 10
25844.300514
 20
71507.99651199999
 30
0.0
 41
50.0
 42
50.0
 43
50.0
 50
270.0
  0
MTEXT
  5
90
330
89
100
AcDbEntity
  8
0
  6
ByBlock
 62
     0
100
AcDbMText
 10
25788.050514
 20
71807.996512
 30
0.0
 40
62.5
 41
0.0
 71
     5
 72
     1
  1
\A1;600
 11
0.0
 21
1.0
 31
0.0
 73
     1
 44
1.0
  0
POINT
  5
91
330
89
100
AcDbEntity
  8
DEFPOINTS
  6
ByBlock
 62
     0
100
AcDbPoint
 10
26144.300514
 20
72107.996512
 30
0.0
  0
POINT
  5
92
330
89
100
AcDbEntity
  8
DEFPOINTS
  6
ByBlock
 62
     0
100
AcDbPoint
 10
26144.300514
 20
71507.99651199999
 30
0.0
  0
POINT
  5
93
330
89
100
AcDbEntity
  8
DEFPOINTS
  6
ByBlock
 62
     0
100
AcDbPoint
 10
25844.300514
 20
71507.99651199999
 30
0.0
  0
ENDBLK
  5
94
330
89
100
AcDbEntity
  8
0
100
AcDbBlockEnd
  0
BLOCK
  5
96
330
95
100
AcDbEntity
  8
0
100
AcDbBlockBegin
  2
*D11
 70
     1
 10
0.0
 20
0.0
 30
0.0
  3
*D11
  1

  0
LINE
  5
97
330
95
100
AcDbEntity
  8
0
  6
ByBlock
 62
     0
100
AcDbLine
 10
11257.438104
 20
40975.37656
 30
0.0
 11
11257.438104
 21
40387.87656
 31
0.0
  0
LINE
  5
98
330
95
100
AcDbEntity
  8
0
  6
ByBlock
 62
     0
100
AcDbLine
 10
13257.438104
 20
40975.37656
 30
0.0
 11
13257.438104
 21
40387.87656
 31
0.0
  0
LINE
  5
99
330
95
100
AcDbEntity
  8
0
  6
ByBlock
 62
     0
100
AcDbLine
 10
11257.438104
 20
40425.37656
 30
0.0
 11
13257.438104
 21
40425.37656
 31
0.0
  0
INSERT
  5
9A
330
95
100
AcDbEntity
  8
0
  6
ByBlock
 62
     0
100
AcDbBlockReference
  2
_OBLIQUE
 10
11257.438104
 20
40425.37656
 30
0.0
 41
50.0
 42
50.0
 43
50.0
 50
180.0
  0
INSERT
  5
9B
330
95
100
AcDbEntity
  8
0
  6
ByBlock
 62
     0
100
AcDbBlockReference
  2
_OBLIQUE
 10
13257.438104
 20
40425.37656
 30
0.0
 41
50.0
 42
50.0
 43
50.0
  0
MTEXT
  5
9C
330
95
100
AcDbEntity
  8
0
  6
ByBlock
 62
     0
100
AcDbMText
 10
12257.438104
 20
40481.62656
 30
0.0
 40
62.5
 41
0.0
 71
     5
 72
     1
  1
\A1;2000
 73
     1
 44
1.0
  0
POINT
  5
9D
330
95
100
AcDbEntity
  8
DEFPOINTS
  6
ByBlock
 62
     0
100
AcDbPoint
 10
11257.438104
 20
41025.37656
 30
0.0
  0
POINT
  5
9E
330
95
100
AcDbEntity
  8
DEFPOINTS
  6
ByBlock
 62
     0
100
AcDbPoint
 10
13257.438104
 20
41025.37656
 30
0.0
  0
POINT
  5
9F
330
95
100
AcDbEntity
  8
DEFPOINTS
  6
ByBlock
 62
     0
100
AcDbPoint
 10
13257.438104
 20
40425.37656
 30
0.0
  0
ENDBLK
  5
A0
330
95
100
AcDbEntity
  8
0
100
AcDbBlockEnd
  0
BLOCK
  5
A2
330
A1
100
AcDbEntity
  8
0
100
AcDbBlockBegin
  2
*D12
 70
     1
 10
0.0
 20
0.0
 30
0.0
  3
*D12
  1

  0
LINE
  5
A3
330
A1
100
AcDbEntity
  8
0
  6
ByBlock
 62
     0
100
AcDbLine
 10
11257.438104
 20
40975.37656
 30
0.0
 11
11257.438104
 21
40687.87656
 31
0.0
  0
LINE
  5
A4
330
A1
100
AcDbEntity
  8
0
  6
ByBlock
 62
     0
100
AcDbLine
 10
12257.438104
 20
40976.62656
 30
0.0
 11
12257.438104
 21
40687.87656
 31
0.0
  0
LINE
  5
A5
330
A1
100
AcDbEntity
  8
0
  6
ByBlock
 62
     0
100
AcDbLine
 10
11257.438104
 20
40725.37656
 30
0.0
 11
12257.438104
 21
40725.37656
 31
0.0
  0
INSERT
  5
A6
330
A1
100
AcDbEntity
  8
0
  6
ByBlock
 62
     0
100
AcDbBlockReference
  2
_OBLIQUE
 10
11257.438104
 20
40725.37656
 30
0.0
 41
50.0
 42
50.0
 43
50.0
 50
180.0
  0
INSERT
  5
A7
330
A1
100
AcDbEntity
  8
0
  6
ByBlock
 62
     0
100
AcDbBlockReference
  2
_OBLIQUE
 10
12257.438104
 20
40725.37656
 30
0.0
 41
50.0
 42
50.0
 43
50.0
  0
MTEXT
  5
A8
330
A1
100
AcDbEntity
  8
0
  6
ByBlock
 62
     0
100
AcDbMText
 10
11757.438104
 20
40781.62656
 30
0.0
 40
62.5
 41
0.0
 71
     5
 72
     1
  1
\A1;1000
 73
     1
 44
1.0
  0
POINT
  5
A9
330
A1
100
AcDbEntity
  8
DEFPOINTS
  6
ByBlock
 62
     0
100
AcDbPoint
 10
11257.438104
 20
41025.37656
 30
0.0
  0
POINT
  5
AA
330
A1
100
AcDbEntity
  8
DEFPOINTS
  6
ByBlock
 62
     0
100
AcDbPoint
 10
12257.438104
 20
41026.62656
 30
0.0
  0
POINT
  5
AB
330
A1
100
AcDbEntity
  8
DEFPOINTS
  6
ByBlock
 62
     0
100
AcDbPoint
 10
12257.438104
 20
40725.37656
 30
0.0
  0
ENDBLK
  5
AC
330
A1
100
AcDbEntity
  8
0
100
AcDbBlockEnd
  0
BLOCK
  5
AE
330
AD
100
AcDbEntity
  8
0
100
AcDbBlockBegin
  2
*D13
 70
     1
 10
0.0
 20
0.0
 30
0.0
  3
*D13
  1

  0
LINE
  5
AF
330
AD
100
AcDbEntity
  8
0
  6
ByBlock
 62
     0
100
AcDbLine
 10
30371.059527
 20
74781.314352
 30
0.0
 11
29783.559527
 21
74781.314352
 31
0.0
  0
LINE
  5
B0
330
AD
100
AcDbEntity
  8
0
  6
ByBlock
 62
     0
100
AcDbLine
 10
30371.059527
 20
76281.314352
 30
0.0
 11
29783.559527
 21
76281.314352
 31
0.0
  0
LINE
  5
B1
330
AD
100
AcDbEntity
  8
0
  6
ByBlock
 62
     0
100
AcDbLine
 10
29821.059527
 20
74781.314352
 30
0.0
 11
29821.059527
 21
76281.314352
 31
0.0
  0
INSERT
  5
B2
330
AD
100
AcDbEntity
  8
0
  6
ByBlock
 62
     0
100
AcDbBlockReference
  2
_OBLIQUE
 10
29821.059527
 20
74781.314352
 30
0.0
 41
50.0
 42
50.0
 43
50.0
 50
270.0
  0
INSERT
  5
B3
330
AD
100
AcDbEntity
  8
0
  6
ByBlock
 62
     0
100
AcDbBlockReference
  2
_OBLIQUE
 10
29821.059527
 20
76281.314352
 30
0.0
 41
50.0
 42
50.0
 43
50.0
 50
90.0
  0
MTEXT
  5
B4
330
AD
100
AcDbEntity
  8
0
  6
ByBlock
 62
     0
100
AcDbMText
 10
29764.809527
 20
75531.314352
 30
0.0
 40
62.5
 41
0.0
 71
     5
 72
     1
  1
\A1;1500
 11
0.0
 21
1.0
 31
0.0
 73
     1
 44
1.0
  0
POINT
  5
B5
330
AD
100
AcDbEntity
  8
DEFPOINTS
  6
ByBlock
 62
     0
100
AcDbPoint
 10
30421.059527
 20
74781.314352
 30
0.0
  0
POINT
  5
B6
330
AD
100
AcDbEntity
  8
DEFPOINTS
  6
ByBlock
 62
     0
100
AcDbPoint
 10
30421.059527
 20
76281.314352
 30
0.0
  0
POINT
  5
B7
330
AD
100
AcDbEntity
  8
DEFPOINTS
  6
ByBlock
 62
     0
100
AcDbPoint
 10
29821.059527
 20
76281.314352
 30
0.0
  0
ENDBLK
  5
B8
330
AD
100
AcDbEntity
  8
0
100
AcDbBlockEnd
  0
BLOCK
  5
BA
330
B9
100
AcDbEntity
  8
0
100
AcDbBlockBegin
  2
*D14
 70
     1
 10
0.0
 20
0.0
 30
0.0
  3
*D14
  1

  0
LINE
  5
BB
330
B9
100
AcDbEntity
  8
0
  6
ByBlock
 62
     0
100
AcDbLine
 10
30371.059527
 20
74781.314352
 30
0.0
 11
30083.559527
 21
74781.314352
 31
0.0
  0
LINE
  5
BC
330
B9
100
AcDbEntity
  8
0
  6
ByBlock
 62
     0
100
AcDbLine
 10
30371.059527
 20
74906.314352
 30
0.0
 11
30083.559527
 21
74906.314352
 31
0.0
  0
LINE
  5
BD
330
B9
100
AcDbEntity
  8
0
  6
ByBlock
 62
     0
100
AcDbLine
 10
30121.059527
 20
74781.314352
 30
0.0
 11
30121.059527
 21
74906.314352
 31
0.0
  0
MTEXT
  5
BE
330
B9
100
AcDbEntity
  8
0
  6
ByBlock
 62
     0
100
AcDbMText
 10
30014.809527
 20
74866.47164899999
 30
0.0
 40
62.5
 41
0.0
 71
     5
 72
     1
  1
\A1;125
 11
0.0
 21
1.0
 31
0.0
 73
     1
 44
1.0
  0
INSERT
  5
BF
330
B9
100
AcDbEntity
  8
0
  6
ByBlock
 62
     0
100
AcDbBlockReference
  2
_OBLIQUE
 10
30121.059527
 20
74781.314352
 30
0.0
 41
50.0
 42
50.0
 43
50.0
 50
270.0
  0
INSERT
  5
C0
330
B9
100
AcDbEntity
  8
0
  6
ByBlock
 62
     0
100
AcDbBlockReference
  2
_OBLIQUE
 10
30121.059527
 20
74906.314352
 30
0.0
 41
50.0
 42
50.0
 43
50.0
 50
90.0
  0
POINT
  5
C1
330
B9
100
AcDbEntity
  8
DEFPOINTS
  6
ByBlock
 62
     0
100
AcDbPoint
 10
30421.059527
 20
74781.314352
 30
0.0
  0
POINT
  5
C2
330
B9
100
AcDbEntity
  8
DEFPOINTS
  6
ByBlock
 62
     0
100
AcDbPoint
 10
30421.059527
 20
74906.314352
 30
0.0
  0
POINT
  5
C3
330
B9
100
AcDbEntity
  8
DEFPOINTS
  6
ByBlock
 62
     0
100
AcDbPoint
 10
30121.059527
 20
74906.314352
 30
0.0
  0
ENDBLK
  5
C4
330
B9
100
AcDbEntity
  8
0
100
AcDbBlockEnd
  0
BLOCK
  5
C6
330
C5
100
AcDbEntity
  8
0
100
AcDbBlockBegin
  2
*D15
 70
     1
 10
0.0
 20
0.0
 30
0.0
  3
*D15
  1

  0
LINE
  5
C7
330
C5
100
AcDbEntity
  8
0
  6
ByBlock
 62
     0
100
AcDbLine
 10
15534.197117
 20
44699.03896099999
 30
0.0
 11
15534.197117
 21
44111.538961
 31
0.0
  0
LINE
  5
C8
330
C5
100
AcDbEntity
  8
0
  6
ByBlock
 62
     0
100
AcDbLine
 10
16604.197117
 20
44699.03896099999
 30
0.0
 11
16604.197117
 21
44111.538961
 31
0.0
  0
LINE
  5
C9
330
C5
100
AcDbEntity
  8
0
  6
ByBlock
 62
     0
100
AcDbLine
 10
15534.197117
 20
44149.038961
 30
0.0
 11
16604.197117
 21
44149.038961
 31
0.0
  0
INSERT
  5
CA
330
C5
100
AcDbEntity
  8
0
  6
ByBlock
 62
     0
100
AcDbBlockReference
  2
_OBLIQUE
 10
15534.197117
 20
44149.038961
 30
0.0
 41
50.0
 42
50.0
 43
50.0
 50
180.0
  0
INSERT
  5
CB
330
C5
100
AcDbEntity
  8
0
  6
ByBlock
 62
     0
100
AcDbBlockReference
  2
_OBLIQUE
 10
16604.197117
 20
44149.038961
 30
0.0
 41
50.0
 42
50.0
 43
50.0
  0
MTEXT
  5
CC
330
C5
100
AcDbEntity
  8
0
  6
ByBlock
 62
     0
100
AcDbMText
 10
16069.19711699999
 20
44205.288961
 30
0.0
 40
62.5
 41
0.0
 71
     5
 72
     1
  1
\A1;1070
 73
     1
 44
1.0
  0
POINT
  5
CD
330
C5
100
AcDbEntity
  8
DEFPOINTS
  6
ByBlock
 62
     0
100
AcDbPoint
 10
15534.197117
 20
44749.03896099999
 30
0.0
  0
POINT
  5
CE
330
C5
100
AcDbEntity
  8
DEFPOINTS
  6
ByBlock
 62
     0
100
AcDbPoint
 10
16604.197117
 20
44749.03896099999
 30
0.0
  0
POINT
  5
CF
330
C5
100
AcDbEntity
  8
DEFPOINTS
  6
ByBlock
 62
     0
100
AcDbPoint
 10
16604.197117
 20
44149.038961
 30
0.0
  0
ENDBLK
  5
D0
330
C5
100
AcDbEntity
  8
0
100
AcDbBlockEnd
  0
BLOCK
  5
D2
330
D1
100
AcDbEntity
  8
0
100
AcDbBlockBegin
  2
*D16
 70
     1
 10
0.0
 20
0.0
 30
0.0
  3
*D16
  1

  0
LINE
  5
D3
330
D1
100
AcDbEntity
  8
0
  6
ByBlock
 62
     0
100
AcDbLine
 10
30421.059527
 20
76331.314352
 30
0.0
 11
30421.059527
 21
76618.814352
 31
0.0
  0
LINE
  5
D4
330
D1
100
AcDbEntity
  8
0
  6
ByBlock
 62
     0
100
AcDbLine
 10
30501.059527
 20
76331.314352
 30
0.0
 11
30501.059527
 21
76618.814352
 31
0.0
  0
LINE
  5
D5
330
D1
100
AcDbEntity
  8
0
  6
ByBlock
 62
     0
100
AcDbLine
 10
30421.059527
 20
76581.314352
 30
0.0
 11
30501.059527
 21
76581.314352
 31
0.0
  0
MTEXT
  5
D6
330
D1
100
AcDbEntity
  8
0
  6
ByBlock
 62
     0
100
AcDbMText
 10
30461.059527
 20
76687.564352
 30
0.0
 40
62.5
 41
0.0
 71
     5
 72
     1
  1
\A1;80
 73
     1
 44
1.0
  0
INSERT
  5
D7
330
D1
100
AcDbEntity
  8
0
  6
ByBlock
 62
     0
100
AcDbBlockReference
  2
_OBLIQUE
 10
30421.059527
 20
76581.314352
 30
0.0
 41
50.0
 42
50.0
 43
50.0
 50
180.0
  0
INSERT
  5
D8
330
D1
100
AcDbEntity
  8
0
  6
ByBlock
 62
     0
100
AcDbBlockReference
  2
_OBLIQUE
 10
30501.059527
 20
76581.314352
 30
0.0
 41
50.0
 42
50.0
 43
50.0
  0
POINT
  5
D9
330
D1
100
AcDbEntity
  8
DEFPOINTS
  6
ByBlock
 62
     0
100
AcDbPoint
 10
30421.059527
 20
76281.314352
 30
0.0
  0
POINT
  5
DA
330
D1
100
AcDbEntity
  8
DEFPOINTS
  6
ByBlock
 62
     0
100
AcDbPoint
 10
30501.059527
 20
76281.314352
 30
0.0
  0
POINT
  5
DB
330
D1
100
AcDbEntity
  8
DEFPOINTS
  6
ByBlock
 62
     0
100
AcDbPoint
 10
30501.059527
 20
76581.314352
 30
0.0
  0
ENDBLK
  5
DC
330
D1
100
AcDbEntity
  8
0
100
AcDbBlockEnd
  0
BLOCK
  5
DE
330
DD
100
AcDbEntity
  8
0
100
AcDbBlockBegin
  2
*D17
 70
     1
 10
0.0
 20
0.0
 30
0.0
  3
*D17
  1

  0
LINE
  5
DF
330
DD
100
AcDbEntity
  8
0
  6
ByBlock
 62
     0
100
AcDbLine
 10
30421.059527
 20
74731.314352
 30
0.0
 11
30421.059527
 21
74443.814352
 31
0.0
  0
LINE
  5
E0
330
DD
100
AcDbEntity
  8
0
  6
ByBlock
 62
     0
100
AcDbLine
 10
30546.059527
 20
74731.314352
 30
0.0
 11
30546.059527
 21
74443.814352
 31
0.0
  0
LINE
  5
E1
330
DD
100
AcDbEntity
  8
0
  6
ByBlock
 62
     0
100
AcDbLine
 10
30421.059527
 20
74481.314352
 30
0.0
 11
30546.059527
 21
74481.314352
 31
0.0
  0
MTEXT
  5
E2
330
DD
100
AcDbEntity
  8
0
  6
ByBlock
 62
     0
100
AcDbMText
 10
30498.358073
 20
74375.064352
 30
0.0
 40
62.5
 41
0.0
 71
     5
 72
     1
  1
\A1;125
 73
     1
 44
1.0
  0
INSERT
  5
E3
330
DD
100
AcDbEntity
  8
0
  6
ByBlock
 62
     0
100
AcDbBlockReference
  2
_OBLIQUE
 10
30421.059527
 20
74481.314352
 30
0.0
 41
50.0
 42
50.0
 43
50.0
 50
180.0
  0
INSERT
  5
E4
330
DD
100
AcDbEntity
  8
0
  6
ByBlock
 62
     0
100
AcDbBlockReference
  2
_OBLIQUE
 10
30546.059527
 20
74481.314352
 30
0.0
 41
50.0
 42
50.0
 43
50.0
  0
POINT
  5
E5
330
DD
100
AcDbEntity
  8
DEFPOINTS
  6
ByBlock
 62
     0
100
AcDbPoint
 10
30421.059527
 20
74781.314352
 30
0.0
  0
POINT
  5
E6
330
DD
100
AcDbEntity
  8
DEFPOINTS
  6
ByBlock
 62
     0
100
AcDbPoint
 10
30546.059527
 20
74781.314352
 30
0.0
  0
POINT
  5
E7
330
DD
100
AcDbEntity
  8
DEFPOINTS
  6
ByBlock
 62
     0
100
AcDbPoint
 10
30546.059527
 20
74481.314352
 30
0.0
  0
ENDBLK
  5
E8
330
DD
100
AcDbEntity
  8
0
100
AcDbBlockEnd
  0
BLOCK
  5
EA
330
E9
100
AcDbEntity
  8
0
100
AcDbBlockBegin
  2
*D18
 70
     1
 10
0.0
 20
0.0
 30
0.0
  3
*D18
  1

  0
LINE
  5
EB
330
E9
100
AcDbEntity
  8
0
  6
ByBlock
 62
     0
100
AcDbLine
 10
30546.059527
 20
75077.18726399999
 30
0.0
 11
30546.059527
 21
75173.00064500001
 31
0.0
  0
LINE
  5
EC
330
E9
100
AcDbEntity
  8
0
  6
ByBlock
 62
     0
100
AcDbLine
 10
30671.059527
 20
74951.08179400001
 30
0.0
 11
30671.059527
 21
75173.00064500001
 31
0.0
  0
LINE
  5
ED
330
E9
100
AcDbEntity
  8
0
  6
ByBlock
 62
     0
100
AcDbLine
 10
30546.059527
 20
75135.50064500001
 30
0.0
 11
30671.059527
 21
75135.50064500001
 31
0.0
  0
MTEXT
  5
EE
330
E9
100
AcDbEntity
  8
0
  6
ByBlock
 62
     0
100
AcDbMText
 10
30608.559527
 20
75241.75064500001
 30
0.0
 40
62.5
 41
0.0
 71
     5
 72
     1
  1
\A1;125
 73
     1
 44
1.0
  0
INSERT
  5
EF
330
E9
100
AcDbEntity
  8
0
  6
ByBlock
 62
     0
100
AcDbBlockReference
  2
_OBLIQUE
 10
30546.059527
 20
75135.50064500001
 30
0.0
 41
50.0
 42
50.0
 43
50.0
 50
180.0
  0
INSERT
  5
F0
330
E9
100
AcDbEntity
  8
0
  6
ByBlock
 62
     0
100
AcDbBlockReference
  2
_OBLIQUE
 10
30671.059527
 20
75135.50064500001
 30
0.0
 41
50.0
 42
50.0
 43
50.0
  0
POINT
  5
F1
330
E9
100
AcDbEntity
  8
DEFPOINTS
  6
ByBlock
 62
     0
100
AcDbPoint
 10
30546.059527
 20
75027.18726399999
 30
0.0
  0
POINT
  5
F2
330
E9
100
AcDbEntity
  8
DEFPOINTS
  6
ByBlock
 62
     0
100
AcDbPoint
 10
30671.059527
 20
74901.08179400001
 30
0.0
  0
POINT
  5
F3
330
E9
100
AcDbEntity
  8
DEFPOINTS
  6
ByBlock
 62
     0
100
AcDbPoint
 10
30671.059527
 20
75135.50064500001
 30
0.0
  0
ENDBLK
  5
F4
330
E9
100
AcDbEntity
  8
0
100
AcDbBlockEnd
  0
BLOCK
  5
F6
330
F5
100
AcDbEntity
  8
0
100
AcDbBlockBegin
  2
*D19
 70
     1
 10
0.0
 20
0.0
 30
0.0
  3
*D19
  1

  0
LINE
  5
F7
330
F5
100
AcDbEntity
  8
0
  6
ByBlock
 62
     0
100
AcDbLine
 10
30591.968618
 20
75031.314352
 30
0.0
 11
30813.669602
 21
75031.314352
 31
0.0
  0
LINE
  5
F8
330
F5
100
AcDbEntity
  8
0
  6
ByBlock
 62
     0
100
AcDbLine
 10
30715.872839
 20
74906.314352
 30
0.0
 11
30813.669602
 21
74906.314352
 31
0.0
  0
LINE
  5
F9
330
F5
100
AcDbEntity
  8
0
  6
ByBlock
 62
     0
100
AcDbLine
 10
30776.169602
 20
75031.314352
 30
0.0
 11
30776.169602
 21
74906.314352
 31
0.0
  0
MTEXT
  5
FA
330
F5
100
AcDbEntity
  8
0
  6
ByBlock
 62
     0
100
AcDbMText
 10
30882.419602
 20
74968.814352
 30
0.0
 40
62.5
 41
0.0
 71
     5
 72
     1
  1
\A1;125
 11
0.0
 21
1.0
 31
0.0
 73
     1
 44
1.0
  0
INSERT
  5
FB
330
F5
100
AcDbEntity
  8
0
  6
ByBlock
 62
     0
100
AcDbBlockReference
  2
_OBLIQUE
 10
30776.169602
 20
75031.314352
 30
0.0
 41
50.0
 42
50.0
 43
50.0
 50
90.0
  0
INSERT
  5
FC
330
F5
100
AcDbEntity
  8
0
  6
ByBlock
 62
     0
100
AcDbBlockReference
  2
_OBLIQUE
 10
30776.169602
 20
74906.314352
 30
0.0
 41
50.0
 42
50.0
 43
50.0
 50
270.0
  0
POINT
  5
FD
330
F5
100
AcDbEntity
  8
DEFPOINTS
  6
ByBlock
 62
     0
100
AcDbPoint
 10
30541.968618
 20
75031.314352
 30
0.0
  0
POINT
  5
FE
330
F5
100
AcDbEntity
  8
DEFPOINTS
  6
ByBlock
 62
     0
100
AcDbPoint
 10
30665.872839
 20
74906.314352
 30
0.0
  0
POINT
  5
FF
330
F5
100
AcDbEntity
  8
DEFPOINTS
  6
ByBlock
 62
     0
100
AcDbPoint
 10
30776.169602
 20
74906.314352
 30
0.0
  0
ENDBLK
  5
100
330
F5
100
AcDbEntity
  8
0
100
AcDbBlockEnd
  0
BLOCK
  5
102
330
101
100
AcDbEntity
  8
0
100
AcDbBlockBegin
  2
*D20
 70
     1
 10
0.0
 20
0.0
 30
0.0
  3
*D20
  1

  0
LINE
  5
103
330
101
100
AcDbEntity
  8
0
  6
ByBlock
 62
     0
100
AcDbLine
 10
16654.197117
 20
44834.48082099999
 30
0.0
 11
16941.697117
 21
44834.48082099999
 31
0.0
  0
LINE
  5
104
330
101
100
AcDbEntity
  8
0
  6
ByBlock
 62
     0
100
AcDbLine
 10
16654.197117
 20
44749.03896099999
 30
0.0
 11
16941.697117
 21
44749.03896099999
 31
0.0
  0
LINE
  5
105
330
101
100
AcDbEntity
  8
0
  6
ByBlock
 62
     0
100
AcDbLine
 10
16904.197117
 20
44834.48082099999
 30
0.0
 11
16904.197117
 21
44749.03896099999
 31
0.0
  0
MTEXT
  5
106
330
101
100
AcDbEntity
  8
0
  6
ByBlock
 62
     0
100
AcDbMText
 10
17010.447117
 20
44791.759891
 30
0.0
 40
62.5
 41
0.0
 71
     5
 72
     1
  1
\A1;85
 11
0.0
 21
1.0
 31
0.0
 73
     1
 44
1.0
  0
INSERT
  5
107
330
101
100
AcDbEntity
  8
0
  6
ByBlock
 62
     0
100
AcDbBlockReference
  2
_OBLIQUE
 10
16904.197117
 20
44834.48082099999
 30
0.0
 41
50.0
 42
50.0
 43
50.0
 50
90.0
  0
INSERT
  5
108
330
101
100
AcDbEntity
  8
0
  6
ByBlock
 62
     0
100
AcDbBlockReference
  2
_OBLIQUE
 10
16904.197117
 20
44749.03896099999
 30
0.0
 41
50.0
 42
50.0
 43
50.0
 50
270.0
  0
POINT
  5
109
330
101
100
AcDbEntity
  8
DEFPOINTS
  6
ByBlock
 62
     0
100
AcDbPoint
 10
16604.197117
 20
44834.48082099999
 30
0.0
  0
POINT
  5
10A
330
101
100
AcDbEntity
  8
DEFPOINTS
  6
ByBlock
 62
     0
100
AcDbPoint
 10
16604.197117
 20
44749.03896099999
 30
0.0
  0
POINT
  5
10B
330
101
100
AcDbEntity
  8
DEFPOINTS
  6
ByBlock
 62
     0
100
AcDbPoint
 10
16904.197117
 20
44749.03896099999
 30
0.0
  0
ENDBLK
  5
10C
330
101
100
AcDbEntity
  8
0
100
AcDbBlockEnd
  0
BLOCK
  5
10E
330
10D
100
AcDbEntity
  8
0
100
AcDbBlockBegin
  2
*D21
 70
     1
 10
0.0
 20
0.0
 30
0.0
  3
*D21
  1

  0
LINE
  5
10F
330
10D
100
AcDbEntity
  8
0
  6
ByBlock
 62
     0
100
AcDbLine
 10
8207.438335870334
 20
44749.03896099999
 30
0.0
 11
7619.938335870334
 21
44749.03896099999
 31
0.0
  0
LINE
  5
110
330
10D
100
AcDbEntity
  8
0
  6
ByBlock
 62
     0
100
AcDbLine
 10
8207.438335870334
 20
45649.03896099999
 30
0.0
 11
7619.938335870334
 21
45649.03896099999
 31
0.0
  0
LINE
  5
111
330
10D
100
AcDbEntity
  8
0
  6
ByBlock
 62
     0
100
AcDbLine
 10
7657.438335870335
 20
44749.03896099999
 30
0.0
 11
7657.438335870335
 21
45649.03896099999
 31
0.0
  0
INSERT
  5
112
330
10D
100
AcDbEntity
  8
0
  6
ByBlock
 62
     0
100
AcDbBlockReference
  2
_OBLIQUE
 10
7657.438335870335
 20
44749.03896099999
 30
0.0
 41
50.0
 42
50.0
 43
50.0
 50
270.0
  0
INSERT
  5
113
330
10D
100
AcDbEntity
  8
0
  6
ByBlock
 62
     0
100
AcDbBlockReference
  2
_OBLIQUE
 10
7657.438335870335
 20
45649.03896099999
 30
0.0
 41
50.0
 42
50.0
 43
50.0
 50
90.0
  0
MTEXT
  5
114
330
10D
100
AcDbEntity
  8
0
  6
ByBlock
 62
     0
100
AcDbMText
 10
7601.188335870334
 20
45199.03896099999
 30
0.0
 40
62.5
 41
0.0
 71
     5
 72
     1
  1
\A1;900
 11
0.0000000000000001
 21
1.0
 31
0.0
 73
     1
 44
1.0
  0
POINT
  5
115
330
10D
100
AcDbEntity
  8
DEFPOINTS
  6
ByBlock
 62
     0
100
AcDbPoint
 10
8257.438335870334
 20
44749.03896099999
 30
0.0
  0
POINT
  5
116
330
10D
100
AcDbEntity
  8
DEFPOINTS
  6
ByBlock
 62
     0
100
AcDbPoint
 10
8257.438335870334
 20
45649.03896099999
 30
0.0
  0
POINT
  5
117
330
10D
100
AcDbEntity
  8
DEFPOINTS
  6
ByBlock
 62
     0
100
AcDbPoint
 10
7657.438335870335
 20
45649.03896099999
 30
0.0
  0
ENDBLK
  5
118
330
10D
100
AcDbEntity
  8
0
100
AcDbBlockEnd
  0
BLOCK
  5
11A
330
119
100
AcDbEntity
  8
0
100
AcDbBlockBegin
  2
*D22
 70
     1
 10
0.0
 20
0.0
 30
0.0
  3
*D22
  1

  0
LINE
  5
11B
330
119
100
AcDbEntity
  8
0
  6
ByBlock
 62
     0
100
AcDbLine
 10
10307.438104
 20
-5175.893478
 30
0.0
 11
10594.938104
 21
-5175.893478
 31
0.0
  0
LINE
  5
11C
330
119
100
AcDbEntity
  8
0
  6
ByBlock
 62
     0
100
AcDbLine
 10
10307.438104
 20
-4175.893477999998
 30
0.0
 11
10594.938104
 21
-4175.893477999998
 31
0.0
  0
LINE
  5
11D
330
119
100
AcDbEntity
  8
0
  6
ByBlock
 62
     0
100
AcDbLine
 10
10557.438104
 20
-5175.893478
 30
0.0
 11
10557.438104
 21
-4175.893477999998
 31
0.0
  0
INSERT
  5
11E
330
119
100
AcDbEntity
  8
0
  6
ByBlock
 62
     0
100
AcDbBlockReference
  2
_OBLIQUE
 10
10557.438104
 20
-5175.893478
 30
0.0
 41
50.0
 42
50.0
 43
50.0
 50
270.0
  0
INSERT
  5
11F
330
119
100
AcDbEntity
  8
0
  6
ByBlock
 62
     0
100
AcDbBlockReference
  2
_OBLIQUE
 10
10557.438104
 20
-4175.893477999998
 30
0.0
 41
50.0
 42
50.0
 43
50.0
 50
90.0
  0
MTEXT
  5
120
330
119
100
AcDbEntity
  8
0
  6
ByBlock
 62
     0
100
AcDbMText
 10
10501.188104
 20
-4675.893477999998
 30
0.0
 40
62.5
 41
0.0
 71
     5
 72
     1
  1
\A1;1000
 11
0.0000000000000001
 21
1.0
 31
0.0
 73
     1
 44
1.0
  0
POINT
  5
121
330
119
100
AcDbEntity
  8
DEFPOINTS
  6
ByBlock
 62
     0
100
AcDbPoint
 10
10257.438104
 20
-5175.893478
 30
0.0
  0
POINT
  5
122
330
119
100
AcDbEntity
  8
DEFPOINTS
  6
ByBlock
 62
     0
100
AcDbPoint
 10
10257.438104
 20
-4175.893477999998
 30
0.0
  0
POINT
  5
123
330
119
100
AcDbEntity
  8
DEFPOINTS
  6
ByBlock
 62
     0
100
AcDbPoint
 10
10557.438104
 20
-4175.893477999998
 30
0.0
  0
ENDBLK
  5
124
330
119
100
AcDbEntity
  8
0
100
AcDbBlockEnd
  0
BLOCK
  5
126
330
125
100
AcDbEntity
  8
0
100
AcDbBlockBegin
  2
*D23
 70
     1
 10
0.0
 20
0.0
 30
0.0
  3
*D23
  1

  0
LINE
  5
127
330
125
100
AcDbEntity
  8
0
  6
ByBlock
 62
     0
100
AcDbLine
 10
-119644.8289196897
 20
33699.038961
 30
0.0
 11
-119644.8289196897
 21
33557.47451702497
 31
0.0
  0
LINE
  5
128
330
125
100
AcDbEntity
  8
0
  6
ByBlock
 62
     0
100
AcDbLine
 10
-119544.8289196897
 20
33914.4745375014
 30
0.0
 11
-119544.8289196897
 21
33557.47451702497
 31
0.0
  0
LINE
  5
129
330
125
100
AcDbEntity
  8
0
  6
ByBlock
 62
     0
100
AcDbLine
 10
-119644.8289196897
 20
33594.97451702497
 30
0.0
 11
-119544.8289196897
 21
33594.97451702497
 31
0.0
  0
MTEXT
  5
12A
330
125
100
AcDbEntity
  8
0
  6
ByBlock
 62
     0
100
AcDbMText
 10
-119614.581754119
 20
33488.72451702497
 30
0.0
 40
62.5
 41
0.0
 71
     5
 72
     1
  1
\A1;100
 73
     1
 44
1.0
  0
INSERT
  5
12B
330
125
100
AcDbEntity
  8
0
  6
ByBlock
 62
     0
100
AcDbBlockReference
  2
_OBLIQUE
 10
-119644.8289196897
 20
33594.97451702497
 30
0.0
 41
50.0
 42
50.0
 43
50.0
 50
180.0
  0
INSERT
  5
12C
330
125
100
AcDbEntity
  8
0
  6
ByBlock
 62
     0
100
AcDbBlockReference
  2
_OBLIQUE
 10
-119544.8289196897
 20
33594.97451702497
 30
0.0
 41
50.0
 42
50.0
 43
50.0
  0
POINT
  5
12D
330
125
100
AcDbEntity
  8
DEFPOINTS
  6
ByBlock
 62
     0
100
AcDbPoint
 10
-119644.8289196897
 20
33749.038961
 30
0.0
  0
POINT
  5
12E
330
125
100
AcDbEntity
  8
DEFPOINTS
  6
ByBlock
 62
     0
100
AcDbPoint
 10
-119544.8289196897
 20
33964.4745375014
 30
0.0
  0
POINT
  5
12F
330
125
100
AcDbEntity
  8
DEFPOINTS
  6
ByBlock
 62
     0
100
AcDbPoint
 10
-119544.8289196897
 20
33594.97451702497
 30
0.0
  0
ENDBLK
  5
130
330
125
100
AcDbEntity
  8
0
100
AcDbBlockEnd
  0
BLOCK
  5
242
330
238
100
AcDbEntity
  8
0
100
AcDbBlockBegin
  2
*D25
 70
     1
 10
0.0
 20
0.0
 30
0.0
  3
*D25
  1

  0
LINE
  5
332
330
238
100
AcDbEntity
  8
寸法
 62
     0
370
    -2
100
AcDbLine
 10
4241.606826703471
 20
6150.000265076712
 30
0.0
 11
4241.606826703471
 21
6008.435821101681
 31
0.0
  0
LINE
  5
333
330
238
100
AcDbEntity
  8
寸法
 62
     0
370
    -2
100
AcDbLine
 10
4341.606826703471
 20
6365.43584157811
 30
0.0
 11
4341.606826703471
 21
6008.435821101681
 31
0.0
  0
LINE
  5
334
330
238
100
AcDbEntity
  8
寸法
 62
     0
370
    -2
100
AcDbLine
 10
4241.606826703471
 20
6045.93582110168
 30
0.0
 11
4341.606826703471
 21
6045.93582110168
 31
0.0
  0
MTEXT
  5
335
330
238
100
AcDbEntity
  8
寸法
 62
     0
100
AcDbMText
 10
4271.853992274089
 20
5939.68582110168
 30
0.0
 40
62.5
 41
0.0
 71
     5
 72
     1
  1
\A1;100
 73
     1
 44
1.0
  0
INSERT
  5
336
330
238
100
AcDbEntity
  8
寸法
 62
     0
370
    -2
100
AcDbBlockReference
  2
_OBLIQUE
 10
4241.606826703471
 20
6045.93582110168
 30
0.0
 41
50.0
 42
50.0
 43
50.0
 50
180.0
  0
INSERT
  5
337
330
238
100
AcDbEntity
  8
寸法
 62
     0
370
    -2
100
AcDbBlockReference
  2
_OBLIQUE
 10
4341.606826703471
 20
6045.93582110168
 30
0.0
 41
50.0
 42
50.0
 43
50.0
  0
POINT
  5
338
330
238
100
AcDbEntity
  8
DEFPOINTS
 62
     0
100
AcDbPoint
 10
4241.606826703471
 20
6200.000265076713
 30
0.0
  0
POINT
  5
339
330
238
100
AcDbEntity
  8
DEFPOINTS
 62
     0
100
AcDbPoint
 10
4341.606826703471
 20
6415.43584157811
 30
0.0
  0
POINT
  5
33A
330
238
100
AcDbEntity
  8
DEFPOINTS
 62
     0
100
AcDbPoint
 10
4341.606826703471
 20
6045.93582110168
 30
0.0
  0
ENDBLK
  5
243
330
238
100
AcDbEntity
  8
0
100
AcDbBlockEnd
  0
BLOCK
  5
24E
330
244
100
AcDbEntity
  8
0
100
AcDbBlockBegin
  2
*D26
 70
     1
 10
0.0
 20
0.0
 30
0.0
  3
*D26
  1

  0
LINE
  5
33B
330
244
100
AcDbEntity
  8
寸法
 62
     0
370
    -2
100
AcDbLine
 10
4391.606826703472
 20
5200.000265076713
 30
0.0
 11
4679.106826703471
 21
5200.000265076713
 31
0.0
  0
LINE
  5
33C
330
244
100
AcDbEntity
  8
寸法
 62
     0
370
    -2
100
AcDbLine
 10
4391.606826703472
 20
6200.000265076713
 30
0.0
 11
4679.106826703471
 21
6200.000265076713
 31
0.0
  0
LINE
  5
33D
330
244
100
AcDbEntity
  8
寸法
 62
     0
370
    -2
100
AcDbLine
 10
4641.606826703471
 20
5200.000265076713
 30
0.0
 11
4641.606826703472
 21
6200.000265076713
 31
0.0
  0
INSERT
  5
33E
330
244
100
AcDbEntity
  8
寸法
 62
     0
370
    -2
100
AcDbBlockReference
  2
_OBLIQUE
 10
4641.606826703471
 20
5200.000265076713
 30
0.0
 41
50.0
 42
50.0
 43
50.0
 50
270.0
  0
INSERT
  5
33F
330
244
100
AcDbEntity
  8
寸法
 62
     0
370
    -2
100
AcDbBlockReference
  2
_OBLIQUE
 10
4641.606826703472
 20
6200.000265076713
 30
0.0
 41
50.0
 42
50.0
 43
50.0
 50
90.0
  0
MTEXT
  5
340
330
244
100
AcDbEntity
  8
寸法
 62
     0
100
AcDbMText
 10
4585.35682670347
 20
5700.000265076713
 30
0.0
 40
62.5
 41
0.0
 71
     5
 72
     1
  1
\A1;1000
 11
0.0000000000000001
 21
1.0
 31
0.0
 73
     1
 44
1.0
  0
POINT
  5
341
330
244
100
AcDbEntity
  8
DEFPOINTS
 62
     0
100
AcDbPoint
 10
4341.606826703471
 20
5200.000265076713
 30
0.0
  0
POINT
  5
342
330
244
100
AcDbEntity
  8
DEFPOINTS
 62
     0
100
AcDbPoint
 10
4341.606826703471
 20
6200.000265076713
 30
0.0
  0
POINT
  5
343
330
244
100
AcDbEntity
  8
DEFPOINTS
 62
     0
100
AcDbPoint
 10
4641.606826703472
 20
6200.000265076713
 30
0.0
  0
ENDBLK
  5
24F
330
244
100
AcDbEntity
  8
0
100
AcDbBlockEnd
  0
BLOCK
  5
25A
330
250
100
AcDbEntity
  8
0
100
AcDbBlockBegin
  2
*D27
 70
     1
 10
0.0
 20
0.0
 30
0.0
  3
*D27
  1

  0
LINE
  5
344
330
250
100
AcDbEntity
  8
寸法
 62
     0
370
    -2
100
AcDbLine
 10
6618.365839703475
 20
5150.000265076712
 30
0.0
 11
6618.365839703475
 21
4862.500265076713
 31
0.0
  0
LINE
  5
345
330
250
100
AcDbEntity
  8
寸法
 62
     0
370
    -2
100
AcDbLine
 10
6743.365839703475
 20
5150.000265076712
 30
0.0
 11
6743.365839703475
 21
4862.500265076713
 31
0.0
  0
LINE
  5
346
330
250
100
AcDbEntity
  8
寸法
 62
     0
370
    -2
100
AcDbLine
 10
6618.365839703475
 20
4900.000265076712
 30
0.0
 11
6743.365839703475
 21
4900.000265076712
 31
0.0
  0
MTEXT
  5
347
330
250
100
AcDbEntity
  8
寸法
 62
     0
100
AcDbMText
 10
6695.664385703479
 20
4793.750265076712
 30
0.0
 40
62.5
 41
0.0
 71
     5
 72
     1
  1
\A1;125
 73
     1
 44
1.0
  0
INSERT
  5
348
330
250
100
AcDbEntity
  8
寸法
 62
     0
370
    -2
100
AcDbBlockReference
  2
_OBLIQUE
 10
6618.365839703475
 20
4900.000265076712
 30
0.0
 41
50.0
 42
50.0
 43
50.0
 50
180.0
  0
INSERT
  5
349
330
250
100
AcDbEntity
  8
寸法
 62
     0
370
    -2
100
AcDbBlockReference
  2
_OBLIQUE
 10
6743.365839703475
 20
4900.000265076712
 30
0.0
 41
50.0
 42
50.0
 43
50.0
  0
POINT
  5
34A
330
250
100
AcDbEntity
  8
DEFPOINTS
 62
     0
100
AcDbPoint
 10
6618.365839703475
 20
5200.000265076713
 30
0.0
  0
POINT
  5
34B
330
250
100
AcDbEntity
  8
DEFPOINTS
 62
     0
100
AcDbPoint
 10
6743.365839703475
 20
5200.000265076713
 30
0.0
  0
POINT
  5
34C
330
250
100
AcDbEntity
  8
DEFPOINTS
 62
     0
100
AcDbPoint
 10
6743.365839703475
 20
4900.000265076712
 30
0.0
  0
ENDBLK
  5
25B
330
250
100
AcDbEntity
  8
0
100
AcDbBlockEnd
  0
BLOCK
  5
266
330
25C
100
AcDbEntity
  8
0
100
AcDbBlockBegin
  2
*D28
 70
     1
 10
0.0
 20
0.0
 30
0.0
  3
*D28
  1

  0
LINE
  5
34D
330
25C
100
AcDbEntity
  8
寸法
 62
     0
370
    -2
100
AcDbLine
 10
6743.365839703475
 20
5495.873176076718
 30
0.0
 11
6743.365839703475
 21
5591.686557076712
 31
0.0
  0
LINE
  5
34E
330
25C
100
AcDbEntity
  8
寸法
 62
     0
370
    -2
100
AcDbLine
 10
6868.365839703475
 20
5369.767706076709
 30
0.0
 11
6868.365839703475
 21
5591.686557076712
 31
0.0
  0
LINE
  5
34F
330
25C
100
AcDbEntity
  8
寸法
 62
     0
370
    -2
100
AcDbLine
 10
6743.365839703475
 20
5554.186557076711
 30
0.0
 11
6868.365839703475
 21
5554.186557076711
 31
0.0
  0
MTEXT
  5
350
330
25C
100
AcDbEntity
  8
寸法
 62
     0
100
AcDbMText
 10
6805.865839703475
 20
5660.436557076711
 30
0.0
 40
62.5
 41
0.0
 71
     5
 72
     1
  1
\A1;125
 73
     1
 44
1.0
  0
INSERT
  5
351
330
25C
100
AcDbEntity
  8
寸法
 62
     0
370
    -2
100
AcDbBlockReference
  2
_OBLIQUE
 10
6743.365839703475
 20
5554.186557076711
 30
0.0
 41
50.0
 42
50.0
 43
50.0
 50
180.0
  0
INSERT
  5
352
330
25C
100
AcDbEntity
  8
寸法
 62
     0
370
    -2
100
AcDbBlockReference
  2
_OBLIQUE
 10
6868.365839703475
 20
5554.186557076711
 30
0.0
 41
50.0
 42
50.0
 43
50.0
  0
POINT
  5
353
330
25C
100
AcDbEntity
  8
DEFPOINTS
 62
     0
100
AcDbPoint
 10
6743.365839703475
 20
5445.873176076719
 30
0.0
  0
POINT
  5
354
330
25C
100
AcDbEntity
  8
DEFPOINTS
 62
     0
100
AcDbPoint
 10
6868.365839703475
 20
5319.767706076709
 30
0.0
  0
POINT
  5
355
330
25C
100
AcDbEntity
  8
DEFPOINTS
 62
     0
100
AcDbPoint
 10
6868.365839703475
 20
5554.186557076711
 30
0.0
  0
ENDBLK
  5
267
330
25C
100
AcDbEntity
  8
0
100
AcDbBlockEnd
  0
BLOCK
  5
272
330
268
100
AcDbEntity
  8
0
100
AcDbBlockBegin
  2
*D29
 70
     1
 10
0.0
 20
0.0
 30
0.0
  3
*D29
  1

  0
LINE
  5
356
330
268
100
AcDbEntity
  8
寸法
 62
     0
370
    -2
100
AcDbLine
 10
6789.274930703467
 20
5450.000265076713
 30
0.0
 11
7010.975913703472
 21
5450.000265076713
 31
0.0
  0
LINE
  5
357
330
268
100
AcDbEntity
  8
寸法
 62
     0
370
    -2
100
AcDbLine
 10
6913.179150703479
 20
5325.000265076713
 30
0.0
 11
7010.975913703472
 21
5325.000265076713
 31
0.0
  0
LINE
  5
358
330
268
100
AcDbEntity
  8
寸法
 62
     0
370
    -2
100
AcDbLine
 10
6973.475913703471
 20
5450.000265076713
 30
0.0
 11
6973.475913703471
 21
5325.000265076713
 31
0.0
  0
MTEXT
  5
359
330
268
100
AcDbEntity
  8
寸法
 62
     0
100
AcDbMText
 10
7142.22591370347
 20
5387.500265076715
 30
0.0
 40
62.5
 41
0.0
 71
     5
 72
     1
  1
\A1;125
 11
0.0000000000000001
 21
1.0
 31
0.0
 73
     1
 44
1.0
  0
INSERT
  5
35A
330
268
100
AcDbEntity
  8
寸法
 62
     0
370
    -2
100
AcDbBlockReference
  2
_OBLIQUE
 10
6973.475913703471
 20
5450.000265076713
 30
0.0
 41
50.0
 42
50.0
 43
50.0
 50
90.0
  0
INSERT
  5
35B
330
268
100
AcDbEntity
  8
寸法
 62
     0
370
    -2
100
AcDbBlockReference
  2
_OBLIQUE
 10
6973.475913703471
 20
5325.000265076713
 30
0.0
 41
50.0
 42
50.0
 43
50.0
 50
270.0
  0
POINT
  5
35C
330
268
100
AcDbEntity
  8
DEFPOINTS
 62
     0
100
AcDbPoint
 10
6739.274930703468
 20
5450.000265076713
 30
0.0
  0
POINT
  5
35D
330
268
100
AcDbEntity
  8
DEFPOINTS
 62
     0
100
AcDbPoint
 10
6863.179150703479
 20
5325.000265076713
 30
0.0
  0
POINT
  5
35E
330
268
100
AcDbEntity
  8
DEFPOINTS
 62
     0
100
AcDbPoint
 10
6973.475913703471
 20
5325.000265076713
 30
0.0
  0
ENDBLK
  5
273
330
268
100
AcDbEntity
  8
0
100
AcDbBlockEnd
  0
BLOCK
  5
27E
330
274
100
AcDbEntity
  8
0
100
AcDbBlockBegin
  2
*D30
 70
     1
 10
0.0
 20
0.0
 30
0.0
  3
*D30
  1

  0
LINE
  5
35F
330
274
100
AcDbEntity
  8
寸法
 62
     0
370
    -2
100
AcDbLine
 10
6618.365839703475
 20
6750.000265076713
 30
0.0
 11
6618.365839703475
 21
7037.500265076713
 31
0.0
  0
LINE
  5
360
330
274
100
AcDbEntity
  8
寸法
 62
     0
370
    -2
100
AcDbLine
 10
6698.365839703474
 20
6750.000265076713
 30
0.0
 11
6698.365839703474
 21
7037.500265076713
 31
0.0
  0
LINE
  5
361
330
274
100
AcDbEntity
  8
寸法
 62
     0
370
    -2
100
AcDbLine
 10
6618.365839703475
 20
7000.000265076713
 30
0.0
 11
6698.365839703474
 21
7000.000265076713
 31
0.0
  0
MTEXT
  5
362
330
274
100
AcDbEntity
  8
寸法
 62
     0
100
AcDbMText
 10
6658.365839703474
 20
7106.250265076713
 30
0.0
 40
62.5
 41
0.0
 71
     5
 72
     1
  1
\A1;80
 73
     1
 44
1.0
  0
INSERT
  5
363
330
274
100
AcDbEntity
  8
寸法
 62
     0
370
    -2
100
AcDbBlockReference
  2
_OBLIQUE
 10
6618.365839703475
 20
7000.000265076713
 30
0.0
 41
50.0
 42
50.0
 43
50.0
 50
180.0
  0
INSERT
  5
364
330
274
100
AcDbEntity
  8
寸法
 62
     0
370
    -2
100
AcDbBlockReference
  2
_OBLIQUE
 10
6698.365839703474
 20
7000.000265076713
 30
0.0
 41
50.0
 42
50.0
 43
50.0
  0
POINT
  5
365
330
274
100
AcDbEntity
  8
DEFPOINTS
 62
     0
100
AcDbPoint
 10
6618.365839703475
 20
6700.000265076713
 30
0.0
  0
POINT
  5
366
330
274
100
AcDbEntity
  8
DEFPOINTS
 62
     0
100
AcDbPoint
 10
6698.365839703474
 20
6700.000265076713
 30
0.0
  0
POINT
  5
367
330
274
100
AcDbEntity
  8
DEFPOINTS
 62
     0
100
AcDbPoint
 10
6698.365839703474
 20
7000.000265076713
 30
0.0
  0
ENDBLK
  5
27F
330
274
100
AcDbEntity
  8
0
100
AcDbBlockEnd
  0
BLOCK
  5
28A
330
280
100
AcDbEntity
  8
0
100
AcDbBlockBegin
  2
*D31
 70
     1
 10
0.0
 20
0.0
 30
0.0
  3
*D31
  1

  0
LINE
  5
368
330
280
100
AcDbEntity
  8
寸法
 62
     0
370
    -2
100
AcDbLine
 10
7738.365839703475
 20
5285.442125076712
 30
0.0
 11
8025.865839703476
 21
5285.442125076712
 31
0.0
  0
LINE
  5
369
330
280
100
AcDbEntity
  8
寸法
 62
     0
370
    -2
100
AcDbLine
 10
7738.365839703475
 20
5200.000265076713
 30
0.0
 11
8025.865839703476
 21
5200.000265076713
 31
0.0
  0
LINE
  5
36A
330
280
100
AcDbEntity
  8
寸法
 62
     0
370
    -2
100
AcDbLine
 10
7988.365839703475
 20
5285.442125076712
 30
0.0
 11
7988.365839703475
 21
5200.000265076713
 31
0.0
  0
MTEXT
  5
36B
330
280
100
AcDbEntity
  8
寸法
 62
     0
100
AcDbMText
 10
8157.115839703473
 20
5242.721195076713
 30
0.0
 40
62.5
 41
0.0
 71
     5
 72
     1
  1
\A1;85
 11
0.0000000000000001
 21
1.0
 31
0.0
 73
     1
 44
1.0
  0
INSERT
  5
36C
330
280
100
AcDbEntity
  8
寸法
 62
     0
370
    -2
100
AcDbBlockReference
  2
_OBLIQUE
 10
7988.365839703475
 20
5285.442125076712
 30
0.0
 41
50.0
 42
50.0
 43
50.0
 50
90.0
  0
INSERT
  5
36D
330
280
100
AcDbEntity
  8
寸法
 62
     0
370
    -2
100
AcDbBlockReference
  2
_OBLIQUE
 10
7988.365839703475
 20
5200.000265076713
 30
0.0
 41
50.0
 42
50.0
 43
50.0
 50
270.0
  0
POINT
  5
36E
330
280
100
AcDbEntity
  8
DEFPOINTS
 62
     0
100
AcDbPoint
 10
7688.365839703475
 20
5285.442125076712
 30
0.0
  0
POINT
  5
36F
330
280
100
AcDbEntity
  8
DEFPOINTS
 62
     0
100
AcDbPoint
 10
7688.365839703475
 20
5200.000265076713
 30
0.0
  0
POINT
  5
370
330
280
100
AcDbEntity
  8
DEFPOINTS
 62
     0
100
AcDbPoint
 10
7988.365839703475
 20
5200.000265076713
 30
0.0
  0
ENDBLK
  5
28B
330
280
100
AcDbEntity
  8
0
100
AcDbBlockEnd
  0
BLOCK
  5
296
330
28C
100
AcDbEntity
  8
0
100
AcDbBlockBegin
  2
*D32
 70
     1
 10
0.0
 20
0.0
 30
0.0
  3
*D32
  1

  0
LINE
  5
371
330
28C
100
AcDbEntity
  8
寸法
 62
     0
370
    -2
100
AcDbLine
 10
4391.606826703472
 20
6700.000265076713
 30
0.0
 11
4979.106826703472
 21
6700.000265076713
 31
0.0
  0
LINE
  5
372
330
28C
100
AcDbEntity
  8
寸法
 62
     0
370
    -2
100
AcDbLine
 10
4391.606826703472
 20
5200.000265076713
 30
0.0
 11
4979.106826703471
 21
5200.000265076713
 31
0.0
  0
LINE
  5
373
330
28C
100
AcDbEntity
  8
寸法
 62
     0
370
    -2
100
AcDbLine
 10
4941.606826703472
 20
6700.000265076713
 30
0.0
 11
4941.606826703472
 21
5200.000265076713
 31
0.0
  0
INSERT
  5
374
330
28C
100
AcDbEntity
  8
寸法
 62
     0
370
    -2
100
AcDbBlockReference
  2
_OBLIQUE
 10
4941.606826703472
 20
6700.000265076713
 30
0.0
 41
50.0
 42
50.0
 43
50.0
 50
90.0
  0
INSERT
  5
375
330
28C
100
AcDbEntity
  8
寸法
 62
     0
370
    -2
100
AcDbBlockReference
  2
_OBLIQUE
 10
4941.606826703472
 20
5200.000265076713
 30
0.0
 41
50.0
 42
50.0
 43
50.0
 50
270.0
  0
MTEXT
  5
376
330
28C
100
AcDbEntity
  8
寸法
 62
     0
100
AcDbMText
 10
4885.356826703471
 20
5950.000265076713
 30
0.0
 40
62.5
 41
0.0
 71
     5
 72
     1
  1
\A1;1500
 11
0.0000000000000001
 21
1.0
 31
0.0
 73
     1
 44
1.0
  0
POINT
  5
377
330
28C
100
AcDbEntity
  8
DEFPOINTS
 62
     0
100
AcDbPoint
 10
4341.606826703471
 20
6700.000265076713
 30
0.0
  0
POINT
  5
378
330
28C
100
AcDbEntity
  8
DEFPOINTS
 62
     0
100
AcDbPoint
 10
4341.606826703471
 20
5200.000265076713
 30
0.0
  0
POINT
  5
379
330
28C
100
AcDbEntity
  8
DEFPOINTS
 62
     0
100
AcDbPoint
 10
4941.606826703472
 20
5200.000265076713
 30
0.0
  0
ENDBLK
  5
297
330
28C
100
AcDbEntity
  8
0
100
AcDbBlockEnd
  0
BLOCK
  5
2A2
330
298
100
AcDbEntity
  8
0
100
AcDbBlockBegin
  2
*D33
 70
     1
 10
0.0
 20
0.0
 30
0.0
  3
*D33
  1

  0
LINE
  5
37A
330
298
100
AcDbEntity
  8
寸法
 62
     0
370
    -2
100
AcDbLine
 10
6568.365839703474
 20
5200.000265076713
 30
0.0
 11
5980.865839703473
 21
5200.000265076713
 31
0.0
  0
LINE
  5
37B
330
298
100
AcDbEntity
  8
寸法
 62
     0
370
    -2
100
AcDbLine
 10
6568.365839703474
 20
6700.000265076713
 30
0.0
 11
5980.865839703474
 21
6700.000265076714
 31
0.0
  0
LINE
  5
37C
330
298
100
AcDbEntity
  8
寸法
 62
     0
370
    -2
100
AcDbLine
 10
6018.365839703474
 20
5200.000265076713
 30
0.0
 11
6018.365839703474
 21
6700.000265076714
 31
0.0
  0
INSERT
  5
37D
330
298
100
AcDbEntity
  8
寸法
 62
     0
370
    -2
100
AcDbBlockReference
  2
_OBLIQUE
 10
6018.365839703474
 20
5200.000265076713
 30
0.0
 41
50.0
 42
50.0
 43
50.0
 50
270.0
  0
INSERT
  5
37E
330
298
100
AcDbEntity
  8
寸法
 62
     0
370
    -2
100
AcDbBlockReference
  2
_OBLIQUE
 10
6018.365839703474
 20
6700.000265076714
 30
0.0
 41
50.0
 42
50.0
 43
50.0
 50
90.0
  0
MTEXT
  5
37F
330
298
100
AcDbEntity
  8
寸法
 62
     0
100
AcDbMText
 10
5962.115839703472
 20
5950.000265076715
 30
0.0
 40
62.5
 41
0.0
 71
     5
 72
     1
  1
\A1;1500
 11
0.0000000000000001
 21
1.0
 31
0.0
 73
     1
 44
1.0
  0
POINT
  5
380
330
298
100
AcDbEntity
  8
DEFPOINTS
 62
     0
100
AcDbPoint
 10
6618.365839703475
 20
5200.000265076713
 30
0.0
  0
POINT
  5
381
330
298
100
AcDbEntity
  8
DEFPOINTS
 62
     0
100
AcDbPoint
 10
6618.365839703475
 20
6700.000265076713
 30
0.0
  0
POINT
  5
382
330
298
100
AcDbEntity
  8
DEFPOINTS
 62
     0
100
AcDbPoint
 10
6018.365839703474
 20
6700.000265076714
 30
0.0
  0
ENDBLK
  5
2A3
330
298
100
AcDbEntity
  8
0
100
AcDbBlockEnd
  0
BLOCK
  5
2AE
330
2A4
100
AcDbEntity
  8
0
100
AcDbBlockBegin
  2
*D34
 70
     1
 10
0.0
 20
0.0
 30
0.0
  3
*D34
  1

  0
LINE
  5
383
330
2A4
100
AcDbEntity
  8
寸法
 62
     0
370
    -2
100
AcDbLine
 10
6568.365839703474
 20
5200.000265076713
 30
0.0
 11
6280.865839703474
 21
5200.000265076713
 31
0.0
  0
LINE
  5
384
330
2A4
100
AcDbEntity
  8
寸法
 62
     0
370
    -2
100
AcDbLine
 10
6568.365839703474
 20
5325.000265076713
 30
0.0
 11
6280.865839703474
 21
5325.000265076713
 31
0.0
  0
LINE
  5
385
330
2A4
100
AcDbEntity
  8
寸法
 62
     0
370
    -2
100
AcDbLine
 10
6318.365839703474
 20
5200.000265076713
 30
0.0
 11
6318.365839703474
 21
5325.000265076713
 31
0.0
  0
MTEXT
  5
386
330
2A4
100
AcDbEntity
  8
寸法
 62
     0
100
AcDbMText
 10
6212.115839703474
 20
5285.157562076711
 30
0.0
 40
62.5
 41
0.0
 71
     5
 72
     1
  1
\A1;125
 11
0.0000000000000001
 21
1.0
 31
0.0
 73
     1
 44
1.0
  0
INSERT
  5
387
330
2A4
100
AcDbEntity
  8
寸法
 62
     0
370
    -2
100
AcDbBlockReference
  2
_OBLIQUE
 10
6318.365839703474
 20
5200.000265076713
 30
0.0
 41
50.0
 42
50.0
 43
50.0
 50
270.0
  0
INSERT
  5
388
330
2A4
100
AcDbEntity
  8
寸法
 62
     0
370
    -2
100
AcDbBlockReference
  2
_OBLIQUE
 10
6318.365839703474
 20
5325.000265076713
 30
0.0
 41
50.0
 42
50.0
 43
50.0
 50
90.0
  0
POINT
  5
389
330
2A4
100
AcDbEntity
  8
DEFPOINTS
 62
     0
100
AcDbPoint
 10
6618.365839703475
 20
5200.000265076713
 30
0.0
  0
POINT
  5
38A
330
2A4
100
AcDbEntity
  8
DEFPOINTS
 62
     0
100
AcDbPoint
 10
6618.365839703475
 20
5325.000265076713
 30
0.0
  0
POINT
  5
38B
330
2A4
100
AcDbEntity
  8
DEFPOINTS
 62
     0
100
AcDbPoint
 10
6318.365839703474
 20
5325.000265076713
 30
0.0
  0
ENDBLK
  5
2AF
330
2A4
100
AcDbEntity
  8
0
100
AcDbBlockEnd
  0
BLOCK
  5
2BA
330
2B0
100
AcDbEntity
  8
0
100
AcDbBlockBegin
  2
*D35
 70
     1
 10
0.0
 20
0.0
 30
0.0
  3
*D35
  1

  0
LINE
  5
38C
330
2B0
100
AcDbEntity
  8
寸法
 62
     0
370
    -2
100
AcDbLine
 10
2291.606826703472
 20
5200.000265076713
 30
0.0
 11
2004.106826703472
 21
5200.000265076713
 31
0.0
  0
LINE
  5
38D
330
2B0
100
AcDbEntity
  8
寸法
 62
     0
370
    -2
100
AcDbLine
 10
2291.606826703472
 20
5950.000265076713
 30
0.0
 11
2004.106826703472
 21
5950.000265076713
 31
0.0
  0
LINE
  5
38E
330
2B0
100
AcDbEntity
  8
寸法
 62
     0
370
    -2
100
AcDbLine
 10
2041.606826703471
 20
5200.000265076713
 30
0.0
 11
2041.606826703472
 21
5950.000265076713
 31
0.0
  0
INSERT
  5
38F
330
2B0
100
AcDbEntity
  8
寸法
 62
     0
370
    -2
100
AcDbBlockReference
  2
_OBLIQUE
 10
2041.606826703471
 20
5200.000265076713
 30
0.0
 41
50.0
 42
50.0
 43
50.0
 50
270.0
  0
INSERT
  5
390
330
2B0
100
AcDbEntity
  8
寸法
 62
     0
370
    -2
100
AcDbBlockReference
  2
_OBLIQUE
 10
2041.606826703472
 20
5950.000265076713
 30
0.0
 41
50.0
 42
50.0
 43
50.0
 50
90.0
  0
MTEXT
  5
391
330
2B0
100
AcDbEntity
  8
寸法
 62
     0
100
AcDbMText
 10
1985.356826703471
 20
5575.000265076713
 30
0.0
 40
62.5
 41
0.0
 71
     5
 72
     1
  1
\A1;750
 11
0.0000000000000001
 21
1.0
 31
0.0
 73
     1
 44
1.0
  0
POINT
  5
392
330
2B0
100
AcDbEntity
  8
DEFPOINTS
 62
     0
100
AcDbPoint
 10
2341.606826703472
 20
5200.000265076713
 30
0.0
  0
POINT
  5
393
330
2B0
100
AcDbEntity
  8
DEFPOINTS
 62
     0
100
AcDbPoint
 10
2341.606826703472
 20
5950.000265076713
 30
0.0
  0
POINT
  5
394
330
2B0
100
AcDbEntity
  8
DEFPOINTS
 62
     0
100
AcDbPoint
 10
2041.606826703472
 20
5950.000265076713
 30
0.0
  0
ENDBLK
  5
2BB
330
2B0
100
AcDbEntity
  8
0
100
AcDbBlockEnd
  0
BLOCK
  5
2C5
330
2BC
100
AcDbEntity
  8
0
100
AcDbBlockBegin
  2
*D36
 70
     1
 10
0.0
 20
0.0
 30
0.0
  3
*D36
  1

  0
LINE
  5
395
330
2BC
100
AcDbEntity
  8
寸法
 62
     0
370
    -2
100
AcDbLine
 10
3841.606826703472
 20
5150.000265076712
 30
0.0
 11
3841.606826703472
 21
4862.500265076713
 31
0.0
  0
LINE
  5
396
330
2BC
100
AcDbEntity
  8
寸法
 62
     0
370
    -2
100
AcDbLine
 10
2841.606826703472
 20
4900.000265076712
 30
0.0
 11
3841.606826703472
 21
4900.000265076712
 31
0.0
  0
INSERT
  5
397
330
2BC
100
AcDbEntity
  8
寸法
 62
     0
370
    -2
100
AcDbBlockReference
  2
_OBLIQUE
 10
2841.606826703472
 20
4900.000265076712
 30
0.0
 41
50.0
 42
50.0
 43
50.0
 50
180.0
  0
INSERT
  5
398
330
2BC
100
AcDbEntity
  8
寸法
 62
     0
370
    -2
100
AcDbBlockReference
  2
_OBLIQUE
 10
3841.606826703472
 20
4900.000265076712
 30
0.0
 41
50.0
 42
50.0
 43
50.0
  0
MTEXT
  5
399
330
2BC
100
AcDbEntity
  8
寸法
 62
     0
100
AcDbMText
 10
3341.606826703472
 20
4956.250265076713
 30
0.0
 40
62.5
 41
0.0
 71
     5
 72
     1
  1
\A1;1000
 73
     1
 44
1.0
  0
POINT
  5
39A
330
2BC
100
AcDbEntity
  8
DEFPOINTS
 62
     0
100
AcDbPoint
 10
2841.606826703472
 20
5200.000265076713
 30
0.0
  0
POINT
  5
39B
330
2BC
100
AcDbEntity
  8
DEFPOINTS
 62
     0
100
AcDbPoint
 10
3841.606826703472
 20
5200.000265076713
 30
0.0
  0
POINT
  5
39C
330
2BC
100
AcDbEntity
  8
DEFPOINTS
 62
     0
100
AcDbPoint
 10
3841.606826703472
 20
4900.000265076712
 30
0.0
  0
ENDBLK
  5
2C6
330
2BC
100
AcDbEntity
  8
0
100
AcDbBlockEnd
  0
BLOCK
  5
2D1
330
2C7
100
AcDbEntity
  8
0
100
AcDbBlockBegin
  2
*D37
 70
     1
 10
0.0
 20
0.0
 30
0.0
  3
*D37
  1

  0
LINE
  5
39D
330
2C7
100
AcDbEntity
  8
寸法
 62
     0
370
    -2
100
AcDbLine
 10
2341.606826703472
 20
5150.000265076712
 30
0.0
 11
2341.606826703472
 21
4862.500265076713
 31
0.0
  0
LINE
  5
39E
330
2C7
100
AcDbEntity
  8
寸法
 62
     0
370
    -2
100
AcDbLine
 10
2841.606826703472
 20
5150.000265076712
 30
0.0
 11
2841.606826703472
 21
4862.500265076713
 31
0.0
  0
LINE
  5
39F
330
2C7
100
AcDbEntity
  8
寸法
 62
     0
370
    -2
100
AcDbLine
 10
2341.606826703472
 20
4900.000265076712
 30
0.0
 11
2841.606826703472
 21
4900.000265076712
 31
0.0
  0
INSERT
  5
3A0
330
2C7
100
AcDbEntity
  8
寸法
 62
     0
370
    -2
100
AcDbBlockReference
  2
_OBLIQUE
 10
2341.606826703472
 20
4900.000265076712
 30
0.0
 41
50.0
 42
50.0
 43
50.0
 50
180.0
  0
INSERT
  5
3A1
330
2C7
100
AcDbEntity
  8
寸法
 62
     0
370
    -2
100
AcDbBlockReference
  2
_OBLIQUE
 10
2841.606826703472
 20
4900.000265076712
 30
0.0
 41
50.0
 42
50.0
 43
50.0
  0
MTEXT
  5
3A2
330
2C7
100
AcDbEntity
  8
寸法
 62
     0
100
AcDbMText
 10
2591.606826703472
 20
4956.250265076713
 30
0.0
 40
62.5
 41
0.0
 71
     5
 72
     1
  1
\A1;500
 73
     1
 44
1.0
  0
POINT
  5
3A3
330
2C7
100
AcDbEntity
  8
DEFPOINTS
 62
     0
100
AcDbPoint
 10
2341.606826703472
 20
5200.000265076713
 30
0.0
  0
POINT
  5
3A4
330
2C7
100
AcDbEntity
  8
DEFPOINTS
 62
     0
100
AcDbPoint
 10
2841.606826703472
 20
5200.000265076713
 30
0.0
  0
POINT
  5
3A5
330
2C7
100
AcDbEntity
  8
DEFPOINTS
 62
     0
100
AcDbPoint
 10
2841.606826703472
 20
4900.000265076712
 30
0.0
  0
ENDBLK
  5
2D2
330
2C7
100
AcDbEntity
  8
0
100
AcDbBlockEnd
  0
BLOCK
  5
2DD
330
2D3
100
AcDbEntity
  8
0
100
AcDbBlockBegin
  2
*D38
 70
     1
 10
0.0
 20
0.0
 30
0.0
  3
*D38
  1

  0
LINE
  5
3A6
330
2D3
100
AcDbEntity
  8
寸法
 62
     0
370
    -2
100
AcDbLine
 10
2291.606826703472
 20
5200.000265076713
 30
0.0
 11
1704.106826703471
 21
5200.000265076713
 31
0.0
  0
LINE
  5
3A7
330
2D3
100
AcDbEntity
  8
寸法
 62
     0
370
    -2
100
AcDbLine
 10
2291.606826703472
 20
6100.000265076713
 30
0.0
 11
1704.106826703472
 21
6100.000265076714
 31
0.0
  0
LINE
  5
3A8
330
2D3
100
AcDbEntity
  8
寸法
 62
     0
370
    -2
100
AcDbLine
 10
1741.606826703471
 20
5200.000265076713
 30
0.0
 11
1741.606826703472
 21
6100.000265076714
 31
0.0
  0
INSERT
  5
3A9
330
2D3
100
AcDbEntity
  8
寸法
 62
     0
370
    -2
100
AcDbBlockReference
  2
_OBLIQUE
 10
1741.606826703471
 20
5200.000265076713
 30
0.0
 41
50.0
 42
50.0
 43
50.0
 50
270.0
  0
INSERT
  5
3AA
330
2D3
100
AcDbEntity
  8
寸法
 62
     0
370
    -2
100
AcDbBlockReference
  2
_OBLIQUE
 10
1741.606826703472
 20
6100.000265076714
 30
0.0
 41
50.0
 42
50.0
 43
50.0
 50
90.0
  0
MTEXT
  5
3AB
330
2D3
100
AcDbEntity
  8
寸法
 62
     0
100
AcDbMText
 10
1685.35682670347
 20
5650.000265076713
 30
0.0
 40
62.5
 41
0.0
 71
     5
 72
     1
  1
\A1;900
 11
0.0000000000000001
 21
1.0
 31
0.0
 73
     1
 44
1.0
  0
POINT
  5
3AC
330
2D3
100
AcDbEntity
  8
DEFPOINTS
 62
     0
100
AcDbPoint
 10
2341.606826703472
 20
5200.000265076713
 30
0.0
  0
POINT
  5
3AD
330
2D3
100
AcDbEntity
  8
DEFPOINTS
 62
     0
100
AcDbPoint
 10
2341.606826703472
 20
6100.000265076713
 30
0.0
  0
POINT
  5
3AE
330
2D3
100
AcDbEntity
  8
DEFPOINTS
 62
     0
100
AcDbPoint
 10
1741.606826703472
 20
6100.000265076714
 30
0.0
  0
ENDBLK
  5
2DE
330
2D3
100
AcDbEntity
  8
0
100
AcDbBlockEnd
  0
BLOCK
  5
2E8
330
2DF
100
AcDbEntity
  8
0
100
AcDbBlockBegin
  2
*D39
 70
     1
 10
0.0
 20
0.0
 30
0.0
  3
*D39
  1

  0
LINE
  5
3AF
330
2DF
100
AcDbEntity
  8
寸法
 62
     0
370
    -2
100
AcDbLine
 10
4341.606826703471
 20
5150.000265076712
 30
0.0
 11
4341.606826703471
 21
4862.500265076713
 31
0.0
  0
LINE
  5
3B0
330
2DF
100
AcDbEntity
  8
寸法
 62
     0
370
    -2
100
AcDbLine
 10
3841.606826703472
 20
4900.000265076712
 30
0.0
 11
4341.606826703471
 21
4900.000265076712
 31
0.0
  0
INSERT
  5
3B1
330
2DF
100
AcDbEntity
  8
寸法
 62
     0
370
    -2
100
AcDbBlockReference
  2
_OBLIQUE
 10
3841.606826703472
 20
4900.000265076712
 30
0.0
 41
50.0
 42
50.0
 43
50.0
 50
180.0
  0
INSERT
  5
3B2
330
2DF
100
AcDbEntity
  8
寸法
 62
     0
370
    -2
100
AcDbBlockReference
  2
_OBLIQUE
 10
4341.606826703471
 20
4900.000265076712
 30
0.0
 41
50.0
 42
50.0
 43
50.0
  0
MTEXT
  5
3B3
330
2DF
100
AcDbEntity
  8
寸法
 62
     0
100
AcDbMText
 10
4091.606826703471
 20
4956.250265076713
 30
0.0
 40
62.5
 41
0.0
 71
     5
 72
     1
  1
\A1;500
 73
     1
 44
1.0
  0
POINT
  5
3B4
330
2DF
100
AcDbEntity
  8
DEFPOINTS
 62
     0
100
AcDbPoint
 10
3841.606826703472
 20
5200.000265076713
 30
0.0
  0
POINT
  5
3B5
330
2DF
100
AcDbEntity
  8
DEFPOINTS
 62
     0
100
AcDbPoint
 10
4341.606826703471
 20
5200.000265076713
 30
0.0
  0
POINT
  5
3B6
330
2DF
100
AcDbEntity
  8
DEFPOINTS
 62
     0
100
AcDbPoint
 10
4341.606826703471
 20
4900.000265076712
 30
0.0
  0
ENDBLK
  5
2E9
330
2DF
100
AcDbEntity
  8
0
100
AcDbBlockEnd
  0
BLOCK
  5
2F4
330
2EA
100
AcDbEntity
  8
0
100
AcDbBlockBegin
  2
*D40
 70
     1
 10
0.0
 20
0.0
 30
0.0
  3
*D40
  1

  0
LINE
  5
3B7
330
2EA
100
AcDbEntity
  8
寸法
 62
     0
370
    -2
100
AcDbLine
 10
4391.606826703472
 20
2546.337864076719
 30
0.0
 11
4979.106826703472
 21
2546.337864076719
 31
0.0
  0
LINE
  5
3B8
330
2EA
100
AcDbEntity
  8
寸法
 62
     0
370
    -2
100
AcDbLine
 10
4391.606826703472
 20
1476.337864076718
 30
0.0
 11
4979.106826703471
 21
1476.337864076718
 31
0.0
  0
LINE
  5
3B9
330
2EA
100
AcDbEntity
  8
寸法
 62
     0
370
    -2
100
AcDbLine
 10
4941.606826703472
 20
2546.337864076719
 30
0.0
 11
4941.606826703472
 21
1476.337864076718
 31
0.0
  0
INSERT
  5
3BA
330
2EA
100
AcDbEntity
  8
寸法
 62
     0
370
    -2
100
AcDbBlockReference
  2
_OBLIQUE
 10
4941.606826703472
 20
2546.337864076719
 30
0.0
 41
50.0
 42
50.0
 43
50.0
 50
90.0
  0
INSERT
  5
3BB
330
2EA
100
AcDbEntity
  8
寸法
 62
     0
370
    -2
100
AcDbBlockReference
  2
_OBLIQUE
 10
4941.606826703472
 20
1476.337864076718
 30
0.0
 41
50.0
 42
50.0
 43
50.0
 50
270.0
  0
MTEXT
  5
3BC
330
2EA
100
AcDbEntity
  8
寸法
 62
     0
100
AcDbMText
 10
4885.356826703471
 20
2011.33786407672
 30
0.0
 40
62.5
 41
0.0
 71
     5
 72
     1
  1
\A1;1070
 11
0.0000000000000001
 21
1.0
 31
0.0
 73
     1
 44
1.0
  0
POINT
  5
3BD
330
2EA
100
AcDbEntity
  8
DEFPOINTS
 62
     0
100
AcDbPoint
 10
4341.606826703471
 20
2546.337864076719
 30
0.0
  0
POINT
  5
3BE
330
2EA
100
AcDbEntity
  8
DEFPOINTS
 62
     0
100
AcDbPoint
 10
4341.606826703471
 20
1476.337864076718
 30
0.0
  0
POINT
  5
3BF
330
2EA
100
AcDbEntity
  8
DEFPOINTS
 62
     0
100
AcDbPoint
 10
4941.606826703472
 20
1476.337864076718
 30
0.0
  0
ENDBLK
  5
2F5
330
2EA
100
AcDbEntity
  8
0
100
AcDbBlockEnd
  0
BLOCK
  5
300
330
2F6
100
AcDbEntity
  8
0
100
AcDbBlockBegin
  2
*D41
 70
     1
 10
0.0
 20
0.0
 30
0.0
  3
*D41
  1

  0
LINE
  5
3C0
330
2F6
100
AcDbEntity
  8
寸法
 62
     0
370
    -2
100
AcDbLine
 10
2341.606826703472
 20
1426.337864076718
 30
0.0
 11
2341.606826703472
 21
1138.837864076718
 31
0.0
  0
LINE
  5
3C1
330
2F6
100
AcDbEntity
  8
寸法
 62
     0
370
    -2
100
AcDbLine
 10
3341.606826703472
 20
1427.587864076719
 30
0.0
 11
3341.606826703472
 21
1138.837864076718
 31
0.0
  0
LINE
  5
3C2
330
2F6
100
AcDbEntity
  8
寸法
 62
     0
370
    -2
100
AcDbLine
 10
2341.606826703472
 20
1176.337864076718
 30
0.0
 11
3341.606826703472
 21
1176.337864076718
 31
0.0
  0
INSERT
  5
3C3
330
2F6
100
AcDbEntity
  8
寸法
 62
     0
370
    -2
100
AcDbBlockReference
  2
_OBLIQUE
 10
2341.606826703472
 20
1176.337864076718
 30
0.0
 41
50.0
 42
50.0
 43
50.0
 50
180.0
  0
INSERT
  5
3C4
330
2F6
100
AcDbEntity
  8
寸法
 62
     0
370
    -2
100
AcDbBlockReference
  2
_OBLIQUE
 10
3341.606826703472
 20
1176.337864076718
 30
0.0
 41
50.0
 42
50.0
 43
50.0
  0
MTEXT
  5
3C5
330
2F6
100
AcDbEntity
  8
寸法
 62
     0
100
AcDbMText
 10
2841.606826703472
 20
1232.587864076718
 30
0.0
 40
62.5
 41
0.0
 71
     5
 72
     1
  1
\A1;1000
 73
     1
 44
1.0
  0
POINT
  5
3C6
330
2F6
100
AcDbEntity
  8
DEFPOINTS
 62
     0
100
AcDbPoint
 10
2341.606826703472
 20
1476.337864076718
 30
0.0
  0
POINT
  5
3C7
330
2F6
100
AcDbEntity
  8
DEFPOINTS
 62
     0
100
AcDbPoint
 10
3341.606826703472
 20
1477.587864076719
 30
0.0
  0
POINT
  5
3C8
330
2F6
100
AcDbEntity
  8
DEFPOINTS
 62
     0
100
AcDbPoint
 10
3341.606826703472
 20
1176.337864076718
 30
0.0
  0
ENDBLK
  5
301
330
2F6
100
AcDbEntity
  8
0
100
AcDbBlockEnd
  0
BLOCK
  5
30C
330
302
100
AcDbEntity
  8
0
100
AcDbBlockBegin
  2
*D42
 70
     1
 10
0.0
 20
0.0
 30
0.0
  3
*D42
  1

  0
LINE
  5
3C9
330
302
100
AcDbEntity
  8
寸法
 62
     0
370
    -2
100
AcDbLine
 10
2291.606826703472
 20
2546.337864076719
 30
0.0
 11
2004.106826703472
 21
2546.337864076719
 31
0.0
  0
LINE
  5
3CA
330
302
100
AcDbEntity
  8
寸法
 62
     0
370
    -2
100
AcDbLine
 10
2291.606826703472
 20
1946.337864076718
 30
0.0
 11
2004.106826703472
 21
1946.337864076718
 31
0.0
  0
LINE
  5
3CB
330
302
100
AcDbEntity
  8
寸法
 62
     0
370
    -2
100
AcDbLine
 10
2041.606826703472
 20
2546.337864076719
 30
0.0
 11
2041.606826703472
 21
1946.337864076718
 31
0.0
  0
INSERT
  5
3CC
330
302
100
AcDbEntity
  8
寸法
 62
     0
370
    -2
100
AcDbBlockReference
  2
_OBLIQUE
 10
2041.606826703472
 20
2546.337864076719
 30
0.0
 41
50.0
 42
50.0
 43
50.0
 50
90.0
  0
INSERT
  5
3CD
330
302
100
AcDbEntity
  8
寸法
 62
     0
370
    -2
100
AcDbBlockReference
  2
_OBLIQUE
 10
2041.606826703472
 20
1946.337864076718
 30
0.0
 41
50.0
 42
50.0
 43
50.0
 50
270.0
  0
MTEXT
  5
3CE
330
302
100
AcDbEntity
  8
寸法
 62
     0
100
AcDbMText
 10
1985.356826703471
 20
2246.337864076719
 30
0.0
 40
62.5
 41
0.0
 71
     5
 72
     1
  1
\A1;600
 11
0.0000000000000001
 21
1.0
 31
0.0
 73
     1
 44
1.0
  0
POINT
  5
3CF
330
302
100
AcDbEntity
  8
DEFPOINTS
 62
     0
100
AcDbPoint
 10
2341.606826703472
 20
2546.337864076719
 30
0.0
  0
POINT
  5
3D0
330
302
100
AcDbEntity
  8
DEFPOINTS
 62
     0
100
AcDbPoint
 10
2341.606826703472
 20
1946.337864076718
 30
0.0
  0
POINT
  5
3D1
330
302
100
AcDbEntity
  8
DEFPOINTS
 62
     0
100
AcDbPoint
 10
2041.606826703472
 20
1946.337864076718
 30
0.0
  0
ENDBLK
  5
30D
330
302
100
AcDbEntity
  8
0
100
AcDbBlockEnd
  0
BLOCK
  5
318
330
30E
100
AcDbEntity
  8
0
100
AcDbBlockBegin
  2
*D43
 70
     1
 10
0.0
 20
0.0
 30
0.0
  3
*D43
  1

  0
LINE
  5
3D2
330
30E
100
AcDbEntity
  8
寸法
 62
     0
370
    -2
100
AcDbLine
 10
2341.606826703472
 20
1426.337864076718
 30
0.0
 11
2341.606826703472
 21
838.8378640767186
 31
0.0
  0
LINE
  5
3D3
330
30E
100
AcDbEntity
  8
寸法
 62
     0
370
    -2
100
AcDbLine
 10
4341.606826703471
 20
1426.337864076718
 30
0.0
 11
4341.606826703471
 21
838.8378640767186
 31
0.0
  0
LINE
  5
3D4
330
30E
100
AcDbEntity
  8
寸法
 62
     0
370
    -2
100
AcDbLine
 10
2341.606826703472
 20
876.3378640767186
 30
0.0
 11
4341.606826703471
 21
876.3378640767186
 31
0.0
  0
INSERT
  5
3D5
330
30E
100
AcDbEntity
  8
寸法
 62
     0
370
    -2
100
AcDbBlockReference
  2
_OBLIQUE
 10
2341.606826703472
 20
876.3378640767186
 30
0.0
 41
50.0
 42
50.0
 43
50.0
 50
180.0
  0
INSERT
  5
3D6
330
30E
100
AcDbEntity
  8
寸法
 62
     0
370
    -2
100
AcDbBlockReference
  2
_OBLIQUE
 10
4341.606826703471
 20
876.3378640767186
 30
0.0
 41
50.0
 42
50.0
 43
50.0
  0
MTEXT
  5
3D7
330
30E
100
AcDbEntity
  8
寸法
 62
     0
100
AcDbMText
 10
3341.606826703472
 20
932.5878640767186
 30
0.0
 40
62.5
 41
0.0
 71
     5
 72
     1
  1
\A1;2000
 73
     1
 44
1.0
  0
POINT
  5
3D8
330
30E
100
AcDbEntity
  8
DEFPOINTS
 62
     0
100
AcDbPoint
 10
2341.606826703472
 20
1476.337864076718
 30
0.0
  0
POINT
  5
3D9
330
30E
100
AcDbEntity
  8
DEFPOINTS
 62
     0
100
AcDbPoint
 10
4341.606826703471
 20
1476.337864076718
 30
0.0
  0
POINT
  5
3DA
330
30E
100
AcDbEntity
  8
DEFPOINTS
 62
     0
100
AcDbPoint
 10
4341.606826703471
 20
876.3378640767186
 30
0.0
  0
ENDBLK
  5
319
330
30E
100
AcDbEntity
  8
0
100
AcDbBlockEnd
  0
BLOCK
  5
324
330
31A
100
AcDbEntity
  8
0
100
AcDbBlockBegin
  2
*D44
 70
     1
 10
0.0
 20
0.0
 30
0.0
  3
*D44
  1

  0
LINE
  5
3DB
330
31A
100
AcDbEntity
  8
寸法
 62
     0
370
    -2
100
AcDbLine
 10
2341.606826703472
 20
5150.000265076712
 30
0.0
 11
2341.606826703472
 21
4562.500265076713
 31
0.0
  0
LINE
  5
3DC
330
31A
100
AcDbEntity
  8
寸法
 62
     0
370
    -2
100
AcDbLine
 10
4341.606826703471
 20
5150.000265076712
 30
0.0
 11
4341.606826703471
 21
4562.500265076713
 31
0.0
  0
LINE
  5
3DD
330
31A
100
AcDbEntity
  8
寸法
 62
     0
370
    -2
100
AcDbLine
 10
2341.606826703472
 20
4600.000265076713
 30
0.0
 11
4341.606826703471
 21
4600.000265076713
 31
0.0
  0
INSERT
  5
3DE
330
31A
100
AcDbEntity
  8
寸法
 62
     0
370
    -2
100
AcDbBlockReference
  2
_OBLIQUE
 10
2341.606826703472
 20
4600.000265076713
 30
0.0
 41
50.0
 42
50.0
 43
50.0
 50
180.0
  0
INSERT
  5
3DF
330
31A
100
AcDbEntity
  8
寸法
 62
     0
370
    -2
100
AcDbBlockReference
  2
_OBLIQUE
 10
4341.606826703471
 20
4600.000265076713
 30
0.0
 41
50.0
 42
50.0
 43
50.0
  0
MTEXT
  5
3E0
330
31A
100
AcDbEntity
  8
寸法
 62
     0
100
AcDbMText
 10
3341.606826703472
 20
4656.250265076713
 30
0.0
 40
62.5
 41
0.0
 71
     5
 72
     1
  1
\A1;2000
 73
     1
 44
1.0
  0
POINT
  5
3E1
330
31A
100
AcDbEntity
  8
DEFPOINTS
 62
     0
100
AcDbPoint
 10
2341.606826703472
 20
5200.000265076713
 30
0.0
  0
POINT
  5
3E2
330
31A
100
AcDbEntity
  8
DEFPOINTS
 62
     0
100
AcDbPoint
 10
4341.606826703471
 20
5200.000265076713
 30
0.0
  0
POINT
  5
3E3
330
31A
100
AcDbEntity
  8
DEFPOINTS
 62
     0
100
AcDbPoint
 10
4341.606826703471
 20
4600.000265076713
 30
0.0
  0
ENDBLK
  5
325
330
31A
100
AcDbEntity
  8
0
100
AcDbBlockEnd
  0
BLOCK
  5
330
330
326
100
AcDbEntity
  8
0
100
AcDbBlockBegin
  2
*D45
 70
     1
 10
0.0
 20
0.0
 30
0.0
  3
*D45
  1

  0
LINE
  5
3E4
330
326
100
AcDbEntity
  8
寸法
 62
     0
370
    -2
100
AcDbLine
 10
6618.365839703475
 20
5150.000265076712
 30
0.0
 11
6618.365839703475
 21
4562.500265076713
 31
0.0
  0
LINE
  5
3E5
330
326
100
AcDbEntity
  8
寸法
 62
     0
370
    -2
100
AcDbLine
 10
7688.365839703475
 20
5150.000265076712
 30
0.0
 11
7688.365839703475
 21
4562.500265076713
 31
0.0
  0
LINE
  5
3E6
330
326
100
AcDbEntity
  8
寸法
 62
     0
370
    -2
100
AcDbLine
 10
6618.365839703475
 20
4600.000265076713
 30
0.0
 11
7688.365839703475
 21
4600.000265076713
 31
0.0
  0
INSERT
  5
3E7
330
326
100
AcDbEntity
  8
寸法
 62
     0
370
    -2
100
AcDbBlockReference
  2
_OBLIQUE
 10
6618.365839703475
 20
4600.000265076713
 30
0.0
 41
50.0
 42
50.0
 43
50.0
 50
180.0
  0
INSERT
  5
3E8
330
326
100
AcDbEntity
  8
寸法
 62
     0
370
    -2
100
AcDbBlockReference
  2
_OBLIQUE
 10
7688.365839703475
 20
4600.000265076713
 30
0.0
 41
50.0
 42
50.0
 43
50.0
  0
MTEXT
  5
3E9
330
326
100
AcDbEntity
  8
寸法
 62
     0
100
AcDbMText
 10
7153.365839703474
 20
4656.250265076713
 30
0.0
 40
62.5
 41
0.0
 71
     5
 72
     1
  1
\A1;1070
 73
     1
 44
1.0
  0
POINT
  5
3EA
330
326
100
AcDbEntity
  8
DEFPOINTS
 62
     0
100
AcDbPoint
 10
6618.365839703475
 20
5200.000265076713
 30
0.0
  0
POINT
  5
3EB
330
326
100
AcDbEntity
  8
DEFPOINTS
 62
     0
100
AcDbPoint
 10
7688.365839703475
 20
5200.000265076713
 30
0.0
  0
POINT
  5
3EC
330
326
100
AcDbEntity
  8
DEFPOINTS
 62
     0
100
AcDbPoint
 10
7688.365839703475
 20
4600.000265076713
 30
0.0
  0
ENDBLK
  5
331
330
326
100
AcDbEntity
  8
0
100
AcDbBlockEnd
  0
ENDSEC
  0
SECTION
  2
ENTITIES
  0
LWPOLYLINE
  5
1BB
330
21
100
AcDbEntity
  8
実線
100
AcDbPolyline
 90
        4
 70
     1
 43
0.0
 10
12214.99941958338
 20
0.0003273160691606
 10
10110.20770158338
 20
0.0003273160691606
 10
10110.20770158338
 20
785.4291693160703
 10
12214.99941958338
 20
785.4291693160703
  0
TEXT
  5
1BC
330
21
100
AcDbEntity
  8
実線
100
AcDbText
 10
10542.85614558338
 20
489.9339143160687
 30
0.0
 40
120.0
  1
L 型 擁 壁
 41
0.8
100
AcDbText
  0
TEXT
  5
1BD
330
21
100
AcDbEntity
  8
実線
100
AcDbText
 10
10528.3848115834
 20
245.4192743160675
 30
0.0
 40
120.0
  1
四国ブロック工業株式会社
 41
0.8
100
AcDbText
  0
TEXT
  5
1BE
330
21
100
AcDbEntity
  8
実線
100
AcDbText
 10
6555.95206558339
 20
7280.063771316068
 30
0.0
 40
120.0
  1
断 面 図
 41
0.8
100
AcDbText
  0
LINE
  5
1BF
330
21
100
AcDbEntity
  8
実線
100
AcDbLine
 10
6537.505700583395
 20
7241.824864316069
 30
0.0
 11
7013.129846583398
 21
7241.824864316069
 31
0.0
  0
LINE
  5
1C0
330
21
100
AcDbEntity
  8
実線
100
AcDbLine
 10
3109.428421583391
 20
7241.824864316069
 30
0.0
 11
3573.785452583397
 21
7241.824864316069
 31
0.0
  0
TEXT
  5
1C1
330
21
100
AcDbEntity
  8
実線
100
AcDbText
 10
3125.802088583383
 20
7280.063771316068
 30
0.0
 40
120.0
  1
側 面 図
 41
0.8
100
AcDbText
  0
LINE
  5
1C2
330
21
100
AcDbEntity
  8
実線
100
AcDbLine
 10
3109.428421583391
 20
2977.04675231607
 30
0.0
 11
3573.785452583397
 21
2977.04675231607
 31
0.0
  0
TEXT
  5
1C3
330
21
100
AcDbEntity
  8
実線
100
AcDbText
 10
3125.802088583383
 20
3015.285659316069
 30
0.0
 40
120.0
  1
平 面 図
 41
0.8
100
AcDbText
  0
LWPOLYLINE
  5
1C4
330
21
100
AcDbEntity
  8
実線
100
AcDbPolyline
 90
        4
 70
     1
 43
0.0
 10
334.999419583386
 20
0.0003273160691606
 10
12214.99941958338
 20
0.0003273160691606
 10
12214.99941958338
 20
8400.000327316069
 10
334.999419583386
 20
8400.000327316069
  0
MTEXT
  5
1C5
102
{ACAD_REACTORS
330
1C6
102
}
330
21
100
AcDbEntity
  8
寸法
100
AcDbMText
 10
3177.638058868819
 20
6451.567300468858
 30
0.0
 40
65.0
 41
0.0
 71
     4
 72
     1
  1
\A1;dehaアンカー2t
 73
     1
 44
1.0
  0
LEADER
  5
1C6
330
21
100
AcDbEntity
  8
寸法
100
AcDbLeader
  3
25$7
 73
     0
 74
     0
 75
     1
 40
65.00000000000006
 41
585.0000000000001
 76
     3
 10
2876.254407296234
 20
6119.988890819077
 30
0.0
 10
3102.638058868819
 20
6394.067300468858
 30
0.0
 10
3152.638058868819
 20
6394.067300468858
 30
0.0
340
1C5
1001
ACAD
1000
DSTYLE
1002
{
1070
     6
1000
OPEN
1070
   343
1005
31
1002
}
  0
MTEXT
  5
1C7
102
{ACAD_REACTORS
330
1C8
102
}
330
21
100
AcDbEntity
  8
寸法
100
AcDbMText
 10
3672.415262798342
 20
1768.276828843045
 30
0.0
 40
65.0
 41
0.0
 71
     4
 72
     1
  1
\A1;dehaアンカー2t
 73
     1
 44
1.0
  0
LEADER
  5
1C8
330
21
100
AcDbEntity
  8
寸法
100
AcDbLeader
  3
25$7
 73
     0
 74
     0
 75
     1
 40
65.00000000000006
 41
585.0000000000001
 76
     3
 10
3371.031611225742
 20
1919.242070015323
 30
0.0
 10
3597.415262798342
 20
1710.776828843045
 30
0.0
 10
3647.415262798342
 20
1710.776828843045
 30
0.0
340
1C7
1001
ACAD
1000
DSTYLE
1002
{
1070
     6
1000
OPEN
1070
   343
1005
31
1002
}
  0
DIMENSION
  5
1C9
330
21
100
AcDbEntity
  8
寸法
100
AcDbDimension
  2
*D25
 10
4341.606826703471
 20
6045.93582110168
 30
0.0
 11
4271.853992274089
 21
5939.68582110168
 31
0.0
 70
   160
 71
     5
 42
100.0
  3
25
100
AcDbAlignedDimension
 13
4241.606826703471
 23
6200.000265076713
 33
0.0
 14
4341.606826703471
 24
6415.43584157811
 34
0.0
100
AcDbRotatedDimension
  0
MTEXT
  5
1CA
102
{ACAD_REACTORS
330
1CB
102
}
330
21
100
AcDbEntity
  8
寸法
100
AcDbMText
 10
4442.090729024974
 20
6527.837233459489
 30
0.0
 40
65.0
 41
0.0
 71
     4
 72
     1
  1
\A1;M16インサート
 73
     1
 44
1.0
  0
LEADER
  5
1CB
330
21
100
AcDbEntity
  8
寸法
100
AcDbLeader
  3
25$7
 73
     0
 74
     0
 75
     1
 40
65.00000000000001
 41
422.4999999999999
 76
     3
 10
4241.606826703471
 20
6200.000265076713
 30
0.0
 10
4367.090729024974
 20
6470.33723345949
 30
0.0
 10
4417.090729024974
 20
6470.33723345949
 30
0.0
340
1CA
1001
ACAD
1000
DSTYLE
1002
{
1070
     6
1000
OPEN
1070
   343
1005
31
1002
}
  0
DIMENSION
  5
1CC
330
21
100
AcDbEntity
  8
寸法
100
AcDbDimension
  2
*D26
 10
4641.606826703472
 20
6200.000265076713
 30
0.0
 11
4585.35682670347
 21
5700.000265076713
 31
0.0
 70
    32
 71
     5
 42
1000.0
  3
25
100
AcDbAlignedDimension
 13
4341.606826703471
 23
5200.000265076713
 33
0.0
 14
4341.606826703471
 24
6200.000265076713
 34
0.0
 50
90.0
100
AcDbRotatedDimension
  0
CIRCLE
  5
1CD
330
21
100
AcDbEntity
  8
インサート
100
AcDbCircle
 10
4241.606826703471
 20
6200.000265076713
 30
0.0
 40
10.0
  0
CIRCLE
  5
1CE
330
21
100
AcDbEntity
  8
インサート
100
AcDbCircle
 10
2441.606826703472
 20
6200.000265076713
 30
0.0
 40
10.0
  0
CIRCLE
  5
1CF
330
21
100
AcDbEntity
  8
DH
100
AcDbCircle
 10
3341.606826703472
 20
1946.337864076718
 30
0.0
 40
12.5
  0
CIRCLE
  5
1D0
330
21
100
AcDbEntity
  8
DH
100
AcDbCircle
 10
3841.606826703472
 20
6100.000265076713
 30
0.0
 40
12.5
  0
CIRCLE
  5
1D1
330
21
100
AcDbEntity
  8
DH
100
AcDbCircle
 10
2841.606826703472
 20
6100.000265076713
 30
0.0
 40
12.5
  0
MTEXT
  5
1D2
102
{ACAD_REACTORS
330
1D3
102
}
330
21
100
AcDbEntity
  8
寸法
100
AcDbMText
 10
3152.335908695852
 20
5811.569691774202
 30
0.0
 40
65.0
 41
0.0
 71
     4
 72
     1
  1
\A1;水抜きφ50
 73
     1
 44
1.0
  0
LEADER
  5
1D3
330
21
100
AcDbEntity
  8
寸法
100
AcDbLeader
  3
25$7
 73
     0
 74
     0
 75
     1
 40
65.0
 41
314.1666666666667
 76
     3
 10
2869.010765283805
 20
5926.179188471986
 30
0.0
 10
3077.335908695852
 20
5754.069691774202
 30
0.0
 10
3127.335908695852
 20
5754.069691774202
 30
0.0
340
1D2
1001
ACAD
1000
DSTYLE
1002
{
1070
     6
1000
OPEN
1070
   343
1005
31
1002
}
  0
LINE
  5
1D4
330
21
100
AcDbEntity
  8
実線
100
AcDbLine
 10
4371.690594518135
 20
7787.380517316073
 30
0.0
 11
8178.308244648667
 21
7787.380517316073
 31
0.0
  0
TEXT
  5
1D5
330
21
100
AcDbEntity
  8
実線
100
AcDbText
 10
4398.149514518125
 20
7827.900453316077
 30
0.0
 40
150.0
  1
プレキャストL型擁壁一般図　H=1500A（れき質土用）
 41
0.8
100
AcDbText
  0
TEXT
  5
1D6
330
21
100
AcDbEntity
  8
実線
100
AcDbText
 10
11412.68802370346
 20
5212.294374076715
 30
0.0
 40
50.0
  1
2
 41
0.8
100
AcDbText
  0
TEXT
  5
1D7
330
21
100
AcDbEntity
  8
実線
100
AcDbText
 10
11374.97357070347
 20
5643.038860076718
 30
0.0
 40
50.0
  1
2
 41
0.8
100
AcDbText
  0
TEXT
  5
1D8
330
21
100
AcDbEntity
  8
実線
100
AcDbText
 10
11374.97357070347
 20
5499.457365076712
 30
0.0
 40
50.0
  1
3
 41
0.8
100
AcDbText
  0
TEXT
  5
1D9
330
21
100
AcDbEntity
  8
実線
100
AcDbText
 10
11412.68802370346
 20
4781.549888076711
 30
0.0
 40
50.0
  1
2
 41
0.8
100
AcDbText
  0
TEXT
  5
1DA
330
21
100
AcDbEntity
  8
実線
100
AcDbText
 10
11412.68802370346
 20
4925.131384076718
 30
0.0
 40
50.0
  1
2
 41
0.8
100
AcDbText
  0
LINE
  5
1DB
330
21
100
AcDbEntity
  8
実線
100
AcDbLine
 10
11492.89949770347
 20
5710.875886076713
 30
0.0
 11
11492.89949770347
 21
4705.805418076714
 31
0.0
  0
TEXT
  5
1DC
330
21
100
AcDbEntity
  8
実線
100
AcDbText
 10
11412.68802370346
 20
5068.712879076716
 30
0.0
 40
50.0
  1
2
 41
0.8
100
AcDbText
  0
TEXT
  5
1DD
330
21
100
AcDbEntity
  8
実線
100
AcDbText
 10
9871.384422703471
 20
5156.118732076713
 30
0.0
 40
80.0
  1
設計基準強度
 41
0.8
100
AcDbText
  0
TEXT
  5
1DE
330
21
100
AcDbEntity
  8
実線
100
AcDbText
 10
9871.384422703471
 20
5443.281723076718
 30
0.0
 40
80.0
  1
単位体積重量
 41
0.8
100
AcDbText
  0
TEXT
  5
1DF
330
21
100
AcDbEntity
  8
実線
100
AcDbText
 10
9871.384422703471
 20
5299.700227076719
 30
0.0
 40
80.0
  1
内部摩擦角
 41
0.8
100
AcDbText
  0
TEXT
  5
1E0
330
21
100
AcDbEntity
  8
実線
100
AcDbText
 10
9871.384422703471
 20
5012.537237076714
 30
0.0
 40
80.0
  1
許容曲げ圧縮応力度
 41
0.8
100
AcDbText
  0
TEXT
  5
1E1
330
21
100
AcDbEntity
  8
実線
100
AcDbText
 10
9871.384422703471
 20
4868.955741076716
 30
0.0
 40
80.0
  1
許容せん断応力度
 41
0.8
100
AcDbText
  0
TEXT
  5
1E2
330
21
100
AcDbEntity
  8
実線
100
AcDbText
 10
9359.379557703476
 20
4725.374246076717
 30
0.0
 40
80.0
  1
鉄筋許容引張応力度（SD295A） σsa
 41
0.8
100
AcDbText
  0
TEXT
  5
1E3
330
21
100
AcDbEntity
  8
実線
100
AcDbText
 10
9359.379557703476
 20
5399.460515076716
 30
0.0
 40
80.0
  1
背面土
 41
0.8
100
AcDbText
  0
TEXT
  5
1E4
330
21
100
AcDbEntity
  8
実線
100
AcDbText
 10
9359.379557703476
 20
5730.444713076715
 30
0.0
 40
80.0
  1
設計条件
 41
0.8
100
AcDbText
  0
TEXT
  5
1E5
330
21
100
AcDbEntity
  8
実線
100
AcDbText
 10
9359.379557703476
 20
5586.863218076716
 30
0.0
 40
80.0
  1
上載荷重
 41
0.8
100
AcDbText
  0
TEXT
  5
1E6
330
21
100
AcDbEntity
  8
実線
100
AcDbText
 10
9359.379557703476
 20
5012.537237076714
 30
0.0
 40
80.0
  1
コンクリート
 41
0.8
100
AcDbText
  0
LINE
  5
1E7
330
21
100
AcDbEntity
  8
実線
100
AcDbLine
 10
9332.896537703476
 20
5710.875886076713
 30
0.0
 11
9332.896537703476
 21
4705.805418076714
 31
0.0
  0
LINE
  5
1E8
330
21
100
AcDbEntity
  8
実線
100
AcDbLine
 10
9844.901402703472
 20
5567.294390076713
 30
0.0
 11
9844.901402703472
 21
4849.38691407672
 31
0.0
  0
TEXT
  5
1E9
330
21
100
AcDbEntity
  8
実線
100
AcDbText
 10
10954.42427370346
 20
5299.700227076719
 30
0.0
 40
80.0
  1
35
 41
0.8
100
AcDbText
  0
TEXT
  5
1EA
330
21
100
AcDbEntity
  8
実線
100
AcDbText
 10
10965.11843970346
 20
5443.281723076718
 30
0.0
 40
80.0
  1
20
 41
0.8
100
AcDbText
  0
TEXT
  5
1EB
330
21
100
AcDbEntity
  8
実線
100
AcDbText
 10
11109.35288470347
 20
5299.700227076719
 30
0.0
 40
80.0
  1
°
 41
0.8
100
AcDbText
  0
TEXT
  5
1EC
330
21
100
AcDbEntity
  8
実線
100
AcDbText
 10
10954.42427370346
 20
5156.118732076713
 30
0.0
 40
80.0
  1
30
 41
0.8
100
AcDbText
  0
TEXT
  5
1ED
330
21
100
AcDbEntity
  8
実線
100
AcDbText
 10
10965.11843970346
 20
5586.863218076716
 30
0.0
 40
80.0
  1
10
 41
0.8
100
AcDbText
  0
TEXT
  5
1EE
330
21
100
AcDbEntity
  8
実線
100
AcDbText
 10
10903.62712370346
 20
4741.084530076711
 30
0.0
 40
80.0
  1
160
 41
0.8
100
AcDbText
  0
TEXT
  5
1EF
330
21
100
AcDbEntity
  8
実線
100
AcDbText
 10
10965.11843970346
 20
5025.23062007672
 30
0.0
 40
80.0
  1
10
 41
0.8
100
AcDbText
  0
TEXT
  5
1F0
330
21
100
AcDbEntity
  8
実線
100
AcDbText
 10
10638.00588770347
 20
5156.118732076713
 30
0.0
 40
80.0
  1
σck
 41
0.8
100
AcDbText
  0
TEXT
  5
1F1
330
21
100
AcDbEntity
  8
実線
100
AcDbText
 10
10638.00588770347
 20
5299.700227076719
 30
0.0
 40
80.0
  1
φ
 41
0.8
100
AcDbText
  0
TEXT
  5
1F2
330
21
100
AcDbEntity
  8
実線
100
AcDbText
 10
10638.00588770347
 20
5443.281723076718
 30
0.0
 40
80.0
  1
γ
 41
0.8
100
AcDbText
  0
TEXT
  5
1F3
330
21
100
AcDbEntity
  8
実線
100
AcDbText
 10
10638.00588770347
 20
4868.955741076716
 30
0.0
 40
80.0
  1
τa
 41
0.8
100
AcDbText
  0
TEXT
  5
1F4
330
21
100
AcDbEntity
  8
実線
100
AcDbText
 10
10638.00588770347
 20
5012.537237076714
 30
0.0
 40
80.0
  1
σca
 41
0.8
100
AcDbText
  0
LINE
  5
1F5
330
21
100
AcDbEntity
  8
実線
100
AcDbLine
 10
10830.26967070348
 20
5710.875886076713
 30
0.0
 11
10830.26967070348
 21
4705.805418076714
 31
0.0
  0
TEXT
  5
1F6
330
21
100
AcDbEntity
  8
実線
100
AcDbText
 10
10866.19726870347
 20
4884.666026076716
 30
0.0
 40
80.0
  1
0.45
 41
0.8
100
AcDbText
  0
LINE
  5
1F7
330
21
100
AcDbEntity
  8
実線
100
AcDbLine
 10
9332.896537703476
 20
4705.805418076714
 30
0.0
 11
11492.89949770347
 21
4705.805418076714
 31
0.0
  0
LINE
  5
1F8
330
21
100
AcDbEntity
  8
実線
100
AcDbLine
 10
9332.896537703476
 20
4849.38691407672
 30
0.0
 11
11492.89949770347
 21
4849.38691407672
 31
0.0
  0
LINE
  5
1F9
330
21
100
AcDbEntity
  8
実線
100
AcDbLine
 10
9844.901402703472
 20
4992.968409076719
 30
0.0
 11
11492.89949770347
 21
4992.968409076719
 31
0.0
  0
LINE
  5
1FA
330
21
100
AcDbEntity
  8
実線
100
AcDbLine
 10
9844.901402703472
 20
5136.549904076717
 30
0.0
 11
11492.89949770347
 21
5136.549904076717
 31
0.0
  0
LINE
  5
1FB
330
21
100
AcDbEntity
  8
実線
100
AcDbLine
 10
9332.896537703476
 20
5280.131400076709
 30
0.0
 11
11492.89949770347
 21
5280.131400076709
 31
0.0
  0
LINE
  5
1FC
330
21
100
AcDbEntity
  8
実線
100
AcDbLine
 10
9844.901402703472
 20
5423.712895076715
 30
0.0
 11
11492.89949770347
 21
5423.712895076715
 31
0.0
  0
LINE
  5
1FD
330
21
100
AcDbEntity
  8
実線
100
AcDbLine
 10
9332.896537703476
 20
5567.294390076713
 30
0.0
 11
11492.89949770347
 21
5567.294390076713
 31
0.0
  0
LINE
  5
1FE
330
21
100
AcDbEntity
  8
実線
100
AcDbLine
 10
9332.896537703476
 20
5710.875886076713
 30
0.0
 11
11492.89949770347
 21
5710.875886076713
 31
0.0
  0
TEXT
  5
1FF
330
21
100
AcDbEntity
  8
実線
100
AcDbText
 10
11109.35288470347
 20
5164.179027076716
 30
0.0
 40
80.0
  1
N/mm
 41
0.8
100
AcDbText
  0
TEXT
  5
200
330
21
100
AcDbEntity
  8
実線
100
AcDbText
 10
11109.35288470347
 20
5443.281723076718
 30
0.0
 40
80.0
  1
kN/m
 41
0.8
100
AcDbText
  0
TEXT
  5
201
330
21
100
AcDbEntity
  8
実線
100
AcDbText
 10
11109.35288470347
 20
5586.863218076716
 30
0.0
 40
80.0
  1
kN/m
 41
0.8
100
AcDbText
  0
TEXT
  5
202
330
21
100
AcDbEntity
  8
実線
100
AcDbText
 10
11109.35288470347
 20
4877.016036076711
 30
0.0
 40
80.0
  1
N/mm
 41
0.8
100
AcDbText
  0
TEXT
  5
203
330
21
100
AcDbEntity
  8
実線
100
AcDbText
 10
11109.35288470347
 20
4733.434541076713
 30
0.0
 40
80.0
  1
N/mm
 41
0.8
100
AcDbText
  0
TEXT
  5
204
330
21
100
AcDbEntity
  8
実線
100
AcDbText
 10
11109.35288470347
 20
5020.59753107671
 30
0.0
 40
80.0
  1
N/mm
 41
0.8
100
AcDbText
  0
ARC
  5
205
330
21
100
AcDbEntity
  8
DH
100
AcDbCircle
 10
7218.365839703475
 20
5305.116544076714
 30
0.0
 40
40.0
100
AcDbArc
 50
177.6029709999689
 51
357.6029709999689
  0
LINE
  5
206
330
21
100
AcDbEntity
  8
WH
100
AcDbLine
 10
6618.365839703475
 20
5917.000265076713
 30
0.0
 11
6723.991294305874
 21
5917.000265076706
 31
0.0
  0
LINE
  5
207
330
21
100
AcDbEntity
  8
WH
100
AcDbLine
 10
6618.365839703475
 20
5983.000265076713
 30
0.0
 11
6721.831294301067
 21
5983.000265076713
 31
0.0
  0
ARC
  5
208
330
21
100
AcDbEntity
  8
DH
100
AcDbCircle
 10
6718.002203383469
 20
6100.000265076713
 30
0.0
 40
40.0
100
AcDbArc
 50
91.87446599992252
 51
271.8744659999225
  0
LINE
  5
209
330
21
100
AcDbEntity
  8
実線
100
AcDbLine
 10
6618.365839703475
 20
5200.000265076713
 30
0.0
 11
6618.365839703475
 21
6700.000265076713
 31
0.0
  0
LINE
  5
20A
330
21
100
AcDbEntity
  8
実線
100
AcDbLine
 10
7688.365839703475
 20
5200.000265076713
 30
0.0
 11
7688.365839703475
 21
5285.442125076712
 31
0.0
  0
LINE
  5
20B
330
21
100
AcDbEntity
  8
実線
100
AcDbLine
 10
6739.274930703468
 20
5450.000265076713
 30
0.0
 11
6868.365839703475
 21
5319.767706076709
 31
0.0
  0
LINE
  5
20C
330
21
100
AcDbEntity
  8
実線
100
AcDbLine
 10
6618.365839703475
 20
6700.000265076713
 30
0.0
 11
6698.365839703474
 21
6700.000265076713
 31
0.0
  0
LINE
  5
20D
330
21
100
AcDbEntity
  8
実線
100
AcDbLine
 10
6698.365839703474
 20
6700.000265076713
 30
0.0
 11
6739.274930703468
 21
5450.000265076713
 31
0.0
  0
LINE
  5
20E
330
21
100
AcDbEntity
  8
実線
100
AcDbLine
 10
6618.365839703475
 20
5200.000265076713
 30
0.0
 11
6618.365839703475
 21
6700.000265076713
 31
0.0
  0
LINE
  5
20F
330
21
100
AcDbEntity
  8
実線
100
AcDbLine
 10
6618.365839703475
 20
5200.000265076713
 30
0.0
 11
7688.365839703475
 21
5200.000265076713
 31
0.0
  0
LINE
  5
210
330
21
100
AcDbEntity
  8
実線
100
AcDbLine
 10
6868.365839703475
 20
5319.767706076709
 30
0.0
 11
7688.365839703475
 21
5285.442125076712
 31
0.0
  0
DIMENSION
  5
211
330
21
100
AcDbEntity
  8
寸法
100
AcDbDimension
  2
*D27
 10
6743.365839703475
 20
4900.000265076712
 30
0.0
 11
6695.664385703479
 21
4793.750265076712
 31
0.0
 70
   160
 71
     5
 42
125.0
  3
25
100
AcDbAlignedDimension
 13
6618.365839703475
 23
5200.000265076713
 33
0.0
 14
6743.365839703475
 24
5200.000265076713
 34
0.0
100
AcDbRotatedDimension
  0
DIMENSION
  5
212
330
21
100
AcDbEntity
  8
寸法
100
AcDbDimension
  2
*D28
 10
6868.365839703475
 20
5554.186557076711
 30
0.0
 11
6805.865839703475
 21
5660.436557076711
 31
0.0
 70
    32
 71
     5
 42
125.0
  3
25
100
AcDbAlignedDimension
 13
6743.365839703475
 23
5445.873176076719
 33
0.0
 14
6868.365839703475
 24
5319.767706076709
 34
0.0
100
AcDbRotatedDimension
  0
DIMENSION
  5
213
330
21
100
AcDbEntity
  8
寸法
100
AcDbDimension
  2
*D29
 10
6973.475913703471
 20
5325.000265076713
 30
0.0
 11
7142.22591370347
 21
5387.500265076715
 31
0.0
 70
    32
 71
     5
 42
125.0
  3
25
100
AcDbAlignedDimension
 13
6739.274930703468
 23
5450.000265076713
 33
0.0
 14
6863.179150703479
 24
5325.000265076713
 34
0.0
 50
90.0
100
AcDbRotatedDimension
  0
DIMENSION
  5
214
330
21
100
AcDbEntity
  8
寸法
100
AcDbDimension
  2
*D30
 10
6698.365839703474
 20
7000.000265076713
 30
0.0
 11
6658.365839703474
 21
7106.250265076713
 31
0.0
 70
    32
 71
     5
 42
80.0
  3
25
100
AcDbAlignedDimension
 13
6618.365839703475
 23
6700.000265076713
 33
0.0
 14
6698.365839703474
 24
6700.000265076713
 34
0.0
100
AcDbRotatedDimension
  0
DIMENSION
  5
215
330
21
100
AcDbEntity
  8
寸法
100
AcDbDimension
  2
*D31
 10
7988.365839703475
 20
5200.000265076713
 30
0.0
 11
8157.115839703473
 21
5242.721195076713
 31
0.0
 70
    32
 71
     5
 42
85.441859999999
  3
25
100
AcDbAlignedDimension
 13
7688.365839703475
 23
5285.442125076712
 33
0.0
 14
7688.365839703475
 24
5200.000265076713
 34
0.0
 50
90.0
100
AcDbRotatedDimension
  0
LINE
  5
216
330
21
100
AcDbEntity
  8
実線
100
AcDbLine
 10
4341.606826703471
 20
5200.000265076713
 30
0.0
 11
4341.606826703471
 21
6700.000265076713
 31
0.0
  0
DIMENSION
  5
217
330
21
100
AcDbEntity
  8
寸法
100
AcDbDimension
  2
*D32
 10
4941.606826703472
 20
5200.000265076713
 30
0.0
 11
4885.356826703471
 21
5950.000265076713
 31
0.0
 70
    32
 71
     5
 42
1500.0
  3
25
100
AcDbAlignedDimension
 13
4341.606826703471
 23
6700.000265076713
 33
0.0
 14
4341.606826703471
 24
5200.000265076713
 34
0.0
 50
90.0
100
AcDbRotatedDimension
  0
DIMENSION
  5
218
330
21
100
AcDbEntity
  8
寸法
100
AcDbDimension
  2
*D33
 10
6018.365839703474
 20
6700.000265076714
 30
0.0
 11
5962.115839703472
 21
5950.000265076715
 31
0.0
 70
    32
 71
     5
 42
1500.0
  3
25
100
AcDbAlignedDimension
 13
6618.365839703475
 23
5200.000265076713
 33
0.0
 14
6618.365839703475
 24
6700.000265076713
 34
0.0
 50
90.0
100
AcDbRotatedDimension
  0
DIMENSION
  5
219
330
21
100
AcDbEntity
  8
寸法
100
AcDbDimension
  2
*D34
 10
6318.365839703474
 20
5325.000265076713
 30
0.0
 11
6212.115839703474
 21
5285.157562076711
 31
0.0
 70
   160
 71
     5
 42
125.0
  3
25
100
AcDbAlignedDimension
 13
6618.365839703475
 23
5200.000265076713
 33
0.0
 14
6618.365839703475
 24
5325.000265076713
 34
0.0
 50
90.0
100
AcDbRotatedDimension
  0
CIRCLE
  5
21A
330
21
100
AcDbEntity
  8
DH
100
AcDbCircle
 10
3841.606826703472
 20
6100.000265076713
 30
0.0
 40
39.0
  0
CIRCLE
  5
21B
330
21
100
AcDbEntity
  8
WH
100
AcDbCircle
 10
3841.606826703472
 20
5950.000265076713
 30
0.0
 40
32.5
  0
LINE
  5
21C
330
21
100
AcDbEntity
  8
実線
100
AcDbLine
 10
2341.606826703472
 20
5200.000265076713
 30
0.0
 11
2341.606826703472
 21
6700.000265076713
 31
0.0
  0
CIRCLE
  5
21D
330
21
100
AcDbEntity
  8
DH
100
AcDbCircle
 10
2841.606826703472
 20
6100.000265076713
 30
0.0
 40
39.0
  0
CIRCLE
  5
21E
330
21
100
AcDbEntity
  8
WH
100
AcDbCircle
 10
2841.606826703472
 20
5950.000265076713
 30
0.0
 40
32.5
  0
DIMENSION
  5
21F
330
21
100
AcDbEntity
  8
寸法
100
AcDbDimension
  2
*D35
 10
2041.606826703472
 20
5950.000265076713
 30
0.0
 11
1985.356826703471
 21
5575.000265076713
 31
0.0
 70
    32
 71
     5
 42
750.0
  3
25
100
AcDbAlignedDimension
 13
2341.606826703472
 23
5200.000265076713
 33
0.0
 14
2341.606826703472
 24
5950.000265076713
 34
0.0
 50
90.0
100
AcDbRotatedDimension
  0
DIMENSION
  5
220
330
21
100
AcDbEntity
  8
寸法
100
AcDbDimension
  2
*D36
 10
3841.606826703472
 20
4900.000265076712
 30
0.0
 11
3341.606826703472
 21
4956.250265076713
 31
0.0
 70
    32
 71
     5
 42
1000.0
  3
25
100
AcDbAlignedDimension
 13
2841.606826703472
 23
5200.000265076713
 33
0.0
 14
3841.606826703472
 24
5200.000265076713
 34
0.0
100
AcDbRotatedDimension
1001
ACAD
1000
DSTYLE
1002
{
1070
    75
1070
     1
1002
}
  0
DIMENSION
  5
221
330
21
100
AcDbEntity
  8
寸法
100
AcDbDimension
  2
*D37
 10
2841.606826703472
 20
4900.000265076712
 30
0.0
 11
2591.606826703472
 21
4956.250265076713
 31
0.0
 70
    32
 71
     5
 42
500.0
  3
25
100
AcDbAlignedDimension
 13
2341.606826703472
 23
5200.000265076713
 33
0.0
 14
2841.606826703472
 24
5200.000265076713
 34
0.0
100
AcDbRotatedDimension
  0
DIMENSION
  5
222
330
21
100
AcDbEntity
  8
寸法
100
AcDbDimension
  2
*D38
 10
1741.606826703472
 20
6100.000265076714
 30
0.0
 11
1685.35682670347
 21
5650.000265076713
 31
0.0
 70
    32
 71
     5
 42
900.0
  3
25
100
AcDbAlignedDimension
 13
2341.606826703472
 23
5200.000265076713
 33
0.0
 14
2341.606826703472
 24
6100.000265076713
 34
0.0
 50
90.0
100
AcDbRotatedDimension
  0
LINE
  5
223
330
21
100
AcDbEntity
  8
実線
100
AcDbLine
 10
2341.606826703472
 20
6700.000265076713
 30
0.0
 11
4341.606826703471
 21
6700.000265076713
 31
0.0
  0
LINE
  5
224
330
21
100
AcDbEntity
  8
実線
100
AcDbLine
 10
2341.606826703472
 20
5200.000265076713
 30
0.0
 11
4341.606826703471
 21
5200.000265076713
 31
0.0
  0
DIMENSION
  5
225
330
21
100
AcDbEntity
  8
寸法
100
AcDbDimension
  2
*D39
 10
4341.606826703471
 20
4900.000265076712
 30
0.0
 11
4091.606826703471
 21
4956.250265076713
 31
0.0
 70
    32
 71
     5
 42
500.0
  3
25
100
AcDbAlignedDimension
 13
3841.606826703472
 23
5200.000265076713
 33
0.0
 14
4341.606826703471
 24
5200.000265076713
 34
0.0
100
AcDbRotatedDimension
1001
ACAD
1000
DSTYLE
1002
{
1070
    75
1070
     1
1002
}
  0
LINE
  5
226
330
21
100
AcDbEntity
  8
実線
100
AcDbLine
 10
2341.606826703472
 20
5285.000265076713
 30
0.0
 11
4341.606826703471
 21
5285.000265076713
 31
0.0
  0
LINE
  5
227
330
21
100
AcDbEntity
  8
実線
100
AcDbLine
 10
2341.606826703472
 20
5325.000265076713
 30
0.0
 11
4341.606826703471
 21
5325.000265076713
 31
0.0
  0
LINE
  5
228
330
21
100
AcDbEntity
  8
実線
100
AcDbLine
 10
2341.606826703472
 20
5450.000265076713
 30
0.0
 11
4341.606826703471
 21
5450.000265076713
 31
0.0
  0
LINE
  5
229
330
21
100
AcDbEntity
  8
実線
100
AcDbLine
 10
4341.606826703471
 20
2546.337864076719
 30
0.0
 11
4341.606826703471
 21
1476.337864076718
 31
0.0
  0
DIMENSION
  5
22A
330
21
100
AcDbEntity
  8
寸法
100
AcDbDimension
  2
*D40
 10
4941.606826703472
 20
1476.337864076718
 30
0.0
 11
4885.356826703471
 21
2011.33786407672
 31
0.0
 70
    32
 71
     5
 42
1070.0
  3
25
100
AcDbAlignedDimension
 13
4341.606826703471
 23
2546.337864076719
 33
0.0
 14
4341.606826703471
 24
1476.337864076718
 34
0.0
 50
90.0
100
AcDbRotatedDimension
  0
CIRCLE
  5
22B
330
21
100
AcDbEntity
  8
DH
100
AcDbCircle
 10
3341.606826703472
 20
1946.337864076718
 30
0.0
 40
39.0
  0
DIMENSION
  5
22C
330
21
100
AcDbEntity
  8
寸法
100
AcDbDimension
  2
*D41
 10
3341.606826703472
 20
1176.337864076718
 30
0.0
 11
2841.606826703472
 21
1232.587864076718
 31
0.0
 70
    32
 71
     5
 42
1000.0
  3
25
100
AcDbAlignedDimension
 13
2341.606826703472
 23
1476.337864076718
 33
0.0
 14
3341.606826703472
 24
1477.587864076719
 34
0.0
100
AcDbRotatedDimension
  0
LINE
  5
22D
330
21
100
AcDbEntity
  8
実線
100
AcDbLine
 10
2341.606826703472
 20
2546.337864076719
 30
0.0
 11
2341.606826703472
 21
1476.337864076718
 31
0.0
  0
DIMENSION
  5
22E
330
21
100
AcDbEntity
  8
寸法
100
AcDbDimension
  2
*D42
 10
2041.606826703472
 20
1946.337864076718
 30
0.0
 11
1985.356826703471
 21
2246.337864076719
 31
0.0
 70
    32
 71
     5
 42
600.0
  3
25
100
AcDbAlignedDimension
 13
2341.606826703472
 23
2546.337864076719
 33
0.0
 14
2341.606826703472
 24
1946.337864076718
 34
0.0
 50
90.0
100
AcDbRotatedDimension
  0
LINE
  5
22F
330
21
100
AcDbEntity
  8
実線
100
AcDbLine
 10
2341.606826703472
 20
1476.337864076718
 30
0.0
 11
4341.606826703471
 21
1476.337864076718
 31
0.0
  0
LINE
  5
230
330
21
100
AcDbEntity
  8
実線
100
AcDbLine
 10
2341.606826703472
 20
2546.337864076719
 30
0.0
 11
4341.606826703471
 21
2546.337864076719
 31
0.0
  0
DIMENSION
  5
231
330
21
100
AcDbEntity
  8
寸法
100
AcDbDimension
  2
*D43
 10
4341.606826703471
 20
876.3378640767186
 30
0.0
 11
3341.606826703472
 21
932.5878640767186
 31
0.0
 70
    32
 71
     5
 42
2000.0
  3
25
100
AcDbAlignedDimension
 13
2341.606826703472
 23
1476.337864076718
 33
0.0
 14
4341.606826703471
 24
1476.337864076718
 34
0.0
100
AcDbRotatedDimension
  0
LINE
  5
232
330
21
100
AcDbEntity
  8
実線
100
AcDbLine
 10
2341.606826703472
 20
2466.337864076719
 30
0.0
 11
4341.606826703471
 21
2466.337864076719
 31
0.0
  0
LINE
  5
233
330
21
100
AcDbEntity
  8
実線
100
AcDbLine
 10
2341.606826703472
 20
2421.337864076719
 30
0.0
 11
4341.606826703471
 21
2421.337864076719
 31
0.0
  0
LINE
  5
234
330
21
100
AcDbEntity
  8
実線
100
AcDbLine
 10
2341.606826703472
 20
2296.337864076718
 30
0.0
 11
4341.606826703471
 21
2296.337864076718
 31
0.0
  0
DIMENSION
  5
235
330
21
100
AcDbEntity
  8
寸法
100
AcDbDimension
  2
*D44
 10
4341.606826703471
 20
4600.000265076713
 30
0.0
 11
3341.606826703472
 21
4656.250265076713
 31
0.0
 70
    32
 71
     5
 42
2000.0
  3
25
100
AcDbAlignedDimension
 13
2341.606826703472
 23
5200.000265076713
 33
0.0
 14
4341.606826703471
 24
5200.000265076713
 34
0.0
100
AcDbRotatedDimension
  0
DIMENSION
  5
236
330
21
100
AcDbEntity
  8
寸法
100
AcDbDimension
  2
*D45
 10
7688.365839703475
 20
4600.000265076713
 30
0.0
 11
7153.365839703474
 21
4656.250265076713
 31
0.0
 70
    32
 71
     5
 42
1070.0
  3
25
100
AcDbAlignedDimension
 13
6618.365839703475
 23
5200.000265076713
 33
0.0
 14
7688.365839703475
 24
5200.000265076713
 34
0.0
100
AcDbRotatedDimension
  0
LWPOLYLINE
  5
237
330
21
100
AcDbEntity
  8
DEFPOINTS
100
AcDbPolyline
 90
        4
 70
     1
 43
0.0
 10
-0.0006912965327501
 20
0.0002650767128216
 10
12449.99930870346
 20
0.0002650767128216
 10
12449.99930870346
 20
8760.000265076712
 10
-0.0006912965327501
 20
8760.000265076712
  0
ENDSEC
  0
SECTION
  2
OBJECTS
  0
DICTIONARY
  5
C
330
0
100
AcDbDictionary
281
     1
  3
ACAD_COLOR
350
1C
  3
ACAD_GROUP
350
D
  3
ACAD_LAYOUT
350
1A
  3
ACAD_MATERIAL
350
1B
  3
ACAD_MLINESTYLE
350
17
  3
ACAD_PLOTSETTINGS
350
19
  3
ACAD_PLOTSTYLENAME
350
E
  0
DICTIONARY
  5
1C
102
{ACAD_REACTORS
330
C
102
}
330
C
100
AcDbDictionary
281
     1
  0
DICTIONARY
  5
D
102
{ACAD_REACTORS
330
C
102
}
330
C
100
AcDbDictionary
281
     1
  0
DICTIONARY
  5
1A
102
{ACAD_REACTORS
330
C
102
}
330
C
100
AcDbDictionary
281
     1
  3
Model
350
24
  3
レイアウト1
350
20
  3
レイアウト2
350
28
  0
DICTIONARY
  5
1B
102
{ACAD_REACTORS
330
C
102
}
330
C
100
AcDbDictionary
281
     1
  0
DICTIONARY
  5
17
102
{ACAD_REACTORS
330
C
102
}
330
C
100
AcDbDictionary
281
     1
  3
Standard
350
18
  0
DICTIONARY
  5
19
102
{ACAD_REACTORS
330
C
102
}
330
C
100
AcDbDictionary
281
     1
  0
ACDBDICTIONARYWDFLT
  5
E
102
{ACAD_REACTORS
330
C
102
}
330
C
100
AcDbDictionary
281
     1
  3
Normal
350
F
100
AcDbDictionaryWithDefault
340
F
  0
LAYOUT
  5
24
102
{ACAD_REACTORS
330
1A
102
}
330
1A
100
AcDbPlotSettings
  1

  2
Microsoft XPS Document Writer
  4

  6

 40
0.0
 41
0.0
 42
0.0
 43
0.0
 44
0.0
 45
0.0
 46
0.0
 47
0.0
 48
0.0
 49
0.0
140
0.0
141
0.0
142
1.0
143
1.0
 70
  1712
 72
     0
 73
     0
 74
     0
  7

 75
     0
147
1.0
 76
     0
 77
     2
 78
   300
148
0.0
149
0.0
100
AcDbLayout
  1
Model
 70
     1
 71
     0
 10
0.0
 20
0.0
 11
12.0
 21
9.0
 12
0.0
 22
0.0
 32
0.0
 14
0.0
 24
0.0
 34
0.0
 15
0.0
 25
0.0
 35
0.0
146
0.0
 13
0.0
 23
0.0
 33
0.0
 16
1.0
 26
0.0
 36
0.0
 17
0.0
 27
1.0
 37
0.0
 76
     0
330
21
  0
LAYOUT
  5
20
102
{ACAD_REACTORS
330
1A
102
}
330
1A
100
AcDbPlotSettings
  1

  2
Microsoft XPS Document Writer
  4

  6

 40
0.0
 41
0.0
 42
0.0
 43
0.0
 44
0.0
 45
0.0
 46
0.0
 47
0.0
 48
0.0
 49
0.0
140
0.0
141
0.0
142
1.0
143
1.0
 70
   688
 72
     0
 73
     0
 74
     5
  7

 75
    16
147
1.0
 76
     0
 77
     2
 78
   300
148
0.0
149
0.0
100
AcDbLayout
  1
レイアウト1
 70
     1
 71
     1
 10
0.0
 20
0.0
 11
420.0
 21
297.0
 12
0.0
 22
0.0
 32
0.0
 14
1.000000000000000E+20
 24
1.000000000000000E+20
 34
1.000000000000000E+20
 15
-1.000000000000000E+20
 25
-1.000000000000000E+20
 35
-1.000000000000000E+20
146
0.0
 13
0.0
 23
0.0
 33
0.0
 16
1.0
 26
0.0
 36
0.0
 17
0.0
 27
1.0
 37
0.0
 76
     0
330
1D
  0
LAYOUT
  5
28
102
{ACAD_REACTORS
330
1A
102
}
330
1A
100
AcDbPlotSettings
  1

  2
Microsoft XPS Document Writer
  4

  6

 40
0.0
 41
0.0
 42
0.0
 43
0.0
 44
0.0
 45
0.0
 46
0.0
 47
0.0
 48
0.0
 49
0.0
140
0.0
141
0.0
142
1.0
143
1.0
 70
   688
 72
     0
 73
     0
 74
     5
  7

 75
    16
147
1.0
 76
     0
 77
     2
 78
   300
148
0.0
149
0.0
100
AcDbLayout
  1
レイアウト2
 70
     1
 71
     2
 10
0.0
 20
0.0
 11
12.0
 21
9.0
 12
0.0
 22
0.0
 32
0.0
 14
0.0
 24
0.0
 34
0.0
 15
0.0
 25
0.0
 35
0.0
146
0.0
 13
0.0
 23
0.0
 33
0.0
 16
1.0
 26
0.0
 36
0.0
 17
0.0
 27
1.0
 37
0.0
 76
     0
330
25
  0
MLINESTYLE
  5
18
102
{ACAD_REACTORS
330
17
102
}
330
17
100
AcDbMlineStyle
  2
STANDARD
 70
     0
  3

 62
   256
 51
90.0
 52
90.0
 71
     2
 49
0.5
 62
   256
  6
BYLAYER
 49
-0.5
 62
   256
  6
BYLAYER
  0
ACDBPLACEHOLDER
  5
F
102
{ACAD_REACTORS
330
E
102
}
330
E
  0
ENDSEC
  0
EOF
