  0
SECTION
  2
HEADER
  9
$ACADVER
  1
AC1015
  9
$ACADMAINTVER
 70
    20
  9
$DWGCODEPAGE
  3
ANSI_932
  9
$INSBASE
 10
0.0
 20
0.0
 30
0.0
  9
$EXTMIN
 10
236.1790828514736
 20
-12786.21847491633
 30
0.0
  9
$EXTMAX
 10
22664.02408948061
 20
10945.0
 30
0.0
  9
$LIMMIN
 10
0.0
 20
0.0
  9
$LIMMAX
 10
8820.0
 20
6237.0
  9
$ORTHOMODE
 70
     1
  9
$REGENMODE
 70
     1
  9
$FILLMODE
 70
     1
  9
$QTEXTMODE
 70
     0
  9
$MIRRTEXT
 70
     1
  9
$LTSCALE
 40
5.25
  9
$ATTMODE
 70
     1
  9
$TEXTSIZE
 40
0.0
  9
$TRACEWID
 40
0.05
  9
$TEXTSTYLE
  7
Standard
  9
$CLAYER
  8
0
  9
$CELTYPE
  6
Continuous
  9
$CECOLOR
 62
   256
  9
$CELTSCALE
 40
1.0
  9
$DISPSILH
 70
     0
  9
$DIMSCALE
 40
21.0
  9
$DIMASZ
 40
4.0
  9
$DIMEXO
 40
2.0
  9
$DIMDLI
 40
10.0
  9
$DIMRND
 40
0.0
  9
$DIMDLE
 40
0.0
  9
$DIMEXE
 40
2.0
  9
$DIMTP
 40
0.0
  9
$DIMTM
 40
0.0
  9
$DIMTXT
 40
4.0
  9
$DIMCEN
 40
0.09
  9
$DIMTSZ
 40
0.0
  9
$DIMTOL
 70
     0
  9
$DIMLIM
 70
     0
  9
$DIMTIH
 70
     0
  9
$DIMTOH
 70
     0
  9
$DIMSE1
 70
     0
  9
$DIMSE2
 70
     0
  9
$DIMTAD
 70
     3
  9
$DIMZIN
 70
     0
  9
$DIMBLK
  1

  9
$DIMASO
 70
     1
  9
$DIMSHO
 70
     1
  9
$DIMPOST
  1

  9
$DIMAPOST
  1

  9
$DIMALT
 70
     0
  9
$DIMALTD
 70
     2
  9
$DIMALTF
 40
25.4
  9
$DIMLFAC
 40
1.0
  9
$DIMTOFL
 70
     1
  9
$DIMTVP
 40
0.7
  9
$DIMTIX
 70
     0
  9
$DIMSOXD
 70
     0
  9
$DIMSAH
 70
     0
  9
$DIMBLK1
  1

  9
$DIMBLK2
  1

  9
$DIMSTYLE
  2
Standard
  9
$DIMCLRD
 70
     0
  9
$DIMCLRE
 70
     0
  9
$DIMCLRT
 70
     0
  9
$DIMTFAC
 40
0.5
  9
$DIMGAP
 40
0.0
  9
$DIMJUST
 70
     0
  9
$DIMSD1
 70
     0
  9
$DIMSD2
 70
     0
  9
$DIMTOLJ
 70
     1
  9
$DIMTZIN
 70
     0
  9
$DIMALTZ
 70
     0
  9
$DIMALTTZ
 70
     0
  9
$DIMUPT
 70
     0
  9
$DIMDEC
 70
     2
  9
$DIMTDEC
 70
     4
  9
$DIMALTU
 70
     2
  9
$DIMALTTD
 70
     2
  9
$DIMTXSTY
  7
Standard
  9
$DIMAUNIT
 70
     0
  9
$DIMADEC
 70
     0
  9
$DIMALTRND
 40
0.0
  9
$DIMAZIN
 70
     0
  9
$DIMDSEP
 70
     0
  9
$DIMATFIT
 70
     3
  9
$DIMFRAC
 70
     0
  9
$DIMLDRBLK
  1

  9
$DIMLUNIT
 70
     2
  9
$DIMLWD
 70
     0
  9
$DIMLWE
 70
     0
  9
$DIMTMOVE
 70
     0
  9
$LUNITS
 70
     2
  9
$LUPREC
 70
     4
  9
$SKETCHINC
 40
0.1
  9
$FILLETRAD
 40
0.0
  9
$AUNITS
 70
     0
  9
$AUPREC
 70
     0
  9
$MENU
  1
acad
  9
$ELEVATION
 40
0.0
  9
$PELEVATION
 40
0.0
  9
$THICKNESS
 40
0.0
  9
$LIMCHECK
 70
     0
  9
$CHAMFERA
 40
0.0
  9
$CHAMFERB
 40
0.0
  9
$CHAMFERC
 40
0.0
  9
$CHAMFERD
 40
0.0
  9
$SKPOLY
 70
     0
  9
$TDCREATE
 40
2457339.006076389
  9
$TDUCREATE
 40
2457338.631076389
  9
$TDUPDATE
 40
2457338.633727628
  9
$TDUUPDATE
 40
2457338.258727627
  9
$TDINDWG
 40
0.0025193981
  9
$TDUSRTIMER
 40
0.0025193981
  9
$USRTIMER
 70
     1
  9
$ANGBASE
 50
0.0
  9
$ANGDIR
 70
     0
  9
$PDMODE
 70
     0
  9
$PDSIZE
 40
0.0
  9
$PLINEWID
 40
0.0
  9
$SPLFRAME
 70
     0
  9
$SPLINETYPE
 70
     6
  9
$SPLINESEGS
 70
     8
  9
$HANDSEED
  5
2579
  9
$SURFTAB1
 70
     6
  9
$SURFTAB2
 70
     6
  9
$SURFTYPE
 70
     6
  9
$SURFU
 70
     6
  9
$SURFV
 70
     6
  9
$UCSBASE
  2

  9
$UCSNAME
  2

  9
$UCSORG
 10
0.0
 20
0.0
 30
0.0
  9
$UCSXDIR
 10
1.0
 20
0.0
 30
0.0
  9
$UCSYDIR
 10
0.0
 20
1.0
 30
0.0
  9
$UCSORTHOREF
  2

  9
$UCSORTHOVIEW
 70
     0
  9
$UCSORGTOP
 10
0.0
 20
0.0
 30
0.0
  9
$UCSORGBOTTOM
 10
0.0
 20
0.0
 30
0.0
  9
$UCSORGLEFT
 10
0.0
 20
0.0
 30
0.0
  9
$UCSORGRIGHT
 10
0.0
 20
0.0
 30
0.0
  9
$UCSORGFRONT
 10
0.0
 20
0.0
 30
0.0
  9
$UCSORGBACK
 10
0.0
 20
0.0
 30
0.0
  9
$PUCSBASE
  2

  9
$PUCSNAME
  2

  9
$PUCSORG
 10
0.0
 20
0.0
 30
0.0
  9
$PUCSXDIR
 10
1.0
 20
0.0
 30
0.0
  9
$PUCSYDIR
 10
0.0
 20
1.0
 30
0.0
  9
$PUCSORTHOREF
  2

  9
$PUCSORTHOVIEW
 70
     0
  9
$PUCSORGTOP
 10
0.0
 20
0.0
 30
0.0
  9
$PUCSORGBOTTOM
 10
0.0
 20
0.0
 30
0.0
  9
$PUCSORGLEFT
 10
0.0
 20
0.0
 30
0.0
  9
$PUCSORGRIGHT
 10
0.0
 20
0.0
 30
0.0
  9
$PUCSORGFRONT
 10
0.0
 20
0.0
 30
0.0
  9
$PUCSORGBACK
 10
0.0
 20
0.0
 30
0.0
  9
$USERI1
 70
     0
  9
$USERI2
 70
     0
  9
$USERI3
 70
     0
  9
$USERI4
 70
     0
  9
$USERI5
 70
     0
  9
$USERR1
 40
0.0
  9
$USERR2
 40
0.0
  9
$USERR3
 40
0.0
  9
$USERR4
 40
0.0
  9
$USERR5
 40
0.0
  9
$WORLDVIEW
 70
     1
  9
$SHADEDGE
 70
     3
  9
$SHADEDIF
 70
    70
  9
$TILEMODE
 70
     1
  9
$MAXACTVP
 70
    16
  9
$PINSBASE
 10
0.0
 20
0.0
 30
0.0
  9
$PLIMCHECK
 70
     0
  9
$PEXTMIN
 10
0.0
 20
0.0
 30
0.0
  9
$PEXTMAX
 10
420.0
 20
297.0
 30
0.0
  9
$PLIMMIN
 10
0.0
 20
0.0
  9
$PLIMMAX
 10
420.0
 20
297.0
  9
$UNITMODE
 70
     0
  9
$VISRETAIN
 70
     0
  9
$PLINEGEN
 70
     1
  9
$PSLTSCALE
 70
     0
  9
$TREEDEPTH
 70
  3020
  9
$CMLSTYLE
  2
Standard
  9
$CMLJUST
 70
     0
  9
$CMLSCALE
 40
1.0
  9
$PROXYGRAPHICS
 70
     0
  9
$MEASUREMENT
 70
     0
  9
$CELWEIGHT
370
     0
  9
$ENDCAPS
280
     0
  9
$JOINSTYLE
280
     0
  9
$LWDISPLAY
290
     0
  9
$INSUNITS
 70
     0
  9
$HYPERLINKBASE
  1

  9
$STYLESHEET
  1

  9
$XEDIT
290
     1
  9
$CEPSNTYPE
380
     0
  9
$PSTYLEMODE
290
     1
  9
$FINGERPRINTGUID
  2

  9
$VERSIONGUID
  2
{B91917D4-367D-4800-8F44-7491F9C97CAE}
  9
$EXTNAMES
290
     1
  9
$PSVPSCALE
 40
0.0
  9
$OLESTARTUP
290
     0
  0
ENDSEC
  0
SECTION
  2
CLASSES
  0
CLASS
  1
IMAGE
  2
AcDbRasterImage
  3
ISM
 90
    32895
280
     0
281
     1
  0
CLASS
  1
DICTIONARYVAR
  2
AcDbDictionaryVar
  3
ObjectDBX Classes
 90
        0
280
     0
281
     0
  0
CLASS
  1
RASTERVARIABLES
  2
AcDbRasterVariables
  3
ISM
 90
    32768
280
     0
281
     0
  0
CLASS
  1
IMAGEDEF
  2
AcDbRasterImageDef
  3
ISM
 90
    32768
280
     0
281
     0
  0
CLASS
  1
IMAGEDEF_REACTOR
  2
AcDbRasterImageDefReactor
  3
ISM
 90
    32769
280
     0
281
     0
  0
CLASS
  1
IDBUFFER
  2
AcDbIdBuffer
  3
ObjectDBX Classes
 90
    32768
280
     0
281
     0
  0
CLASS
  1
SPATIAL_FILTER
  2
AcDbSpatialFilter
  3
ObjectDBX Classes
 90
    32768
280
     0
281
     0
  0
CLASS
  1
SORTENTSTABLE
  2
AcDbSortentsTable
  3
ObjectDBX Classes
 90
    32768
280
     0
281
     0
  0
CLASS
  1
LAYER_INDEX
  2
AcDbLayerIndex
  3
ObjectDBX Classes
 90
    32768
280
     0
281
     0
  0
CLASS
  1
SPATIAL_INDEX
  2
AcDbSpatialIndex
  3
ObjectDBX Classes
 90
    32768
280
     0
281
     0
  0
CLASS
  1
OBJECT_PTR
  2
CAseDLPNTableRecord
  3
"ASE-LPNTableRecord"
 90
    32769
280
     0
281
     0
  0
CLASS
  1
LAYOUT
  2
AcDbLayout
  3
ObjectDBX Classes
 90
        0
280
     0
281
     0
  0
CLASS
  1
PLOTSETTINGS
  2
AcDbPlotSettings
  3
ObjectDBX Classes
 90
    32768
280
     0
281
     0
  0
CLASS
  1
ACDBDICTIONARYWDFLT
  2
AcDbDictionaryWithDefault
  3
ObjectDBX Classes
 90
        0
280
     0
281
     0
  0
CLASS
  1
ACDBPLACEHOLDER
  2
AcDbPlaceHolder
  3
ObjectDBX Classes
 90
        0
280
     0
281
     0
  0
CLASS
  1
VBA_PROJECT
  2
AcDbVbaProject
  3
acad
 90
    32768
280
     0
281
     0
  0
CLASS
  1
WIPEOUT
  2
AcDbWipeout
  3
"WipeOut|Product Desc: Object Enabler for WipeOut entity^I^I^I^I^I^I|Company: Autodesk, Inc.^I^I^I^I^I^I|WEB Address: www.autodesk.com"
 90
    32895
280
     0
281
     1
  0
CLASS
  1
WIPEOUTVARIABLES
  2
AcDbWipeoutVariables
  3
"WipeOut|Product Desc:     WipeOut Dbx Application|Company:          Autodesk, Inc.|WEB Address:      www.autodesk.com"
 90
        0
280
     0
281
     0
  0
CLASS
  1
RTEXT
  2
RText
  3
RText|AutoCAD Express Tool|expresstools@autodesk.com
 90
    32768
280
     0
281
     1
  0
CLASS
  1
ARCALIGNEDTEXT
  2
AcDbArcAlignedText
  3
ATEXT|AutoCAD Express Tool|expresstools@autodesk.com
 90
    32768
280
     0
281
     1
  0
ENDSEC
  0
SECTION
  2
TABLES
  0
TABLE
  2
VPORT
  5
7
330
0
100
AcDbSymbolTable
 70
     3
  0
VPORT
  5
2573
330
7
100
AcDbSymbolTableRecord
100
AcDbViewportTableRecord
  2
*Active
 70
     0
 10
0.0
 20
0.0
 11
1.0
 21
1.0
 12
4425.386641849953
 22
2907.050168799532
 13
0.0
 23
0.0
 14
1.0
 24
1.0
 15
0.0
 25
0.0
 16
0.0
 26
0.0
 36
1.0
 17
0.0
 27
0.0
 37
0.0
 40
6314.113010361743
 41
1.499378881987577
 42
50.0
 43
0.0
 44
0.0
 50
0.0
 51
0.0
 71
     0
 72
   100
 73
     1
 74
     1
 75
     0
 76
     0
 77
     0
 78
     0
281
     0
 65
     0
110
0.0
120
0.0
130
0.0
111
1.0
121
0.0
131
0.0
112
0.0
122
1.0
132
0.0
 79
     0
146
0.0
  0
ENDTAB
  0
TABLE
  2
LTYPE
  5
4
330
0
100
AcDbSymbolTable
 70
     7
  0
LTYPE
  5
11
330
4
100
AcDbSymbolTableRecord
100
AcDbLinetypeTableRecord
  2
ByBlock
 70
     0
  3

 72
    65
 73
     0
 40
0.0
  0
LTYPE
  5
12
330
4
100
AcDbSymbolTableRecord
100
AcDbLinetypeTableRecord
  2
ByLayer
 70
     0
  3

 72
    65
 73
     0
 40
0.0
  0
LTYPE
  5
13
330
4
100
AcDbSymbolTableRecord
100
AcDbLinetypeTableRecord
  2
Continuous
 70
     0
  3
Solid line
 72
    65
 73
     0
 40
0.0
  0
LTYPE
  5
24
330
4
100
AcDbSymbolTableRecord
100
AcDbLinetypeTableRecord
  2
HIDDEN
 70
     0
  3
- - - - - - - - 
 72
    65
 73
     2
 40
12.6
 49
8.4
 74
     0
 49
-4.2
 74
     0
  0
LTYPE
  5
25
330
4
100
AcDbSymbolTableRecord
100
AcDbLinetypeTableRecord
  2
DOT
 70
     0
  3
･ ･ ･ ･ ･ ･ ･ ･ 
 72
    65
 73
     2
 40
8.0
 49
6.0
 74
     0
 49
-2.0
 74
     0
  0
LTYPE
  5
26
330
4
100
AcDbSymbolTableRecord
100
AcDbLinetypeTableRecord
  2
CENTER
 70
     0
  3
- ･ - ･ - ･ - ･ 
 72
    65
 73
     4
 40
50.5
 49
30.0
 74
     0
 49
-9.0
 74
     0
 49
2.5
 74
     0
 49
-9.0
 74
     0
  0
LTYPE
  5
27
330
4
100
AcDbSymbolTableRecord
100
AcDbLinetypeTableRecord
  2
PHANTOM
 70
     0
  3
- ･･ - ･･ - ･･ - ･･ 
 72
    65
 73
     6
 40
58.0
 49
30.0
 74
     0
 49
-9.0
 74
     0
 49
2.5
 74
     0
 49
-5.0
 74
     0
 49
2.5
 74
     0
 49
-9.0
 74
     0
  0
LTYPE
  5
28
330
4
100
AcDbSymbolTableRecord
100
AcDbLinetypeTableRecord
  2
ACAD_ISO06W100
 70
     0
  3
____ ... ____ ... ____
 72
    65
 73
     8
 40
37.5
 49
24.0
 74
     0
 49
-3.0
 74
     0
 49
0.5
 74
     0
 49
-3.0
 74
     0
 49
0.5
 74
     0
 49
-3.0
 74
     0
 49
0.5
 74
     0
 49
-3.0
 74
     0
  0
LTYPE
  5
29
330
4
100
AcDbSymbolTableRecord
100
AcDbLinetypeTableRecord
  2
ACAD_ISO14W100
 70
     0
  3
__ . . . __ . . . __ . . . 
 72
    65
 73
     8
 40
25.5
 49
12.0
 74
     0
 49
-3.0
 74
     0
 49
0.5
 74
     0
 49
-3.0
 74
     0
 49
0.5
 74
     0
 49
-3.0
 74
     0
 49
0.5
 74
     0
 49
-3.0
 74
     0
  0
ENDTAB
  0
TABLE
  2
LAYER
  5
2
330
0
100
AcDbSymbolTable
 70
    31
  0
LAYER
  5
14
330
2
100
AcDbSymbolTableRecord
100
AcDbLayerTableRecord
  2
0
 70
     0
 62
     7
  6
Continuous
370
    -3
390
1D
  0
LAYER
  5
2A
330
2
100
AcDbSymbolTableRecord
100
AcDbLayerTableRecord
  2
1
 70
     0
 62
     7
  6
Continuous
370
    -3
390
1D
  0
LAYER
  5
2B
330
2
100
AcDbSymbolTableRecord
100
AcDbLayerTableRecord
  2
2
 70
     0
 62
   134
  6
Continuous
370
    -3
390
1D
  0
LAYER
  5
2C
330
2
100
AcDbSymbolTableRecord
100
AcDbLayerTableRecord
  2
3
 70
     0
 62
   214
  6
Continuous
370
    -3
390
1D
  0
LAYER
  5
2D
330
2
100
AcDbSymbolTableRecord
100
AcDbLayerTableRecord
  2
4
 70
     0
 62
    54
  6
Continuous
370
    -3
390
1D
  0
LAYER
  5
2E
330
2
100
AcDbSymbolTableRecord
100
AcDbLayerTableRecord
  2
5
 70
     0
 62
    94
  6
Continuous
370
    -3
390
1D
  0
LAYER
  5
2F
330
2
100
AcDbSymbolTableRecord
100
AcDbLayerTableRecord
  2
6
 70
     0
 62
    14
  6
Continuous
370
    -3
390
1D
  0
LAYER
  5
30
330
2
100
AcDbSymbolTableRecord
100
AcDbLayerTableRecord
  2
7
 70
     0
 62
     4
  6
Continuous
370
    -3
390
1D
  0
LAYER
  5
31
330
2
100
AcDbSymbolTableRecord
100
AcDbLayerTableRecord
  2
8
 70
     0
 62
     6
  6
Continuous
370
    -3
390
1D
  0
LAYER
  5
32
330
2
100
AcDbSymbolTableRecord
100
AcDbLayerTableRecord
  2
9
 70
     0
 62
     2
  6
Continuous
370
    -3
390
1D
  0
LAYER
  5
33
330
2
100
AcDbSymbolTableRecord
100
AcDbLayerTableRecord
  2
10
 70
     0
 62
     3
  6
Continuous
370
    -3
390
1D
  0
LAYER
  5
34
330
2
100
AcDbSymbolTableRecord
100
AcDbLayerTableRecord
  2
11
 70
     0
 62
   251
  6
Continuous
370
    -3
390
1D
  0
LAYER
  5
35
330
2
100
AcDbSymbolTableRecord
100
AcDbLayerTableRecord
  2
12
 70
     0
 62
   136
  6
Continuous
370
    -3
390
1D
  0
LAYER
  5
36
330
2
100
AcDbSymbolTableRecord
100
AcDbLayerTableRecord
  2
13
 70
     0
 62
   216
  6
Continuous
370
    -3
390
1D
  0
LAYER
  5
37
330
2
100
AcDbSymbolTableRecord
100
AcDbLayerTableRecord
  2
14
 70
     0
 62
    56
  6
Continuous
370
    -3
390
1D
  0
LAYER
  5
38
330
2
100
AcDbSymbolTableRecord
100
AcDbLayerTableRecord
  2
15
 70
     0
 62
    96
  6
Continuous
370
    -3
390
1D
  0
LAYER
  5
39
330
2
100
AcDbSymbolTableRecord
100
AcDbLayerTableRecord
  2
16
 70
     0
 62
    16
  6
Continuous
370
    -3
390
1D
  0
LAYER
  5
3A
330
2
100
AcDbSymbolTableRecord
100
AcDbLayerTableRecord
  2
17
 70
     0
 62
   132
  6
Continuous
370
    -3
390
1D
  0
LAYER
  5
3B
330
2
100
AcDbSymbolTableRecord
100
AcDbLayerTableRecord
  2
18
 70
     0
 62
   212
  6
Continuous
370
    -3
390
1D
  0
LAYER
  5
3C
330
2
100
AcDbSymbolTableRecord
100
AcDbLayerTableRecord
  2
19
 70
     0
 62
    52
  6
Continuous
370
    -3
390
1D
  0
LAYER
  5
3D
330
2
100
AcDbSymbolTableRecord
100
AcDbLayerTableRecord
  2
20
 70
     0
 62
   251
  6
Continuous
370
    -3
390
1D
  0
LAYER
  5
3E
330
2
100
AcDbSymbolTableRecord
100
AcDbLayerTableRecord
  2
21
 70
     0
 62
     7
  6
Continuous
370
    -3
390
1D
  0
LAYER
  5
3F
330
2
100
AcDbSymbolTableRecord
100
AcDbLayerTableRecord
  2
22
 70
     0
 62
     7
  6
Continuous
370
    -3
390
1D
  0
LAYER
  5
40
330
2
100
AcDbSymbolTableRecord
100
AcDbLayerTableRecord
  2
23
 70
     0
 62
     2
  6
Continuous
370
    -3
390
1D
  0
LAYER
  5
41
330
2
100
AcDbSymbolTableRecord
100
AcDbLayerTableRecord
  2
24
 70
     0
 62
     7
  6
Continuous
370
    -3
390
1D
  0
LAYER
  5
42
330
2
100
AcDbSymbolTableRecord
100
AcDbLayerTableRecord
  2
25
 70
     0
 62
     4
  6
Continuous
370
    -3
390
1D
  0
LAYER
  5
43
330
2
100
AcDbSymbolTableRecord
100
AcDbLayerTableRecord
  2
26
 70
     0
 62
     6
  6
Continuous
370
    -3
390
1D
  0
LAYER
  5
44
330
2
100
AcDbSymbolTableRecord
100
AcDbLayerTableRecord
  2
27
 70
     0
 62
     6
  6
Continuous
370
    -3
390
1D
  0
LAYER
  5
45
330
2
100
AcDbSymbolTableRecord
100
AcDbLayerTableRecord
  2
28
 70
     0
 62
     6
  6
Continuous
370
    -3
390
1D
  0
LAYER
  5
46
330
2
100
AcDbSymbolTableRecord
100
AcDbLayerTableRecord
  2
29
 70
     0
 62
     7
  6
Continuous
370
    -3
390
1D
  0
LAYER
  5
47
330
2
100
AcDbSymbolTableRecord
100
AcDbLayerTableRecord
  2
30
 70
     0
 62
     7
  6
Continuous
370
    -3
390
1D
  0
ENDTAB
  0
TABLE
  2
STYLE
  5
3
330
0
100
AcDbSymbolTable
 70
     1
  0
STYLE
  5
17
330
3
100
AcDbSymbolTableRecord
100
AcDbTextStyleTableRecord
  2
Standard
 70
     0
 40
0.0
 41
1.0
 50
0.0
 71
     0
 42
0.0
  3

  4

1001
ACAD
1000
MS Gothic
1071
    32817
  0
ENDTAB
  0
TABLE
  2
VIEW
  5
5
330
0
100
AcDbSymbolTable
 70
     0
  0
ENDTAB
  0
TABLE
  2
UCS
  5
6
330
0
100
AcDbSymbolTable
 70
     0
  0
ENDTAB
  0
TABLE
  2
APPID
  5
8
330
0
100
AcDbSymbolTable
 70
     1
  0
APPID
  5
16
330
8
100
AcDbSymbolTableRecord
100
AcDbRegAppTableRecord
  2
ACAD
 70
     0
  0
ENDTAB
  0
TABLE
  2
DIMSTYLE
  5
9
330
0
100
AcDbSymbolTable
 70
     1
100
AcDbDimStyleTable
 71
     0
  0
DIMSTYLE
105
18
330
9
100
AcDbSymbolTableRecord
100
AcDbDimStyleTableRecord
  2
Standard
 70
     0
289
     0
340
17
  0
ENDTAB
  0
TABLE
  2
BLOCK_RECORD
  5
1
330
0
100
AcDbSymbolTable
 70
   100
  0
BLOCK_RECORD
  5
A
330
1
100
AcDbSymbolTableRecord
100
AcDbBlockTableRecord
  2
*MODEL_SPACE
340
20
  0
BLOCK_RECORD
  5
B
330
1
100
AcDbSymbolTableRecord
100
AcDbBlockTableRecord
  2
*PAPER_SPACE
340
21
  0
BLOCK_RECORD
  5
48
330
1
100
AcDbSymbolTableRecord
100
AcDbBlockTableRecord
  2
*G0
340
0
102
{BLKREFS
331
4B
102
}
  0
BLOCK_RECORD
  5
19E
330
1
100
AcDbSymbolTableRecord
100
AcDbBlockTableRecord
  2
*D1
340
0
  0
BLOCK_RECORD
  5
1AA
330
1
100
AcDbSymbolTableRecord
100
AcDbBlockTableRecord
  2
*D2
340
0
  0
BLOCK_RECORD
  5
1B6
330
1
100
AcDbSymbolTableRecord
100
AcDbBlockTableRecord
  2
*D3
340
0
  0
BLOCK_RECORD
  5
1C2
330
1
100
AcDbSymbolTableRecord
100
AcDbBlockTableRecord
  2
*D4
340
0
  0
BLOCK_RECORD
  5
1CE
330
1
100
AcDbSymbolTableRecord
100
AcDbBlockTableRecord
  2
*D5
340
0
  0
BLOCK_RECORD
  5
1DA
330
1
100
AcDbSymbolTableRecord
100
AcDbBlockTableRecord
  2
*D6
340
0
  0
BLOCK_RECORD
  5
437
330
1
100
AcDbSymbolTableRecord
100
AcDbBlockTableRecord
  2
*D7
340
0
  0
BLOCK_RECORD
  5
443
330
1
100
AcDbSymbolTableRecord
100
AcDbBlockTableRecord
  2
*D8
340
0
  0
BLOCK_RECORD
  5
44F
330
1
100
AcDbSymbolTableRecord
100
AcDbBlockTableRecord
  2
*D9
340
0
  0
BLOCK_RECORD
  5
90E
330
1
100
AcDbSymbolTableRecord
100
AcDbBlockTableRecord
  2
*D10
340
0
  0
BLOCK_RECORD
  5
91A
330
1
100
AcDbSymbolTableRecord
100
AcDbBlockTableRecord
  2
*D11
340
0
  0
BLOCK_RECORD
  5
926
330
1
100
AcDbSymbolTableRecord
100
AcDbBlockTableRecord
  2
*D12
340
0
  0
BLOCK_RECORD
  5
932
330
1
100
AcDbSymbolTableRecord
100
AcDbBlockTableRecord
  2
*D13
340
0
  0
BLOCK_RECORD
  5
93E
330
1
100
AcDbSymbolTableRecord
100
AcDbBlockTableRecord
  2
*D14
340
0
  0
BLOCK_RECORD
  5
94A
330
1
100
AcDbSymbolTableRecord
100
AcDbBlockTableRecord
  2
*D15
340
0
  0
BLOCK_RECORD
  5
956
330
1
100
AcDbSymbolTableRecord
100
AcDbBlockTableRecord
  2
*D16
340
0
  0
BLOCK_RECORD
  5
962
330
1
100
AcDbSymbolTableRecord
100
AcDbBlockTableRecord
  2
*D17
340
0
  0
BLOCK_RECORD
  5
96E
330
1
100
AcDbSymbolTableRecord
100
AcDbBlockTableRecord
  2
*D18
340
0
  0
BLOCK_RECORD
  5
97A
330
1
100
AcDbSymbolTableRecord
100
AcDbBlockTableRecord
  2
*D19
340
0
  0
BLOCK_RECORD
  5
986
330
1
100
AcDbSymbolTableRecord
100
AcDbBlockTableRecord
  2
*D20
340
0
  0
BLOCK_RECORD
  5
992
330
1
100
AcDbSymbolTableRecord
100
AcDbBlockTableRecord
  2
*D21
340
0
  0
BLOCK_RECORD
  5
99E
330
1
100
AcDbSymbolTableRecord
100
AcDbBlockTableRecord
  2
*D22
340
0
  0
BLOCK_RECORD
  5
9AA
330
1
100
AcDbSymbolTableRecord
100
AcDbBlockTableRecord
  2
*D23
340
0
  0
BLOCK_RECORD
  5
9B6
330
1
100
AcDbSymbolTableRecord
100
AcDbBlockTableRecord
  2
*D24
340
0
  0
BLOCK_RECORD
  5
9C2
330
1
100
AcDbSymbolTableRecord
100
AcDbBlockTableRecord
  2
*D25
340
0
  0
BLOCK_RECORD
  5
9CE
330
1
100
AcDbSymbolTableRecord
100
AcDbBlockTableRecord
  2
*D26
340
0
  0
BLOCK_RECORD
  5
9DA
330
1
100
AcDbSymbolTableRecord
100
AcDbBlockTableRecord
  2
*D27
340
0
  0
BLOCK_RECORD
  5
9E6
330
1
100
AcDbSymbolTableRecord
100
AcDbBlockTableRecord
  2
*D28
340
0
  0
BLOCK_RECORD
  5
9F2
330
1
100
AcDbSymbolTableRecord
100
AcDbBlockTableRecord
  2
*D29
340
0
  0
BLOCK_RECORD
  5
9FE
330
1
100
AcDbSymbolTableRecord
100
AcDbBlockTableRecord
  2
*D30
340
0
  0
BLOCK_RECORD
  5
A0A
330
1
100
AcDbSymbolTableRecord
100
AcDbBlockTableRecord
  2
*D31
340
0
  0
BLOCK_RECORD
  5
A16
330
1
100
AcDbSymbolTableRecord
100
AcDbBlockTableRecord
  2
*D32
340
0
  0
BLOCK_RECORD
  5
A22
330
1
100
AcDbSymbolTableRecord
100
AcDbBlockTableRecord
  2
*D33
340
0
  0
BLOCK_RECORD
  5
A2E
330
1
100
AcDbSymbolTableRecord
100
AcDbBlockTableRecord
  2
*D34
340
0
  0
BLOCK_RECORD
  5
A3A
330
1
100
AcDbSymbolTableRecord
100
AcDbBlockTableRecord
  2
*D35
340
0
  0
BLOCK_RECORD
  5
A46
330
1
100
AcDbSymbolTableRecord
100
AcDbBlockTableRecord
  2
*D36
340
0
  0
BLOCK_RECORD
  5
A52
330
1
100
AcDbSymbolTableRecord
100
AcDbBlockTableRecord
  2
*D37
340
0
  0
BLOCK_RECORD
  5
A5E
330
1
100
AcDbSymbolTableRecord
100
AcDbBlockTableRecord
  2
*D38
340
0
  0
BLOCK_RECORD
  5
A6A
330
1
100
AcDbSymbolTableRecord
100
AcDbBlockTableRecord
  2
*D39
340
0
  0
BLOCK_RECORD
  5
A76
330
1
100
AcDbSymbolTableRecord
100
AcDbBlockTableRecord
  2
*D40
340
0
  0
BLOCK_RECORD
  5
A82
330
1
100
AcDbSymbolTableRecord
100
AcDbBlockTableRecord
  2
*D41
340
0
  0
BLOCK_RECORD
  5
A8E
330
1
100
AcDbSymbolTableRecord
100
AcDbBlockTableRecord
  2
*D42
340
0
  0
BLOCK_RECORD
  5
A9A
330
1
100
AcDbSymbolTableRecord
100
AcDbBlockTableRecord
  2
*D43
340
0
  0
BLOCK_RECORD
  5
AA6
330
1
100
AcDbSymbolTableRecord
100
AcDbBlockTableRecord
  2
*D44
340
0
  0
BLOCK_RECORD
  5
11DC
330
1
100
AcDbSymbolTableRecord
100
AcDbBlockTableRecord
  2
*D45
340
0
  0
BLOCK_RECORD
  5
11E8
330
1
100
AcDbSymbolTableRecord
100
AcDbBlockTableRecord
  2
*D46
340
0
  0
BLOCK_RECORD
  5
11F4
330
1
100
AcDbSymbolTableRecord
100
AcDbBlockTableRecord
  2
*D47
340
0
  0
BLOCK_RECORD
  5
1200
330
1
100
AcDbSymbolTableRecord
100
AcDbBlockTableRecord
  2
*D48
340
0
  0
BLOCK_RECORD
  5
120C
330
1
100
AcDbSymbolTableRecord
100
AcDbBlockTableRecord
  2
*D49
340
0
  0
BLOCK_RECORD
  5
1218
330
1
100
AcDbSymbolTableRecord
100
AcDbBlockTableRecord
  2
*D50
340
0
  0
BLOCK_RECORD
  5
1224
330
1
100
AcDbSymbolTableRecord
100
AcDbBlockTableRecord
  2
*D51
340
0
  0
BLOCK_RECORD
  5
1230
330
1
100
AcDbSymbolTableRecord
100
AcDbBlockTableRecord
  2
*D52
340
0
  0
BLOCK_RECORD
  5
123C
330
1
100
AcDbSymbolTableRecord
100
AcDbBlockTableRecord
  2
*D53
340
0
  0
BLOCK_RECORD
  5
1248
330
1
100
AcDbSymbolTableRecord
100
AcDbBlockTableRecord
  2
*D54
340
0
  0
BLOCK_RECORD
  5
1254
330
1
100
AcDbSymbolTableRecord
100
AcDbBlockTableRecord
  2
*D55
340
0
  0
BLOCK_RECORD
  5
1260
330
1
100
AcDbSymbolTableRecord
100
AcDbBlockTableRecord
  2
*D56
340
0
  0
BLOCK_RECORD
  5
126C
330
1
100
AcDbSymbolTableRecord
100
AcDbBlockTableRecord
  2
*D57
340
0
  0
BLOCK_RECORD
  5
1278
330
1
100
AcDbSymbolTableRecord
100
AcDbBlockTableRecord
  2
*D58
340
0
  0
BLOCK_RECORD
  5
1284
330
1
100
AcDbSymbolTableRecord
100
AcDbBlockTableRecord
  2
*D59
340
0
  0
BLOCK_RECORD
  5
128F
330
1
100
AcDbSymbolTableRecord
100
AcDbBlockTableRecord
  2
*D60
340
0
  0
BLOCK_RECORD
  5
129B
330
1
100
AcDbSymbolTableRecord
100
AcDbBlockTableRecord
  2
*D61
340
0
  0
BLOCK_RECORD
  5
12A7
330
1
100
AcDbSymbolTableRecord
100
AcDbBlockTableRecord
  2
*D62
340
0
  0
BLOCK_RECORD
  5
12B3
330
1
100
AcDbSymbolTableRecord
100
AcDbBlockTableRecord
  2
*D63
340
0
  0
BLOCK_RECORD
  5
12BF
330
1
100
AcDbSymbolTableRecord
100
AcDbBlockTableRecord
  2
*D64
340
0
  0
BLOCK_RECORD
  5
12CB
330
1
100
AcDbSymbolTableRecord
100
AcDbBlockTableRecord
  2
*D65
340
0
  0
BLOCK_RECORD
  5
12D7
330
1
100
AcDbSymbolTableRecord
100
AcDbBlockTableRecord
  2
*D66
340
0
  0
BLOCK_RECORD
  5
12E3
330
1
100
AcDbSymbolTableRecord
100
AcDbBlockTableRecord
  2
*D67
340
0
  0
BLOCK_RECORD
  5
12EF
330
1
100
AcDbSymbolTableRecord
100
AcDbBlockTableRecord
  2
*D68
340
0
  0
BLOCK_RECORD
  5
12FB
330
1
100
AcDbSymbolTableRecord
100
AcDbBlockTableRecord
  2
*D69
340
0
  0
BLOCK_RECORD
  5
1307
330
1
100
AcDbSymbolTableRecord
100
AcDbBlockTableRecord
  2
*D70
340
0
  0
BLOCK_RECORD
  5
1313
330
1
100
AcDbSymbolTableRecord
100
AcDbBlockTableRecord
  2
*D71
340
0
  0
BLOCK_RECORD
  5
131F
330
1
100
AcDbSymbolTableRecord
100
AcDbBlockTableRecord
  2
*D72
340
0
  0
BLOCK_RECORD
  5
132B
330
1
100
AcDbSymbolTableRecord
100
AcDbBlockTableRecord
  2
*D73
340
0
  0
BLOCK_RECORD
  5
1337
330
1
100
AcDbSymbolTableRecord
100
AcDbBlockTableRecord
  2
*D74
340
0
  0
BLOCK_RECORD
  5
1343
330
1
100
AcDbSymbolTableRecord
100
AcDbBlockTableRecord
  2
*D75
340
0
  0
BLOCK_RECORD
  5
134F
330
1
100
AcDbSymbolTableRecord
100
AcDbBlockTableRecord
  2
*D76
340
0
  0
BLOCK_RECORD
  5
135B
330
1
100
AcDbSymbolTableRecord
100
AcDbBlockTableRecord
  2
*G77
340
0
102
{BLKREFS
331
1362
102
}
  0
BLOCK_RECORD
  5
140D
330
1
100
AcDbSymbolTableRecord
100
AcDbBlockTableRecord
  2
*G78
340
0
  0
BLOCK_RECORD
  5
1432
330
1
100
AcDbSymbolTableRecord
100
AcDbBlockTableRecord
  2
*G79
340
0
  0
BLOCK_RECORD
  5
143C
330
1
100
AcDbSymbolTableRecord
100
AcDbBlockTableRecord
  2
*G80
340
0
  0
BLOCK_RECORD
  5
2013
330
1
100
AcDbSymbolTableRecord
100
AcDbBlockTableRecord
  2
*D81
340
0
  0
BLOCK_RECORD
  5
201F
330
1
100
AcDbSymbolTableRecord
100
AcDbBlockTableRecord
  2
*D82
340
0
  0
BLOCK_RECORD
  5
202B
330
1
100
AcDbSymbolTableRecord
100
AcDbBlockTableRecord
  2
*D83
340
0
  0
BLOCK_RECORD
  5
2037
330
1
100
AcDbSymbolTableRecord
100
AcDbBlockTableRecord
  2
*D84
340
0
  0
BLOCK_RECORD
  5
2043
330
1
100
AcDbSymbolTableRecord
100
AcDbBlockTableRecord
  2
*D85
340
0
  0
BLOCK_RECORD
  5
204F
330
1
100
AcDbSymbolTableRecord
100
AcDbBlockTableRecord
  2
*D86
340
0
  0
BLOCK_RECORD
  5
205B
330
1
100
AcDbSymbolTableRecord
100
AcDbBlockTableRecord
  2
*D87
340
0
  0
BLOCK_RECORD
  5
2067
330
1
100
AcDbSymbolTableRecord
100
AcDbBlockTableRecord
  2
*D88
340
0
  0
BLOCK_RECORD
  5
2073
330
1
100
AcDbSymbolTableRecord
100
AcDbBlockTableRecord
  2
*D89
340
0
  0
BLOCK_RECORD
  5
207F
330
1
100
AcDbSymbolTableRecord
100
AcDbBlockTableRecord
  2
*D90
340
0
  0
BLOCK_RECORD
  5
208B
330
1
100
AcDbSymbolTableRecord
100
AcDbBlockTableRecord
  2
*D91
340
0
  0
BLOCK_RECORD
  5
2097
330
1
100
AcDbSymbolTableRecord
100
AcDbBlockTableRecord
  2
*D92
340
0
  0
BLOCK_RECORD
  5
20A3
330
1
100
AcDbSymbolTableRecord
100
AcDbBlockTableRecord
  2
*D93
340
0
  0
BLOCK_RECORD
  5
20AF
330
1
100
AcDbSymbolTableRecord
100
AcDbBlockTableRecord
  2
*D94
340
0
  0
BLOCK_RECORD
  5
20BB
330
1
100
AcDbSymbolTableRecord
100
AcDbBlockTableRecord
  2
*D95
340
0
  0
BLOCK_RECORD
  5
20D2
330
1
100
AcDbSymbolTableRecord
100
AcDbBlockTableRecord
  2
*D96
340
0
  0
BLOCK_RECORD
  5
20DE
330
1
100
AcDbSymbolTableRecord
100
AcDbBlockTableRecord
  2
*D97
340
0
  0
BLOCK_RECORD
  5
20FA
330
1
100
AcDbSymbolTableRecord
100
AcDbBlockTableRecord
  2
*D98
340
0
  0
BLOCK_RECORD
  5
2106
330
1
100
AcDbSymbolTableRecord
100
AcDbBlockTableRecord
  2
*D99
340
0
  0
ENDTAB
  0
ENDSEC
  0
SECTION
  2
BLOCKS
  0
BLOCK
  5
D
330
A
100
AcDbEntity
  8
0
100
AcDbBlockBegin
  2
*MODEL_SPACE
 70
     0
 10
0.0
 20
0.0
 30
0.0
  3
*MODEL_SPACE
  1

  0
ENDBLK
  5
E
330
A
100
AcDbEntity
  8
0
100
AcDbBlockEnd
  0
BLOCK
  5
F
330
B
100
AcDbEntity
 67
     1
  8
0
100
AcDbBlockBegin
  2
*PAPER_SPACE
 70
     0
 10
0.0
 20
0.0
 30
0.0
  3
*PAPER_SPACE
  1

  0
ENDBLK
  5
10
330
B
100
AcDbEntity
 67
     1
  8
0
100
AcDbBlockEnd
  0
BLOCK
  5
49
330
48
100
AcDbEntity
  8
0
 62
     7
100
AcDbBlockBegin
  2
*G0
 70
     0
 10
0.0
 20
0.0
 30
0.0
  3
*G0
  1

  0
ENDBLK
  5
4A
330
48
100
AcDbEntity
  8
0
100
AcDbBlockEnd
  0
BLOCK
  5
19F
330
19E
100
AcDbEntity
  8
1
  6
Continuous
 62
     7
370
    18
100
AcDbBlockBegin
  2
*D1
 70
     0
 10
0.0
 20
0.0
 30
0.0
  3
*D1
  1

  0
LINE
  5
1A0
330
19E
100
AcDbEntity
  8
1
  6
Continuous
 62
     7
370
    18
100
AcDbLine
 10
15288.73307325107
 20
1359.999999999998
 30
0.0
 11
15288.73307325107
 21
1159.999999999998
 31
0.0
  0
LINE
  5
1A1
330
19E
100
AcDbEntity
  8
1
  6
Continuous
 62
     7
370
    18
100
AcDbLine
 10
15274.03307325107
 20
1359.999999999998
 30
0.0
 11
15399.50884016649
 21
1359.999999999998
 31
0.0
  0
LINE
  5
1A2
330
19E
100
AcDbEntity
  8
1
  6
Continuous
 62
     7
370
    18
100
AcDbLine
 10
15274.03307325107
 20
1159.999999999998
 30
0.0
 11
15597.24969296934
 21
1159.999999999998
 31
0.0
  0
LINE
  5
1A3
330
19E
100
AcDbEntity
  8
1
  6
Continuous
 62
     7
370
    18
100
AcDbLine
 10
15288.73307325107
 20
1359.999999999998
 30
0.0
 11
15295.79883318237
 21
1333.630224942306
 31
0.0
  0
LINE
  5
1A4
330
19E
100
AcDbEntity
  8
1
  6
Continuous
 62
     7
370
    18
100
AcDbLine
 10
15288.73307325107
 20
1359.999999999998
 30
0.0
 11
15281.66731331977
 21
1333.630224942306
 31
0.0
  0
LINE
  5
1A5
330
19E
100
AcDbEntity
  8
1
  6
Continuous
 62
     7
370
    18
100
AcDbLine
 10
15288.73307325107
 20
1159.999999999998
 30
0.0
 11
15281.66731331977
 21
1186.36977505769
 31
0.0
  0
LINE
  5
1A6
330
19E
100
AcDbEntity
  8
1
  6
Continuous
 62
     7
370
    18
100
AcDbLine
 10
15288.73307325107
 20
1159.999999999998
 30
0.0
 11
15295.79883318237
 21
1186.36977505769
 31
0.0
  0
TEXT
  5
1A7
330
19E
100
AcDbEntity
  8
1
  6
Continuous
 62
     7
370
    18
100
AcDbText
 10
15270.94170269269
 20
1219.049999999998
 30
0.0
 40
39.9
  1
200
 50
89.99999999999991
 41
0.6842105263157895
 11
15278.23307325107
 21
1219.049999999998
 31
0.0
100
AcDbText
 73
     1
  0
ENDBLK
  5
1A8
330
19E
100
AcDbEntity
  8
1
  6
Continuous
 62
     7
370
    18
100
AcDbBlockEnd
  0
BLOCK
  5
1AB
330
1AA
100
AcDbEntity
  8
1
  6
Continuous
 62
     7
370
    18
100
AcDbBlockBegin
  2
*D2
 70
     0
 10
0.0
 20
0.0
 30
0.0
  3
*D2
  1

  0
LINE
  5
1AC
330
1AA
100
AcDbEntity
  8
1
  6
Continuous
 62
     7
370
    18
100
AcDbLine
 10
15288.73307325107
 20
1201.999999999998
 30
0.0
 11
15288.73307325107
 21
1082.999999999998
 31
0.0
  0
LINE
  5
1AD
330
1AA
100
AcDbEntity
  8
1
  6
Continuous
 62
     7
370
    18
100
AcDbLine
 10
15274.03307325107
 20
1159.999999999998
 30
0.0
 11
15597.24969296934
 21
1159.999999999998
 31
0.0
  0
LINE
  5
1AE
330
1AA
100
AcDbEntity
  8
1
  6
Continuous
 62
     7
370
    18
100
AcDbLine
 10
15274.03307325107
 20
1124.999999999998
 30
0.0
 11
15597.24969296934
 21
1124.999999999998
 31
0.0
  0
LINE
  5
1AF
330
1AA
100
AcDbEntity
  8
1
  6
Continuous
 62
     7
370
    18
100
AcDbLine
 10
15288.73307325107
 20
1159.999999999998
 30
0.0
 11
15281.66731331977
 21
1186.36977505769
 31
0.0
  0
LINE
  5
1B0
330
1AA
100
AcDbEntity
  8
1
  6
Continuous
 62
     7
370
    18
100
AcDbLine
 10
15288.73307325107
 20
1159.999999999998
 30
0.0
 11
15295.79883318237
 21
1186.36977505769
 31
0.0
  0
LINE
  5
1B1
330
1AA
100
AcDbEntity
  8
1
  6
Continuous
 62
     7
370
    18
100
AcDbLine
 10
15288.73307325107
 20
1124.999999999998
 30
0.0
 11
15295.79883318237
 21
1098.630224942306
 31
0.0
  0
LINE
  5
1B2
330
1AA
100
AcDbEntity
  8
1
  6
Continuous
 62
     7
370
    18
100
AcDbLine
 10
15288.73307325107
 20
1124.999999999998
 30
0.0
 11
15281.66731331977
 21
1098.630224942306
 31
0.0
  0
TEXT
  5
1B3
330
1AA
100
AcDbEntity
  8
1
  6
Continuous
 62
     7
370
    18
100
AcDbText
 10
15270.94170269269
 20
1115.199999999998
 30
0.0
 40
39.9
  1
35
 50
89.99999999999991
 41
0.6842105263157895
 11
15278.23307325107
 21
1115.199999999998
 31
0.0
100
AcDbText
 73
     1
  0
ENDBLK
  5
1B4
330
1AA
100
AcDbEntity
  8
1
  6
Continuous
 62
     7
370
    18
100
AcDbBlockEnd
  0
BLOCK
  5
1B7
330
1B6
100
AcDbEntity
  8
1
  6
Continuous
 62
     7
370
    18
100
AcDbBlockBegin
  2
*D3
 70
     0
 10
0.0
 20
0.0
 30
0.0
  3
*D3
  1

  0
LINE
  5
1B8
330
1B6
100
AcDbEntity
  8
1
  6
Continuous
 62
     7
370
    18
100
AcDbLine
 10
15288.73307325107
 20
1124.999999999998
 30
0.0
 11
15288.73307325107
 21
959.9999999999981
 31
0.0
  0
LINE
  5
1B9
330
1B6
100
AcDbEntity
  8
1
  6
Continuous
 62
     7
370
    18
100
AcDbLine
 10
15274.03307325107
 20
1124.999999999998
 30
0.0
 11
15597.24969296934
 21
1124.999999999998
 31
0.0
  0
LINE
  5
1BA
330
1B6
100
AcDbEntity
  8
1
  6
Continuous
 62
     7
370
    18
100
AcDbLine
 10
15274.03307325107
 20
959.9999999999981
 30
0.0
 11
15399.50884016649
 21
959.9999999999983
 31
0.0
  0
LINE
  5
1BB
330
1B6
100
AcDbEntity
  8
1
  6
Continuous
 62
     7
370
    18
100
AcDbLine
 10
15288.73307325107
 20
1124.999999999998
 30
0.0
 11
15295.79883318237
 21
1098.630224942306
 31
0.0
  0
LINE
  5
1BC
330
1B6
100
AcDbEntity
  8
1
  6
Continuous
 62
     7
370
    18
100
AcDbLine
 10
15288.73307325107
 20
1124.999999999998
 30
0.0
 11
15281.66731331977
 21
1098.630224942306
 31
0.0
  0
LINE
  5
1BD
330
1B6
100
AcDbEntity
  8
1
  6
Continuous
 62
     7
370
    18
100
AcDbLine
 10
15288.73307325107
 20
959.9999999999981
 30
0.0
 11
15281.66731331977
 21
986.3697750576896
 31
0.0
  0
LINE
  5
1BE
330
1B6
100
AcDbEntity
  8
1
  6
Continuous
 62
     7
370
    18
100
AcDbLine
 10
15288.73307325107
 20
959.9999999999981
 30
0.0
 11
15295.79883318237
 21
986.3697750576896
 31
0.0
  0
TEXT
  5
1BF
330
1B6
100
AcDbEntity
  8
1
  6
Continuous
 62
     7
370
    18
100
AcDbText
 10
15270.94170269269
 20
1001.549999999998
 30
0.0
 40
39.9
  1
165
 50
89.99999999999991
 41
0.6842105263157895
 11
15278.23307325107
 21
1001.549999999998
 31
0.0
100
AcDbText
 73
     1
  0
ENDBLK
  5
1C0
330
1B6
100
AcDbEntity
  8
1
  6
Continuous
 62
     7
370
    18
100
AcDbBlockEnd
  0
BLOCK
  5
1C3
330
1C2
100
AcDbEntity
  8
1
  6
Continuous
 62
     7
370
    18
100
AcDbBlockBegin
  2
*D4
 70
     0
 10
0.0
 20
0.0
 30
0.0
  3
*D4
  1

  0
LINE
  5
1C4
330
1C2
100
AcDbEntity
  8
1
  6
Continuous
 62
     7
370
    18
100
AcDbLine
 10
15288.73307325107
 20
959.9999999999981
 30
0.0
 11
15288.73307325107
 21
879.9999999999981
 31
0.0
  0
LINE
  5
1C5
330
1C2
100
AcDbEntity
  8
1
  6
Continuous
 62
     7
370
    18
100
AcDbLine
 10
15274.03307325107
 20
959.9999999999981
 30
0.0
 11
15399.50884016649
 21
959.9999999999983
 31
0.0
  0
LINE
  5
1C6
330
1C2
100
AcDbEntity
  8
1
  6
Continuous
 62
     7
370
    18
100
AcDbLine
 10
15274.03307325107
 20
879.9999999999981
 30
0.0
 11
15399.50884016649
 21
879.9999999999982
 31
0.0
  0
LINE
  5
1C7
330
1C2
100
AcDbEntity
  8
1
  6
Continuous
 62
     7
370
    18
100
AcDbLine
 10
15288.73307325107
 20
959.9999999999981
 30
0.0
 11
15295.79883318237
 21
933.6302249423066
 31
0.0
  0
LINE
  5
1C8
330
1C2
100
AcDbEntity
  8
1
  6
Continuous
 62
     7
370
    18
100
AcDbLine
 10
15288.73307325107
 20
959.9999999999981
 30
0.0
 11
15281.66731331977
 21
933.6302249423066
 31
0.0
  0
LINE
  5
1C9
330
1C2
100
AcDbEntity
  8
1
  6
Continuous
 62
     7
370
    18
100
AcDbLine
 10
15288.73307325107
 20
879.9999999999981
 30
0.0
 11
15281.66731331977
 21
906.3697750576897
 31
0.0
  0
LINE
  5
1CA
330
1C2
100
AcDbEntity
  8
1
  6
Continuous
 62
     7
370
    18
100
AcDbLine
 10
15288.73307325107
 20
879.9999999999981
 30
0.0
 11
15295.79883318237
 21
906.3697750576897
 31
0.0
  0
TEXT
  5
1CB
330
1C2
100
AcDbEntity
  8
1
  6
Continuous
 62
     7
370
    18
100
AcDbText
 10
15270.94170269269
 20
892.6999999999981
 30
0.0
 40
39.9
  1
80
 50
89.99999999999991
 41
0.6842105263157895
 11
15278.23307325107
 21
892.6999999999981
 31
0.0
100
AcDbText
 73
     1
  0
ENDBLK
  5
1CC
330
1C2
100
AcDbEntity
  8
1
  6
Continuous
 62
     7
370
    18
100
AcDbBlockEnd
  0
BLOCK
  5
1CF
330
1CE
100
AcDbEntity
  8
1
  6
Continuous
 62
     7
370
    18
100
AcDbBlockBegin
  2
*D5
 70
     0
 10
0.0
 20
0.0
 30
0.0
  3
*D5
  1

  0
LINE
  5
1D0
330
1CE
100
AcDbEntity
  8
1
  6
Continuous
 62
     7
370
    18
100
AcDbLine
 10
16138.50884016649
 20
657.8972196479244
 30
0.0
 11
16285.62401409603
 21
657.8972196479244
 31
0.0
  0
LINE
  5
1D1
330
1CE
100
AcDbEntity
  8
1
  6
Continuous
 62
     7
370
    18
100
AcDbLine
 10
16180.50884016649
 20
643.1972196479243
 30
0.0
 11
16180.50884016649
 21
858.9999999999982
 31
0.0
  0
LINE
  5
1D2
330
1CE
100
AcDbEntity
  8
1
  6
Continuous
 62
     7
370
    18
100
AcDbLine
 10
16220.50884016649
 20
643.1972196479243
 30
0.0
 11
16220.50884016649
 21
858.9999999999982
 31
0.0
  0
LINE
  5
1D3
330
1CE
100
AcDbEntity
  8
1
  6
Continuous
 62
     7
370
    18
100
AcDbLine
 10
16180.50884016649
 20
657.8972196479244
 30
0.0
 11
16154.1390651088
 21
650.8314597166256
 31
0.0
  0
LINE
  5
1D4
330
1CE
100
AcDbEntity
  8
1
  6
Continuous
 62
     7
370
    18
100
AcDbLine
 10
16180.50884016649
 20
657.8972196479244
 30
0.0
 11
16154.1390651088
 21
664.9629795792233
 31
0.0
  0
LINE
  5
1D5
330
1CE
100
AcDbEntity
  8
1
  6
Continuous
 62
     7
370
    18
100
AcDbLine
 10
16220.50884016649
 20
657.8972196479244
 30
0.0
 11
16246.87861522418
 21
664.9629795792231
 31
0.0
  0
LINE
  5
1D6
330
1CE
100
AcDbEntity
  8
1
  6
Continuous
 62
     7
370
    18
100
AcDbLine
 10
16220.50884016649
 20
657.8972196479244
 30
0.0
 11
16246.87861522418
 21
650.8314597166254
 31
0.0
  0
TEXT
  5
1D7
330
1CE
100
AcDbEntity
  8
1
  6
Continuous
 62
     7
370
    18
100
AcDbText
 10
16231.02401409603
 20
675.6885902063
 30
0.0
 40
39.9
  1
40
 41
0.6842105263157895
 11
16231.02401409603
 21
668.3972196479244
 31
0.0
100
AcDbText
 73
     1
  0
ENDBLK
  5
1D8
330
1CE
100
AcDbEntity
  8
1
  6
Continuous
 62
     7
370
    18
100
AcDbBlockEnd
  0
BLOCK
  5
1DB
330
1DA
100
AcDbEntity
  8
1
  6
Continuous
 62
     7
370
    18
100
AcDbBlockBegin
  2
*D6
 70
     0
 10
0.0
 20
0.0
 30
0.0
  3
*D6
  1

  0
LINE
  5
1DC
330
1DA
100
AcDbEntity
  8
1
  6
Continuous
 62
     7
370
    18
100
AcDbLine
 10
15835.50884016649
 20
657.8972196479244
 30
0.0
 11
16180.50884016649
 21
657.8972196479244
 31
0.0
  0
LINE
  5
1DD
330
1DA
100
AcDbEntity
  8
1
  6
Continuous
 62
     7
370
    18
100
AcDbLine
 10
15835.50884016649
 20
643.1972196479243
 30
0.0
 11
15835.50884016649
 21
858.9999999999982
 31
0.0
  0
LINE
  5
1DE
330
1DA
100
AcDbEntity
  8
1
  6
Continuous
 62
     7
370
    18
100
AcDbLine
 10
16180.50884016649
 20
643.1972196479243
 30
0.0
 11
16180.50884016649
 21
858.9999999999982
 31
0.0
  0
LINE
  5
1DF
330
1DA
100
AcDbEntity
  8
1
  6
Continuous
 62
     7
370
    18
100
AcDbLine
 10
15835.50884016649
 20
657.8972196479244
 30
0.0
 11
15861.87861522418
 21
664.9629795792232
 31
0.0
  0
LINE
  5
1E0
330
1DA
100
AcDbEntity
  8
1
  6
Continuous
 62
     7
370
    18
100
AcDbLine
 10
15835.50884016649
 20
657.8972196479244
 30
0.0
 11
15861.87861522418
 21
650.8314597166256
 31
0.0
  0
LINE
  5
1E1
330
1DA
100
AcDbEntity
  8
1
  6
Continuous
 62
     7
370
    18
100
AcDbLine
 10
16180.50884016649
 20
657.8972196479244
 30
0.0
 11
16154.1390651088
 21
650.8314597166256
 31
0.0
  0
LINE
  5
1E2
330
1DA
100
AcDbEntity
  8
1
  6
Continuous
 62
     7
370
    18
100
AcDbLine
 10
16180.50884016649
 20
657.8972196479244
 30
0.0
 11
16154.1390651088
 21
664.9629795792233
 31
0.0
  0
TEXT
  5
1E3
330
1DA
100
AcDbEntity
  8
1
  6
Continuous
 62
     7
370
    18
100
AcDbText
 10
15967.05884016649
 20
675.6885902063
 30
0.0
 40
39.9
  1
345
 41
0.6842105263157895
 11
15967.05884016649
 21
668.3972196479244
 31
0.0
100
AcDbText
 73
     1
  0
ENDBLK
  5
1E4
330
1DA
100
AcDbEntity
  8
1
  6
Continuous
 62
     7
370
    18
100
AcDbBlockEnd
  0
BLOCK
  5
438
330
437
100
AcDbEntity
  8
1
  6
Continuous
 62
     7
370
    18
100
AcDbBlockBegin
  2
*D7
 70
     0
 10
0.0
 20
0.0
 30
0.0
  3
*D7
  1

  0
LINE
  5
439
330
437
100
AcDbEntity
  8
1
  6
Continuous
 62
     7
370
    18
100
AcDbLine
 10
14376.375
 20
3380.732093416592
 30
0.0
 11
14456.375
 21
3380.732093416592
 31
0.0
  0
LINE
  5
43A
330
437
100
AcDbEntity
  8
1
  6
Continuous
 62
     7
370
    18
100
AcDbLine
 10
14376.375
 20
3401.732093416592
 30
0.0
 11
14376.375
 21
2997.802651844235
 31
0.0
  0
LINE
  5
43B
330
437
100
AcDbEntity
  8
1
  6
Continuous
 62
     7
370
    18
100
AcDbLine
 10
14456.375
 20
3401.732093416592
 30
0.0
 11
14456.375
 21
2997.802651844235
 31
0.0
  0
LINE
  5
43C
330
437
100
AcDbEntity
  8
1
  6
Continuous
 62
     7
370
    18
100
AcDbLine
 10
14376.375
 20
3380.732093416592
 30
0.0
 11
14396.65944235207
 21
3386.167293363744
 31
0.0
  0
LINE
  5
43D
330
437
100
AcDbEntity
  8
1
  6
Continuous
 62
     7
370
    18
100
AcDbLine
 10
14376.375
 20
3380.732093416592
 30
0.0
 11
14396.65944235207
 21
3375.296893469439
 31
0.0
  0
LINE
  5
43E
330
437
100
AcDbEntity
  8
1
  6
Continuous
 62
     7
370
    18
100
AcDbLine
 10
14456.375
 20
3380.732093416592
 30
0.0
 11
14436.09055764793
 21
3375.296893469439
 31
0.0
  0
LINE
  5
43F
330
437
100
AcDbEntity
  8
1
  6
Continuous
 62
     7
370
    18
100
AcDbLine
 10
14456.375
 20
3380.732093416592
 30
0.0
 11
14436.09055764793
 21
3386.167293363744
 31
0.0
  0
TEXT
  5
440
330
437
100
AcDbEntity
  8
1
  6
Continuous
 62
     7
370
    18
100
AcDbText
 10
14389.075
 20
3398.907220320146
 30
0.0
 40
42.0
  1
80
 41
0.65
 11
14389.075
 21
3391.232093416591
 31
0.0
100
AcDbText
 73
     1
  0
ENDBLK
  5
441
330
437
100
AcDbEntity
  8
1
  6
Continuous
 62
     7
370
    18
100
AcDbBlockEnd
  0
BLOCK
  5
444
330
443
100
AcDbEntity
  8
1
  6
Continuous
 62
     7
370
    18
100
AcDbBlockBegin
  2
*D8
 70
     0
 10
0.0
 20
0.0
 30
0.0
  3
*D8
  1

  0
LINE
  5
445
330
443
100
AcDbEntity
  8
1
  6
Continuous
 62
     7
370
    18
100
AcDbLine
 10
14353.375
 20
3298.147400532084
 30
0.0
 11
14522.5955848487
 21
3298.147400532084
 31
0.0
  0
LINE
  5
446
330
443
100
AcDbEntity
  8
1
  6
Continuous
 62
     7
370
    18
100
AcDbLine
 10
14416.375
 20
3319.147400532084
 30
0.0
 11
14416.375
 21
2997.802651844235
 31
0.0
  0
LINE
  5
447
330
443
100
AcDbEntity
  8
1
  6
Continuous
 62
     7
370
    18
100
AcDbLine
 10
14456.375
 20
3319.147400532084
 30
0.0
 11
14456.375
 21
2997.802651844235
 31
0.0
  0
LINE
  5
448
330
443
100
AcDbEntity
  8
1
  6
Continuous
 62
     7
370
    18
100
AcDbLine
 10
14416.375
 20
3298.147400532084
 30
0.0
 11
14396.09055764793
 21
3292.712200584932
 31
0.0
  0
LINE
  5
449
330
443
100
AcDbEntity
  8
1
  6
Continuous
 62
     7
370
    18
100
AcDbLine
 10
14416.375
 20
3298.147400532084
 30
0.0
 11
14396.09055764793
 21
3303.582600479237
 31
0.0
  0
LINE
  5
44A
330
443
100
AcDbEntity
  8
1
  6
Continuous
 62
     7
370
    18
100
AcDbLine
 10
14456.375
 20
3298.147400532084
 30
0.0
 11
14476.65944235207
 21
3303.582600479237
 31
0.0
  0
LINE
  5
44B
330
443
100
AcDbEntity
  8
1
  6
Continuous
 62
     7
370
    18
100
AcDbLine
 10
14456.375
 20
3298.147400532084
 30
0.0
 11
14476.65944235207
 21
3292.712200584931
 31
0.0
  0
TEXT
  5
44C
330
443
100
AcDbEntity
  8
1
  6
Continuous
 62
     7
370
    18
100
AcDbText
 10
14467.9955848487
 20
3316.322527435637
 30
0.0
 40
42.0
  1
40
 41
0.65
 11
14467.9955848487
 21
3308.647400532084
 31
0.0
100
AcDbText
 73
     1
  0
ENDBLK
  5
44D
330
443
100
AcDbEntity
  8
1
  6
Continuous
 62
     7
370
    18
100
AcDbBlockEnd
  0
BLOCK
  5
450
330
44F
100
AcDbEntity
  8
1
  6
Continuous
 62
     7
370
    18
100
AcDbBlockBegin
  2
*D9
 70
     0
 10
0.0
 20
0.0
 30
0.0
  3
*D9
  1

  0
LINE
  5
451
330
44F
100
AcDbEntity
  8
1
  6
Continuous
 62
     7
370
    18
100
AcDbLine
 10
14313.05231391167
 20
3298.147400532084
 30
0.0
 11
14479.375
 21
3298.147400532084
 31
0.0
  0
LINE
  5
452
330
44F
100
AcDbEntity
  8
1
  6
Continuous
 62
     7
370
    18
100
AcDbLine
 10
14376.375
 20
3319.147400532084
 30
0.0
 11
14376.375
 21
2997.802651844235
 31
0.0
  0
LINE
  5
453
330
44F
100
AcDbEntity
  8
1
  6
Continuous
 62
     7
370
    18
100
AcDbLine
 10
14416.375
 20
3319.147400532084
 30
0.0
 11
14416.375
 21
2997.802651844235
 31
0.0
  0
LINE
  5
454
330
44F
100
AcDbEntity
  8
1
  6
Continuous
 62
     7
370
    18
100
AcDbLine
 10
14376.375
 20
3298.147400532084
 30
0.0
 11
14356.09055764793
 21
3292.712200584932
 31
0.0
  0
LINE
  5
455
330
44F
100
AcDbEntity
  8
1
  6
Continuous
 62
     7
370
    18
100
AcDbLine
 10
14376.375
 20
3298.147400532084
 30
0.0
 11
14356.09055764793
 21
3303.582600479237
 31
0.0
  0
LINE
  5
456
330
44F
100
AcDbEntity
  8
1
  6
Continuous
 62
     7
370
    18
100
AcDbLine
 10
14416.375
 20
3298.147400532084
 30
0.0
 11
14436.65944235207
 21
3303.582600479237
 31
0.0
  0
LINE
  5
457
330
44F
100
AcDbEntity
  8
1
  6
Continuous
 62
     7
370
    18
100
AcDbLine
 10
14416.375
 20
3298.147400532084
 30
0.0
 11
14436.65944235207
 21
3292.712200584931
 31
0.0
  0
TEXT
  5
458
330
44F
100
AcDbEntity
  8
1
  6
Continuous
 62
     7
370
    18
100
AcDbText
 10
14313.05231391166
 20
3316.322527435637
 30
0.0
 40
42.0
  1
40
 41
0.65
 11
14313.05231391166
 21
3308.647400532084
 31
0.0
100
AcDbText
 73
     1
  0
ENDBLK
  5
459
330
44F
100
AcDbEntity
  8
1
  6
Continuous
 62
     7
370
    18
100
AcDbBlockEnd
  0
BLOCK
  5
90F
330
90E
100
AcDbEntity
  8
1
  6
Continuous
 62
     7
370
    18
100
AcDbBlockBegin
  2
*D10
 70
     0
 10
0.0
 20
0.0
 30
0.0
  3
*D10
  1

  0
LINE
  5
910
330
90E
100
AcDbEntity
  8
1
  6
Continuous
 62
     7
370
    18
100
AcDbLine
 10
18412.5
 20
9479.999999999986
 30
0.0
 11
18412.5
 21
8679.999999999985
 31
0.0
  0
LINE
  5
911
330
90E
100
AcDbEntity
  8
1
  6
Continuous
 62
     7
370
    18
100
AcDbLine
 10
18433.5
 20
9479.999999999986
 30
0.0
 11
17581.0
 21
9480.0
 31
0.0
  0
LINE
  5
912
330
90E
100
AcDbEntity
  8
1
  6
Continuous
 62
     7
370
    18
100
AcDbLine
 10
18433.5
 20
8679.999999999985
 30
0.0
 11
17581.0
 21
8680.0
 31
0.0
  0
LINE
  5
913
330
90E
100
AcDbEntity
  8
1
  6
Continuous
 62
     7
370
    18
100
AcDbLine
 10
18412.5
 20
9479.999999999986
 30
0.0
 11
18419.5657599313
 21
9453.630224942292
 31
0.0
  0
LINE
  5
914
330
90E
100
AcDbEntity
  8
1
  6
Continuous
 62
     7
370
    18
100
AcDbLine
 10
18412.5
 20
9479.999999999986
 30
0.0
 11
18405.4342400687
 21
9453.630224942292
 31
0.0
  0
LINE
  5
915
330
90E
100
AcDbEntity
  8
1
  6
Continuous
 62
     7
370
    18
100
AcDbLine
 10
18412.5
 20
8679.999999999985
 30
0.0
 11
18405.4342400687
 21
8706.369775057678
 31
0.0
  0
LINE
  5
916
330
90E
100
AcDbEntity
  8
1
  6
Continuous
 62
     7
370
    18
100
AcDbLine
 10
18412.5
 20
8679.999999999985
 30
0.0
 11
18419.5657599313
 21
8706.369775057678
 31
0.0
  0
TEXT
  5
917
330
90E
100
AcDbEntity
  8
1
  6
Continuous
 62
     7
370
    18
100
AcDbText
 10
18390.48730964467
 20
9016.999999999987
 30
0.0
 40
63.0
  1
800
 50
90.00000000000001
 41
0.6666666666666666
 11
18402.0
 21
9016.999999999987
 31
0.0
100
AcDbText
 73
     1
  0
ENDBLK
  5
918
330
90E
100
AcDbEntity
  8
1
  6
Continuous
 62
     7
370
    18
100
AcDbBlockEnd
  0
BLOCK
  5
91B
330
91A
100
AcDbEntity
  8
1
  6
Continuous
 62
     7
370
    18
100
AcDbBlockBegin
  2
*D11
 70
     0
 10
0.0
 20
0.0
 30
0.0
  3
*D11
  1

  0
LINE
  5
91C
330
91A
100
AcDbEntity
  8
1
  6
Continuous
 62
     7
370
    18
100
AcDbLine
 10
11220.55557034859
 20
9479.999999999993
 30
0.0
 11
11220.55557034859
 21
9079.999999999994
 31
0.0
  0
LINE
  5
91D
330
91A
100
AcDbEntity
  8
1
  6
Continuous
 62
     7
370
    18
100
AcDbLine
 10
11241.55557034859
 20
9479.999999999993
 30
0.0
 11
11238.72371965849
 21
9479.999999999993
 31
0.0
  0
LINE
  5
91E
330
91A
100
AcDbEntity
  8
1
  6
Continuous
 62
     7
370
    18
100
AcDbLine
 10
11241.55557034859
 20
9079.999999999994
 30
0.0
 11
11239.02118444722
 21
9079.999999999994
 31
0.0
  0
LINE
  5
91F
330
91A
100
AcDbEntity
  8
1
  6
Continuous
 62
     7
370
    18
100
AcDbLine
 10
11220.55557034859
 20
9479.999999999993
 30
0.0
 11
11227.62133027988
 21
9453.630224942299
 31
0.0
  0
LINE
  5
920
330
91A
100
AcDbEntity
  8
1
  6
Continuous
 62
     7
370
    18
100
AcDbLine
 10
11220.55557034859
 20
9479.999999999993
 30
0.0
 11
11213.48981041729
 21
9453.630224942299
 31
0.0
  0
LINE
  5
921
330
91A
100
AcDbEntity
  8
1
  6
Continuous
 62
     7
370
    18
100
AcDbLine
 10
11220.55557034859
 20
9079.999999999994
 30
0.0
 11
11213.48981041729
 21
9106.369775057686
 31
0.0
  0
LINE
  5
922
330
91A
100
AcDbEntity
  8
1
  6
Continuous
 62
     7
370
    18
100
AcDbLine
 10
11220.55557034859
 20
9079.999999999994
 30
0.0
 11
11227.62133027988
 21
9106.369775057686
 31
0.0
  0
TEXT
  5
923
330
91A
100
AcDbEntity
  8
1
  6
Continuous
 62
     7
370
    18
100
AcDbText
 10
11204.84287999325
 20
9216.999999999993
 30
0.0
 40
63.0
  1
400
 50
89.99999999999991
 41
0.6666666666666666
 11
11216.35557034859
 21
9216.999999999993
 31
0.0
100
AcDbText
 73
     1
  0
ENDBLK
  5
924
330
91A
100
AcDbEntity
  8
1
  6
Continuous
 62
     7
370
    18
100
AcDbBlockEnd
  0
BLOCK
  5
927
330
926
100
AcDbEntity
  8
1
  6
Continuous
 62
     7
370
    18
100
AcDbBlockBegin
  2
*D12
 70
     0
 10
0.0
 20
0.0
 30
0.0
  3
*D12
  1

  0
LINE
  5
928
330
926
100
AcDbEntity
  8
1
  6
Continuous
 62
     7
370
    18
100
AcDbLine
 10
10930.55557034859
 20
9479.999999999993
 30
0.0
 11
10930.55557034859
 21
9234.999999999992
 31
0.0
  0
LINE
  5
929
330
926
100
AcDbEntity
  8
1
  6
Continuous
 62
     7
370
    18
100
AcDbLine
 10
10915.85557034858
 20
9479.999999999993
 30
0.0
 11
11039.0
 21
9479.999999999993
 31
0.0
  0
LINE
  5
92A
330
926
100
AcDbEntity
  8
1
  6
Continuous
 62
     7
370
    18
100
AcDbLine
 10
10915.85557034858
 20
9234.999999999992
 30
0.0
 11
11039.0
 21
9234.999999999992
 31
0.0
  0
LINE
  5
92B
330
926
100
AcDbEntity
  8
1
  6
Continuous
 62
     7
370
    18
100
AcDbLine
 10
10930.55557034859
 20
9479.999999999993
 30
0.0
 11
10937.62133027988
 21
9453.630224942299
 31
0.0
  0
LINE
  5
92C
330
926
100
AcDbEntity
  8
1
  6
Continuous
 62
     7
370
    18
100
AcDbLine
 10
10930.55557034859
 20
9479.999999999993
 30
0.0
 11
10923.48981041729
 21
9453.630224942299
 31
0.0
  0
LINE
  5
92D
330
926
100
AcDbEntity
  8
1
  6
Continuous
 62
     7
370
    18
100
AcDbLine
 10
10930.55557034859
 20
9234.999999999992
 30
0.0
 11
10923.48981041729
 21
9261.369775057685
 31
0.0
  0
LINE
  5
92E
330
926
100
AcDbEntity
  8
1
  6
Continuous
 62
     7
370
    18
100
AcDbLine
 10
10930.55557034859
 20
9234.999999999992
 30
0.0
 11
10937.62133027988
 21
9261.369775057685
 31
0.0
  0
TEXT
  5
92F
330
926
100
AcDbEntity
  8
1
  6
Continuous
 62
     7
370
    18
100
AcDbText
 10
10914.84287999326
 20
9294.499999999992
 30
0.0
 40
63.0
  1
245
 50
89.99999999999991
 41
0.6666666666666666
 11
10926.35557034858
 21
9294.499999999992
 31
0.0
100
AcDbText
 73
     1
  0
ENDBLK
  5
930
330
926
100
AcDbEntity
  8
1
  6
Continuous
 62
     7
370
    18
100
AcDbBlockEnd
  0
BLOCK
  5
933
330
932
100
AcDbEntity
  8
1
  6
Continuous
 62
     7
370
    18
100
AcDbBlockBegin
  2
*D13
 70
     0
 10
0.0
 20
0.0
 30
0.0
  3
*D13
  1

  0
LINE
  5
934
330
932
100
AcDbEntity
  8
1
  6
Continuous
 62
     7
370
    18
100
AcDbLine
 10
12060.0
 20
10013.91122995308
 30
0.0
 11
10560.0
 21
10013.91122995308
 31
0.0
  0
LINE
  5
935
330
932
100
AcDbEntity
  8
1
  6
Continuous
 62
     7
370
    18
100
AcDbLine
 10
12060.0
 20
10034.91122995308
 30
0.0
 11
12060.0
 21
9230.917340046035
 31
0.0
  0
LINE
  5
936
330
932
100
AcDbEntity
  8
1
  6
Continuous
 62
     7
370
    18
100
AcDbLine
 10
10560.0
 20
10034.91122995308
 30
0.0
 11
10560.0
 21
9500.999999999994
 31
0.0
  0
LINE
  5
937
330
932
100
AcDbEntity
  8
1
  6
Continuous
 62
     7
370
    18
100
AcDbLine
 10
12060.0
 20
10013.91122995308
 30
0.0
 11
12033.63022494231
 21
10006.84547002178
 31
0.0
  0
LINE
  5
938
330
932
100
AcDbEntity
  8
1
  6
Continuous
 62
     7
370
    18
100
AcDbLine
 10
12060.0
 20
10013.91122995308
 30
0.0
 11
12033.63022494231
 21
10020.97698988438
 31
0.0
  0
LINE
  5
939
330
932
100
AcDbEntity
  8
1
  6
Continuous
 62
     7
370
    18
100
AcDbLine
 10
10560.0
 20
10013.91122995308
 30
0.0
 11
10586.36977505769
 21
10020.97698988438
 31
0.0
  0
LINE
  5
93A
330
932
100
AcDbEntity
  8
1
  6
Continuous
 62
     7
370
    18
100
AcDbLine
 10
10560.0
 20
10013.91122995308
 30
0.0
 11
10586.36977505769
 21
10006.84547002178
 31
0.0
  0
TEXT
  5
93B
330
932
100
AcDbEntity
  8
1
  6
Continuous
 62
     7
370
    18
100
AcDbText
 10
11055.44442965141
 20
10025.42392030841
 30
0.0
 40
63.0
  1
1500
 50
359.9999999999996
 41
0.6666666666666666
 11
11055.44442965141
 21
10013.91122995308
 31
0.0
100
AcDbText
 73
     1
  0
ENDBLK
  5
93C
330
932
100
AcDbEntity
  8
1
  6
Continuous
 62
     7
370
    18
100
AcDbBlockEnd
  0
BLOCK
  5
93F
330
93E
100
AcDbEntity
  8
1
  6
Continuous
 62
     7
370
    18
100
AcDbBlockBegin
  2
*D14
 70
     0
 10
0.0
 20
0.0
 30
0.0
  3
*D14
  1

  0
LINE
  5
940
330
93E
100
AcDbEntity
  8
1
  6
Continuous
 62
     7
370
    18
100
AcDbLine
 10
12010.0
 20
9888.232356713642
 30
0.0
 11
10560.0
 21
9888.232356713642
 31
0.0
  0
LINE
  5
941
330
93E
100
AcDbEntity
  8
1
  6
Continuous
 62
     7
370
    18
100
AcDbLine
 10
12010.0
 20
9909.232356713642
 30
0.0
 11
12010.0
 21
9521.999999999993
 31
0.0
  0
LINE
  5
942
330
93E
100
AcDbEntity
  8
1
  6
Continuous
 62
     7
370
    18
100
AcDbLine
 10
10560.0
 20
9909.232356713642
 30
0.0
 11
10560.0
 21
9500.999999999994
 31
0.0
  0
LINE
  5
943
330
93E
100
AcDbEntity
  8
1
  6
Continuous
 62
     7
370
    18
100
AcDbLine
 10
12010.0
 20
9888.232356713642
 30
0.0
 11
11983.6302249423
 21
9881.166596782342
 31
0.0
  0
LINE
  5
944
330
93E
100
AcDbEntity
  8
1
  6
Continuous
 62
     7
370
    18
100
AcDbLine
 10
12010.0
 20
9888.232356713642
 30
0.0
 11
11983.6302249423
 21
9895.298116644939
 31
0.0
  0
LINE
  5
945
330
93E
100
AcDbEntity
  8
1
  6
Continuous
 62
     7
370
    18
100
AcDbLine
 10
10560.0
 20
9888.232356713642
 30
0.0
 11
10586.36977505769
 21
9895.298116644939
 31
0.0
  0
LINE
  5
946
330
93E
100
AcDbEntity
  8
1
  6
Continuous
 62
     7
370
    18
100
AcDbLine
 10
10560.0
 20
9888.232356713642
 30
0.0
 11
10586.36977505769
 21
9881.166596782342
 31
0.0
  0
TEXT
  5
947
330
93E
100
AcDbEntity
  8
1
  6
Continuous
 62
     7
370
    18
100
AcDbText
 10
11055.44442965141
 20
9899.745047068972
 30
0.0
 40
63.0
  1
1450
 50
359.9999999999996
 41
0.6666666666666666
 11
11055.44442965141
 21
9888.232356713642
 31
0.0
100
AcDbText
 73
     1
  0
ENDBLK
  5
948
330
93E
100
AcDbEntity
  8
1
  6
Continuous
 62
     7
370
    18
100
AcDbBlockEnd
  0
BLOCK
  5
94B
330
94A
100
AcDbEntity
  8
1
  6
Continuous
 62
     7
370
    18
100
AcDbBlockBegin
  2
*D15
 70
     0
 10
0.0
 20
0.0
 30
0.0
  3
*D15
  1

  0
LINE
  5
94C
330
94A
100
AcDbEntity
  8
1
  6
Continuous
 62
     7
370
    18
100
AcDbLine
 10
11060.0
 20
9732.955736995334
 30
0.0
 11
10560.0
 21
9732.955736995334
 31
0.0
  0
LINE
  5
94D
330
94A
100
AcDbEntity
  8
1
  6
Continuous
 62
     7
370
    18
100
AcDbLine
 10
11060.0
 20
9753.955736995333
 30
0.0
 11
11060.0
 21
9651.634422949507
 31
0.0
  0
LINE
  5
94E
330
94A
100
AcDbEntity
  8
1
  6
Continuous
 62
     7
370
    18
100
AcDbLine
 10
10560.0
 20
9753.955736995333
 30
0.0
 11
10560.0
 21
9500.999999999994
 31
0.0
  0
LINE
  5
94F
330
94A
100
AcDbEntity
  8
1
  6
Continuous
 62
     7
370
    18
100
AcDbLine
 10
11060.0
 20
9732.955736995334
 30
0.0
 11
11033.63022494231
 21
9725.889977064035
 31
0.0
  0
LINE
  5
950
330
94A
100
AcDbEntity
  8
1
  6
Continuous
 62
     7
370
    18
100
AcDbLine
 10
11060.0
 20
9732.955736995334
 30
0.0
 11
11033.63022494231
 21
9740.021496926631
 31
0.0
  0
LINE
  5
951
330
94A
100
AcDbEntity
  8
1
  6
Continuous
 62
     7
370
    18
100
AcDbLine
 10
10560.0
 20
9732.955736995334
 30
0.0
 11
10586.36977505769
 21
9740.021496926631
 31
0.0
  0
LINE
  5
952
330
94A
100
AcDbEntity
  8
1
  6
Continuous
 62
     7
370
    18
100
AcDbLine
 10
10560.0
 20
9732.955736995334
 30
0.0
 11
10586.36977505769
 21
9725.889977064035
 31
0.0
  0
TEXT
  5
953
330
94A
100
AcDbEntity
  8
1
  6
Continuous
 62
     7
370
    18
100
AcDbText
 10
10747.0
 20
9744.468427350662
 30
0.0
 40
63.0
  1
500
 50
359.9999999999996
 41
0.6666666666666666
 11
10747.0
 21
9732.955736995334
 31
0.0
100
AcDbText
 73
     1
  0
ENDBLK
  5
954
330
94A
100
AcDbEntity
  8
1
  6
Continuous
 62
     7
370
    18
100
AcDbBlockEnd
  0
BLOCK
  5
957
330
956
100
AcDbEntity
  8
1
  6
Continuous
 62
     7
370
    18
100
AcDbBlockBegin
  2
*D16
 70
     0
 10
0.0
 20
0.0
 30
0.0
  3
*D16
  1

  0
LINE
  5
958
330
956
100
AcDbEntity
  8
1
  6
Continuous
 62
     7
370
    18
100
AcDbLine
 10
11060.0
 20
9732.955736995334
 30
0.0
 11
12010.0
 21
9732.955736995334
 31
0.0
  0
LINE
  5
959
330
956
100
AcDbEntity
  8
1
  6
Continuous
 62
     7
370
    18
100
AcDbLine
 10
11060.0
 20
9753.955736995333
 30
0.0
 11
11060.0
 21
9644.971772347147
 31
0.0
  0
LINE
  5
95A
330
956
100
AcDbEntity
  8
1
  6
Continuous
 62
     7
370
    18
100
AcDbLine
 10
12010.0
 20
9753.955736995333
 30
0.0
 11
12010.0
 21
9521.999999999993
 31
0.0
  0
LINE
  5
95B
330
956
100
AcDbEntity
  8
1
  6
Continuous
 62
     7
370
    18
100
AcDbLine
 10
11060.0
 20
9732.955736995334
 30
0.0
 11
11086.36977505769
 21
9740.021496926631
 31
0.0
  0
LINE
  5
95C
330
956
100
AcDbEntity
  8
1
  6
Continuous
 62
     7
370
    18
100
AcDbLine
 10
11060.0
 20
9732.955736995334
 30
0.0
 11
11086.36977505769
 21
9725.889977064035
 31
0.0
  0
LINE
  5
95D
330
956
100
AcDbEntity
  8
1
  6
Continuous
 62
     7
370
    18
100
AcDbLine
 10
12010.0
 20
9732.955736995334
 30
0.0
 11
11983.6302249423
 21
9725.889977064035
 31
0.0
  0
LINE
  5
95E
330
956
100
AcDbEntity
  8
1
  6
Continuous
 62
     7
370
    18
100
AcDbLine
 10
12010.0
 20
9732.955736995334
 30
0.0
 11
11983.6302249423
 21
9740.021496926631
 31
0.0
  0
TEXT
  5
95F
330
956
100
AcDbEntity
  8
1
  6
Continuous
 62
     7
370
    18
100
AcDbText
 10
11472.0
 20
9744.468427350662
 30
0.0
 40
63.0
  1
950
 50
359.9999999999996
 41
0.6666666666666666
 11
11472.0
 21
9732.955736995334
 31
0.0
100
AcDbText
 73
     1
  0
ENDBLK
  5
960
330
956
100
AcDbEntity
  8
1
  6
Continuous
 62
     7
370
    18
100
AcDbBlockEnd
  0
BLOCK
  5
963
330
962
100
AcDbEntity
  8
1
  6
Continuous
 62
     7
370
    18
100
AcDbBlockBegin
  2
*D17
 70
     0
 10
0.0
 20
0.0
 30
0.0
  3
*D17
  1

  0
LINE
  5
964
330
962
100
AcDbEntity
  8
1
  6
Continuous
 62
     7
370
    18
100
AcDbLine
 10
11260.0
 20
9550.46108910801
 30
0.0
 11
10860.0
 21
9550.46108910801
 31
0.0
  0
LINE
  5
965
330
962
100
AcDbEntity
  8
1
  6
Continuous
 62
     7
370
    18
100
AcDbLine
 10
11260.0
 20
9571.461089108009
 30
0.0
 11
11260.0
 21
9500.999999999994
 31
0.0
  0
LINE
  5
966
330
962
100
AcDbEntity
  8
1
  6
Continuous
 62
     7
370
    18
100
AcDbLine
 10
10860.0
 20
9571.461089108009
 30
0.0
 11
10860.0
 21
9500.999999999994
 31
0.0
  0
LINE
  5
967
330
962
100
AcDbEntity
  8
1
  6
Continuous
 62
     7
370
    18
100
AcDbLine
 10
11260.0
 20
9550.46108910801
 30
0.0
 11
11233.63022494231
 21
9543.395329176711
 31
0.0
  0
LINE
  5
968
330
962
100
AcDbEntity
  8
1
  6
Continuous
 62
     7
370
    18
100
AcDbLine
 10
11260.0
 20
9550.46108910801
 30
0.0
 11
11233.63022494231
 21
9557.526849039307
 31
0.0
  0
LINE
  5
969
330
962
100
AcDbEntity
  8
1
  6
Continuous
 62
     7
370
    18
100
AcDbLine
 10
10860.0
 20
9550.46108910801
 30
0.0
 11
10886.36977505769
 21
9557.526849039307
 31
0.0
  0
LINE
  5
96A
330
962
100
AcDbEntity
  8
1
  6
Continuous
 62
     7
370
    18
100
AcDbLine
 10
10860.0
 20
9550.46108910801
 30
0.0
 11
10886.36977505769
 21
9543.395329176711
 31
0.0
  0
TEXT
  5
96B
330
962
100
AcDbEntity
  8
1
  6
Continuous
 62
     7
370
    18
100
AcDbText
 10
10997.0
 20
9561.973779463338
 30
0.0
 40
63.0
  1
400
 50
359.9999999999996
 41
0.6666666666666666
 11
10997.0
 21
9550.46108910801
 31
0.0
100
AcDbText
 73
     1
  0
ENDBLK
  5
96C
330
962
100
AcDbEntity
  8
1
  6
Continuous
 62
     7
370
    18
100
AcDbBlockEnd
  0
BLOCK
  5
96F
330
96E
100
AcDbEntity
  8
1
  6
Continuous
 62
     7
370
    18
100
AcDbBlockBegin
  2
*D18
 70
     0
 10
0.0
 20
0.0
 30
0.0
  3
*D18
  1

  0
LINE
  5
970
330
96E
100
AcDbEntity
  8
1
  6
Continuous
 62
     7
370
    18
100
AcDbLine
 10
11152.5
 20
8876.663647854483
 30
0.0
 11
10967.5
 21
8876.663647854483
 31
0.0
  0
LINE
  5
971
330
96E
100
AcDbEntity
  8
1
  6
Continuous
 62
     7
370
    18
100
AcDbLine
 10
11152.5
 20
8861.963647854484
 30
0.0
 11
11152.5
 21
9213.999999999993
 31
0.0
  0
LINE
  5
972
330
96E
100
AcDbEntity
  8
1
  6
Continuous
 62
     7
370
    18
100
AcDbLine
 10
10967.5
 20
8861.963647854484
 30
0.0
 11
10967.5
 21
9213.999999999993
 31
0.0
  0
LINE
  5
973
330
96E
100
AcDbEntity
  8
1
  6
Continuous
 62
     7
370
    18
100
AcDbLine
 10
11152.5
 20
8876.663647854483
 30
0.0
 11
11126.13022494231
 21
8869.597887923186
 31
0.0
  0
LINE
  5
974
330
96E
100
AcDbEntity
  8
1
  6
Continuous
 62
     7
370
    18
100
AcDbLine
 10
11152.5
 20
8876.663647854483
 30
0.0
 11
11126.13022494231
 21
8883.729407785782
 31
0.0
  0
LINE
  5
975
330
96E
100
AcDbEntity
  8
1
  6
Continuous
 62
     7
370
    18
100
AcDbLine
 10
10967.5
 20
8876.663647854483
 30
0.0
 11
10993.86977505769
 21
8883.729407785782
 31
0.0
  0
LINE
  5
976
330
96E
100
AcDbEntity
  8
1
  6
Continuous
 62
     7
370
    18
100
AcDbLine
 10
10967.5
 20
8876.663647854483
 30
0.0
 11
10993.86977505769
 21
8869.597887923186
 31
0.0
  0
TEXT
  5
977
330
96E
100
AcDbEntity
  8
1
  6
Continuous
 62
     7
370
    18
100
AcDbText
 10
10955.0
 20
8898.676338209815
 30
0.0
 40
63.0
  1
φ185
 50
359.9999999999996
 41
1.333333333333333
 11
10955.0
 21
8887.163647854483
 31
0.0
100
AcDbText
 73
     1
  0
ENDBLK
  5
978
330
96E
100
AcDbEntity
  8
1
  6
Continuous
 62
     7
370
    18
100
AcDbBlockEnd
  0
BLOCK
  5
97B
330
97A
100
AcDbEntity
  8
1
  6
Continuous
 62
     7
370
    18
100
AcDbBlockBegin
  2
*D19
 70
     0
 10
0.0
 20
0.0
 30
0.0
  3
*D19
  1

  0
LINE
  5
97C
330
97A
100
AcDbEntity
  8
1
  6
Continuous
 62
     7
370
    18
100
AcDbLine
 10
13205.73839078268
 20
9480.0
 30
0.0
 11
13205.73839078268
 21
9235.0
 31
0.0
  0
LINE
  5
97D
330
97A
100
AcDbEntity
  8
1
  6
Continuous
 62
     7
370
    18
100
AcDbLine
 10
13220.43839078268
 20
9480.0
 30
0.0
 11
13081.0
 21
9480.0
 31
0.0
  0
LINE
  5
97E
330
97A
100
AcDbEntity
  8
1
  6
Continuous
 62
     7
370
    18
100
AcDbLine
 10
13220.43839078268
 20
9235.0
 30
0.0
 11
13081.0
 21
9235.0
 31
0.0
  0
LINE
  5
97F
330
97A
100
AcDbEntity
  8
1
  6
Continuous
 62
     7
370
    18
100
AcDbLine
 10
13205.73839078268
 20
9480.0
 30
0.0
 11
13212.80415071398
 21
9453.630224942308
 31
0.0
  0
LINE
  5
980
330
97A
100
AcDbEntity
  8
1
  6
Continuous
 62
     7
370
    18
100
AcDbLine
 10
13205.73839078268
 20
9480.0
 30
0.0
 11
13198.67263085138
 21
9453.630224942308
 31
0.0
  0
LINE
  5
981
330
97A
100
AcDbEntity
  8
1
  6
Continuous
 62
     7
370
    18
100
AcDbLine
 10
13205.73839078268
 20
9235.0
 30
0.0
 11
13198.67263085138
 21
9261.369775057692
 31
0.0
  0
LINE
  5
982
330
97A
100
AcDbEntity
  8
1
  6
Continuous
 62
     7
370
    18
100
AcDbLine
 10
13205.73839078268
 20
9235.0
 30
0.0
 11
13212.80415071398
 21
9261.369775057692
 31
0.0
  0
TEXT
  5
983
330
97A
100
AcDbEntity
  8
1
  6
Continuous
 62
     7
370
    18
100
AcDbText
 10
13183.72570042735
 20
9294.500000000001
 30
0.0
 40
63.0
  1
245
 50
89.99999999999991
 41
0.6666666666666666
 11
13195.23839078268
 21
9294.500000000001
 31
0.0
100
AcDbText
 73
     1
  0
ENDBLK
  5
984
330
97A
100
AcDbEntity
  8
1
  6
Continuous
 62
     7
370
    18
100
AcDbBlockEnd
  0
BLOCK
  5
987
330
986
100
AcDbEntity
  8
1
  6
Continuous
 62
     7
370
    18
100
AcDbBlockBegin
  2
*D20
 70
     0
 10
0.0
 20
0.0
 30
0.0
  3
*D20
  1

  0
LINE
  5
988
330
986
100
AcDbEntity
  8
1
  6
Continuous
 62
     7
370
    18
100
AcDbLine
 10
12967.49999999999
 20
8876.66364785449
 30
0.0
 11
13152.5
 21
8876.66364785449
 31
0.0
  0
LINE
  5
989
330
986
100
AcDbEntity
  8
1
  6
Continuous
 62
     7
370
    18
100
AcDbLine
 10
12967.49999999999
 20
8861.963647854489
 30
0.0
 11
12967.5
 21
9214.0
 31
0.0
  0
LINE
  5
98A
330
986
100
AcDbEntity
  8
1
  6
Continuous
 62
     7
370
    18
100
AcDbLine
 10
13152.5
 20
8861.963647854489
 30
0.0
 11
13152.5
 21
9214.0
 31
0.0
  0
LINE
  5
98B
330
986
100
AcDbEntity
  8
1
  6
Continuous
 62
     7
370
    18
100
AcDbLine
 10
12967.49999999999
 20
8876.66364785449
 30
0.0
 11
12993.86977505769
 21
8883.729407785788
 31
0.0
  0
LINE
  5
98C
330
986
100
AcDbEntity
  8
1
  6
Continuous
 62
     7
370
    18
100
AcDbLine
 10
12967.49999999999
 20
8876.66364785449
 30
0.0
 11
12993.86977505769
 21
8869.597887923191
 31
0.0
  0
LINE
  5
98D
330
986
100
AcDbEntity
  8
1
  6
Continuous
 62
     7
370
    18
100
AcDbLine
 10
13152.5
 20
8876.66364785449
 30
0.0
 11
13126.1302249423
 21
8869.597887923191
 31
0.0
  0
LINE
  5
98E
330
986
100
AcDbEntity
  8
1
  6
Continuous
 62
     7
370
    18
100
AcDbLine
 10
13152.5
 20
8876.66364785449
 30
0.0
 11
13126.1302249423
 21
8883.729407785788
 31
0.0
  0
TEXT
  5
98F
330
986
100
AcDbEntity
  8
1
  6
Continuous
 62
     7
370
    18
100
AcDbText
 10
12955.0
 20
8898.676338209821
 30
0.0
 40
63.0
  1
φ185
 41
1.333333333333333
 11
12955.0
 21
8887.163647854491
 31
0.0
100
AcDbText
 73
     1
  0
ENDBLK
  5
990
330
986
100
AcDbEntity
  8
1
  6
Continuous
 62
     7
370
    18
100
AcDbBlockEnd
  0
BLOCK
  5
993
330
992
100
AcDbEntity
  8
1
  6
Continuous
 62
     7
370
    18
100
AcDbBlockBegin
  2
*D21
 70
     0
 10
0.0
 20
0.0
 30
0.0
  3
*D21
  1

  0
LINE
  5
994
330
992
100
AcDbEntity
  8
1
  6
Continuous
 62
     7
370
    18
100
AcDbLine
 10
12060.0
 20
10013.91122995308
 30
0.0
 11
14060.0
 21
10013.91122995308
 31
0.0
  0
LINE
  5
995
330
992
100
AcDbEntity
  8
1
  6
Continuous
 62
     7
370
    18
100
AcDbLine
 10
12060.0
 20
10034.91122995308
 30
0.0
 11
12060.0
 21
9185.562508470809
 31
0.0
  0
LINE
  5
996
330
992
100
AcDbEntity
  8
1
  6
Continuous
 62
     7
370
    18
100
AcDbLine
 10
14060.0
 20
10034.91122995308
 30
0.0
 11
14060.0
 21
9177.196311287708
 31
0.0
  0
LINE
  5
997
330
992
100
AcDbEntity
  8
1
  6
Continuous
 62
     7
370
    18
100
AcDbLine
 10
12060.0
 20
10013.91122995308
 30
0.0
 11
12086.36977505769
 21
10020.97698988438
 31
0.0
  0
LINE
  5
998
330
992
100
AcDbEntity
  8
1
  6
Continuous
 62
     7
370
    18
100
AcDbLine
 10
12060.0
 20
10013.91122995308
 30
0.0
 11
12086.36977505769
 21
10006.84547002179
 31
0.0
  0
LINE
  5
999
330
992
100
AcDbEntity
  8
1
  6
Continuous
 62
     7
370
    18
100
AcDbLine
 10
14060.0
 20
10013.91122995308
 30
0.0
 11
14033.63022494231
 21
10006.84547002179
 31
0.0
  0
LINE
  5
99A
330
992
100
AcDbEntity
  8
1
  6
Continuous
 62
     7
370
    18
100
AcDbLine
 10
14060.0
 20
10013.91122995308
 30
0.0
 11
14033.63022494231
 21
10020.97698988438
 31
0.0
  0
TEXT
  5
99B
330
992
100
AcDbEntity
  8
1
  6
Continuous
 62
     7
370
    18
100
AcDbText
 10
12976.0
 20
10025.42392030841
 30
0.0
 40
63.0
  1
2000
 41
0.6666666666666666
 11
12976.0
 21
10013.91122995308
 31
0.0
100
AcDbText
 73
     1
  0
ENDBLK
  5
99C
330
992
100
AcDbEntity
  8
1
  6
Continuous
 62
     7
370
    18
100
AcDbBlockEnd
  0
BLOCK
  5
99F
330
99E
100
AcDbEntity
  8
1
  6
Continuous
 62
     7
370
    18
100
AcDbBlockBegin
  2
*D22
 70
     0
 10
0.0
 20
0.0
 30
0.0
  3
*D22
  1

  0
LINE
  5
9A0
330
99E
100
AcDbEntity
  8
1
  6
Continuous
 62
     7
370
    18
100
AcDbLine
 10
12110.0
 20
9888.232356713649
 30
0.0
 11
14010.0
 21
9888.232356713649
 31
0.0
  0
LINE
  5
9A1
330
99E
100
AcDbEntity
  8
1
  6
Continuous
 62
     7
370
    18
100
AcDbLine
 10
12110.0
 20
9909.232356713649
 30
0.0
 11
12110.0
 21
9501.0
 31
0.0
  0
LINE
  5
9A2
330
99E
100
AcDbEntity
  8
1
  6
Continuous
 62
     7
370
    18
100
AcDbLine
 10
14010.0
 20
9909.232356713649
 30
0.0
 11
14010.0
 21
9501.0
 31
0.0
  0
LINE
  5
9A3
330
99E
100
AcDbEntity
  8
1
  6
Continuous
 62
     7
370
    18
100
AcDbLine
 10
12110.0
 20
9888.232356713649
 30
0.0
 11
12136.36977505769
 21
9895.298116644946
 31
0.0
  0
LINE
  5
9A4
330
99E
100
AcDbEntity
  8
1
  6
Continuous
 62
     7
370
    18
100
AcDbLine
 10
12110.0
 20
9888.232356713649
 30
0.0
 11
12136.36977505769
 21
9881.16659678235
 31
0.0
  0
LINE
  5
9A5
330
99E
100
AcDbEntity
  8
1
  6
Continuous
 62
     7
370
    18
100
AcDbLine
 10
14010.0
 20
9888.232356713649
 30
0.0
 11
13983.63022494231
 21
9881.16659678235
 31
0.0
  0
LINE
  5
9A6
330
99E
100
AcDbEntity
  8
1
  6
Continuous
 62
     7
370
    18
100
AcDbLine
 10
14010.0
 20
9888.232356713649
 30
0.0
 11
13983.63022494231
 21
9895.298116644946
 31
0.0
  0
TEXT
  5
9A7
330
99E
100
AcDbEntity
  8
1
  6
Continuous
 62
     7
370
    18
100
AcDbText
 10
12976.0
 20
9899.745047068979
 30
0.0
 40
63.0
  1
1900
 41
0.6666666666666666
 11
12976.0
 21
9888.232356713649
 31
0.0
100
AcDbText
 73
     1
  0
ENDBLK
  5
9A8
330
99E
100
AcDbEntity
  8
1
  6
Continuous
 62
     7
370
    18
100
AcDbBlockEnd
  0
BLOCK
  5
9AB
330
9AA
100
AcDbEntity
  8
1
  6
Continuous
 62
     7
370
    18
100
AcDbBlockBegin
  2
*D23
 70
     0
 10
0.0
 20
0.0
 30
0.0
  3
*D23
  1

  0
LINE
  5
9AC
330
9AA
100
AcDbEntity
  8
1
  6
Continuous
 62
     7
370
    18
100
AcDbLine
 10
12860.0
 20
9550.461089108017
 30
0.0
 11
13260.0
 21
9550.461089108017
 31
0.0
  0
LINE
  5
9AD
330
9AA
100
AcDbEntity
  8
1
  6
Continuous
 62
     7
370
    18
100
AcDbLine
 10
12860.0
 20
9571.461089108016
 30
0.0
 11
12860.0
 21
9501.0
 31
0.0
  0
LINE
  5
9AE
330
9AA
100
AcDbEntity
  8
1
  6
Continuous
 62
     7
370
    18
100
AcDbLine
 10
13260.0
 20
9571.461089108016
 30
0.0
 11
13260.0
 21
9501.0
 31
0.0
  0
LINE
  5
9AF
330
9AA
100
AcDbEntity
  8
1
  6
Continuous
 62
     7
370
    18
100
AcDbLine
 10
12860.0
 20
9550.461089108017
 30
0.0
 11
12886.36977505769
 21
9557.526849039314
 31
0.0
  0
LINE
  5
9B0
330
9AA
100
AcDbEntity
  8
1
  6
Continuous
 62
     7
370
    18
100
AcDbLine
 10
12860.0
 20
9550.461089108017
 30
0.0
 11
12886.36977505769
 21
9543.395329176718
 31
0.0
  0
LINE
  5
9B1
330
9AA
100
AcDbEntity
  8
1
  6
Continuous
 62
     7
370
    18
100
AcDbLine
 10
13260.0
 20
9550.461089108017
 30
0.0
 11
13233.6302249423
 21
9543.395329176718
 31
0.0
  0
LINE
  5
9B2
330
9AA
100
AcDbEntity
  8
1
  6
Continuous
 62
     7
370
    18
100
AcDbLine
 10
13260.0
 20
9550.461089108017
 30
0.0
 11
13233.6302249423
 21
9557.526849039314
 31
0.0
  0
TEXT
  5
9B3
330
9AA
100
AcDbEntity
  8
1
  6
Continuous
 62
     7
370
    18
100
AcDbText
 10
12997.0
 20
9561.973779463347
 30
0.0
 40
63.0
  1
400
 41
0.6666666666666666
 11
12997.0
 21
9550.461089108017
 31
0.0
100
AcDbText
 73
     1
  0
ENDBLK
  5
9B4
330
9AA
100
AcDbEntity
  8
1
  6
Continuous
 62
     7
370
    18
100
AcDbBlockEnd
  0
BLOCK
  5
9B7
330
9B6
100
AcDbEntity
  8
1
  6
Continuous
 62
     7
370
    18
100
AcDbBlockBegin
  2
*D24
 70
     0
 10
0.0
 20
0.0
 30
0.0
  3
*D24
  1

  0
LINE
  5
9B8
330
9B6
100
AcDbEntity
  8
1
  6
Continuous
 62
     7
370
    18
100
AcDbLine
 10
12942.58275921461
 20
9480.0
 30
0.0
 11
12942.58275921461
 21
9080.0
 31
0.0
  0
LINE
  5
9B9
330
9B6
100
AcDbEntity
  8
1
  6
Continuous
 62
     7
370
    18
100
AcDbLine
 10
12963.58275921461
 20
9480.0
 30
0.0
 11
12923.27628034151
 21
9480.0
 31
0.0
  0
LINE
  5
9BA
330
9B6
100
AcDbEntity
  8
1
  6
Continuous
 62
     7
370
    18
100
AcDbLine
 10
12963.58275921461
 20
9080.0
 30
0.0
 11
12922.97881555277
 21
9080.0
 31
0.0
  0
LINE
  5
9BB
330
9B6
100
AcDbEntity
  8
1
  6
Continuous
 62
     7
370
    18
100
AcDbLine
 10
12942.58275921461
 20
9480.0
 30
0.0
 11
12949.64851914591
 21
9453.630224942308
 31
0.0
  0
LINE
  5
9BC
330
9B6
100
AcDbEntity
  8
1
  6
Continuous
 62
     7
370
    18
100
AcDbLine
 10
12942.58275921461
 20
9480.0
 30
0.0
 11
12935.51699928331
 21
9453.630224942308
 31
0.0
  0
LINE
  5
9BD
330
9B6
100
AcDbEntity
  8
1
  6
Continuous
 62
     7
370
    18
100
AcDbLine
 10
12942.58275921461
 20
9080.0
 30
0.0
 11
12935.51699928331
 21
9106.369775057691
 31
0.0
  0
LINE
  5
9BE
330
9B6
100
AcDbEntity
  8
1
  6
Continuous
 62
     7
370
    18
100
AcDbLine
 10
12942.58275921461
 20
9080.0
 30
0.0
 11
12949.64851914591
 21
9106.369775057691
 31
0.0
  0
TEXT
  5
9BF
330
9B6
100
AcDbEntity
  8
1
  6
Continuous
 62
     7
370
    18
100
AcDbText
 10
12931.07006885928
 20
9217.0
 30
0.0
 40
63.0
  1
400
 50
89.99999999999991
 41
0.6666666666666666
 11
12942.58275921461
 21
9217.0
 31
0.0
100
AcDbText
 73
     1
  0
ENDBLK
  5
9C0
330
9B6
100
AcDbEntity
  8
1
  6
Continuous
 62
     7
370
    18
100
AcDbBlockEnd
  0
BLOCK
  5
9C3
330
9C2
100
AcDbEntity
  8
1
  6
Continuous
 62
     7
370
    18
100
AcDbBlockBegin
  2
*D25
 70
     0
 10
0.0
 20
0.0
 30
0.0
  3
*D25
  1

  0
LINE
  5
9C4
330
9C2
100
AcDbEntity
  8
1
  6
Continuous
 62
     7
370
    18
100
AcDbLine
 10
13060.0
 20
9732.955736995341
 30
0.0
 11
14010.0
 21
9732.955736995341
 31
0.0
  0
LINE
  5
9C5
330
9C2
100
AcDbEntity
  8
1
  6
Continuous
 62
     7
370
    18
100
AcDbLine
 10
13060.0
 20
9753.95573699534
 30
0.0
 11
13060.0
 21
9630.634422949515
 31
0.0
  0
LINE
  5
9C6
330
9C2
100
AcDbEntity
  8
1
  6
Continuous
 62
     7
370
    18
100
AcDbLine
 10
14010.0
 20
9753.95573699534
 30
0.0
 11
14010.0
 21
9522.0
 31
0.0
  0
LINE
  5
9C7
330
9C2
100
AcDbEntity
  8
1
  6
Continuous
 62
     7
370
    18
100
AcDbLine
 10
13060.0
 20
9732.955736995341
 30
0.0
 11
13086.36977505769
 21
9740.021496926638
 31
0.0
  0
LINE
  5
9C8
330
9C2
100
AcDbEntity
  8
1
  6
Continuous
 62
     7
370
    18
100
AcDbLine
 10
13060.0
 20
9732.955736995341
 30
0.0
 11
13086.36977505769
 21
9725.889977064042
 31
0.0
  0
LINE
  5
9C9
330
9C2
100
AcDbEntity
  8
1
  6
Continuous
 62
     7
370
    18
100
AcDbLine
 10
14010.0
 20
9732.955736995341
 30
0.0
 11
13983.63022494231
 21
9725.889977064042
 31
0.0
  0
LINE
  5
9CA
330
9C2
100
AcDbEntity
  8
1
  6
Continuous
 62
     7
370
    18
100
AcDbLine
 10
14010.0
 20
9732.955736995341
 30
0.0
 11
13983.63022494231
 21
9740.021496926638
 31
0.0
  0
TEXT
  5
9CB
330
9C2
100
AcDbEntity
  8
1
  6
Continuous
 62
     7
370
    18
100
AcDbText
 10
13472.0
 20
9744.468427350671
 30
0.0
 40
63.0
  1
950
 41
0.6666666666666666
 11
13472.0
 21
9732.955736995341
 31
0.0
100
AcDbText
 73
     1
  0
ENDBLK
  5
9CC
330
9C2
100
AcDbEntity
  8
1
  6
Continuous
 62
     7
370
    18
100
AcDbBlockEnd
  0
BLOCK
  5
9CF
330
9CE
100
AcDbEntity
  8
1
  6
Continuous
 62
     7
370
    18
100
AcDbBlockBegin
  2
*D26
 70
     0
 10
0.0
 20
0.0
 30
0.0
  3
*D26
  1

  0
LINE
  5
9D0
330
9CE
100
AcDbEntity
  8
1
  6
Continuous
 62
     7
370
    18
100
AcDbLine
 10
13060.0
 20
9732.955736995341
 30
0.0
 11
12110.0
 21
9732.955736995341
 31
0.0
  0
LINE
  5
9D1
330
9CE
100
AcDbEntity
  8
1
  6
Continuous
 62
     7
370
    18
100
AcDbLine
 10
13060.0
 20
9753.95573699534
 30
0.0
 11
13060.0
 21
9644.971772347155
 31
0.0
  0
LINE
  5
9D2
330
9CE
100
AcDbEntity
  8
1
  6
Continuous
 62
     7
370
    18
100
AcDbLine
 10
12110.0
 20
9753.95573699534
 30
0.0
 11
12110.0
 21
9522.0
 31
0.0
  0
LINE
  5
9D3
330
9CE
100
AcDbEntity
  8
1
  6
Continuous
 62
     7
370
    18
100
AcDbLine
 10
13060.0
 20
9732.955736995341
 30
0.0
 11
13033.6302249423
 21
9725.889977064042
 31
0.0
  0
LINE
  5
9D4
330
9CE
100
AcDbEntity
  8
1
  6
Continuous
 62
     7
370
    18
100
AcDbLine
 10
13060.0
 20
9732.955736995341
 30
0.0
 11
13033.6302249423
 21
9740.021496926638
 31
0.0
  0
LINE
  5
9D5
330
9CE
100
AcDbEntity
  8
1
  6
Continuous
 62
     7
370
    18
100
AcDbLine
 10
12110.0
 20
9732.955736995341
 30
0.0
 11
12136.36977505769
 21
9740.021496926638
 31
0.0
  0
LINE
  5
9D6
330
9CE
100
AcDbEntity
  8
1
  6
Continuous
 62
     7
370
    18
100
AcDbLine
 10
12110.0
 20
9732.955736995341
 30
0.0
 11
12136.36977505769
 21
9725.889977064042
 31
0.0
  0
TEXT
  5
9D7
330
9CE
100
AcDbEntity
  8
1
  6
Continuous
 62
     7
370
    18
100
AcDbText
 10
12522.0
 20
9744.468427350671
 30
0.0
 40
63.0
  1
950
 41
0.6666666666666666
 11
12522.0
 21
9732.955736995341
 31
0.0
100
AcDbText
 73
     1
  0
ENDBLK
  5
9D8
330
9CE
100
AcDbEntity
  8
1
  6
Continuous
 62
     7
370
    18
100
AcDbBlockEnd
  0
BLOCK
  5
9DB
330
9DA
100
AcDbEntity
  8
1
  6
Continuous
 62
     7
370
    18
100
AcDbBlockBegin
  2
*D27
 70
     0
 10
0.0
 20
0.0
 30
0.0
  3
*D27
  1

  0
LINE
  5
9DC
330
9DA
100
AcDbEntity
  8
1
  6
Continuous
 62
     7
370
    18
100
AcDbLine
 10
16060.0
 20
10013.91122995308
 30
0.0
 11
17560.0
 21
10013.91122995308
 31
0.0
  0
LINE
  5
9DD
330
9DA
100
AcDbEntity
  8
1
  6
Continuous
 62
     7
370
    18
100
AcDbLine
 10
16060.0
 20
10034.91122995308
 30
0.0
 11
16060.0
 21
9230.917340046039
 31
0.0
  0
LINE
  5
9DE
330
9DA
100
AcDbEntity
  8
1
  6
Continuous
 62
     7
370
    18
100
AcDbLine
 10
17560.0
 20
10034.91122995308
 30
0.0
 11
17560.0
 21
9501.0
 31
0.0
  0
LINE
  5
9DF
330
9DA
100
AcDbEntity
  8
1
  6
Continuous
 62
     7
370
    18
100
AcDbLine
 10
16060.0
 20
10013.91122995308
 30
0.0
 11
16086.36977505769
 21
10020.97698988438
 31
0.0
  0
LINE
  5
9E0
330
9DA
100
AcDbEntity
  8
1
  6
Continuous
 62
     7
370
    18
100
AcDbLine
 10
16060.0
 20
10013.91122995308
 30
0.0
 11
16086.36977505769
 21
10006.84547002179
 31
0.0
  0
LINE
  5
9E1
330
9DA
100
AcDbEntity
  8
1
  6
Continuous
 62
     7
370
    18
100
AcDbLine
 10
17560.0
 20
10013.91122995308
 30
0.0
 11
17533.63022494231
 21
10006.84547002179
 31
0.0
  0
LINE
  5
9E2
330
9DA
100
AcDbEntity
  8
1
  6
Continuous
 62
     7
370
    18
100
AcDbLine
 10
17560.0
 20
10013.91122995308
 30
0.0
 11
17533.63022494231
 21
10020.97698988438
 31
0.0
  0
TEXT
  5
9E3
330
9DA
100
AcDbEntity
  8
1
  6
Continuous
 62
     7
370
    18
100
AcDbText
 10
16896.55557034859
 20
10025.42392030841
 30
0.0
 40
63.0
  1
1500
 41
0.6666666666666666
 11
16896.55557034859
 21
10013.91122995308
 31
0.0
100
AcDbText
 73
     1
  0
ENDBLK
  5
9E4
330
9DA
100
AcDbEntity
  8
1
  6
Continuous
 62
     7
370
    18
100
AcDbBlockEnd
  0
BLOCK
  5
9E7
330
9E6
100
AcDbEntity
  8
1
  6
Continuous
 62
     7
370
    18
100
AcDbBlockBegin
  2
*D28
 70
     0
 10
0.0
 20
0.0
 30
0.0
  3
*D28
  1

  0
LINE
  5
9E8
330
9E6
100
AcDbEntity
  8
1
  6
Continuous
 62
     7
370
    18
100
AcDbLine
 10
16110.0
 20
9888.232356713649
 30
0.0
 11
17560.0
 21
9888.232356713649
 31
0.0
  0
LINE
  5
9E9
330
9E6
100
AcDbEntity
  8
1
  6
Continuous
 62
     7
370
    18
100
AcDbLine
 10
16110.0
 20
9909.232356713649
 30
0.0
 11
16110.0
 21
9522.0
 31
0.0
  0
LINE
  5
9EA
330
9E6
100
AcDbEntity
  8
1
  6
Continuous
 62
     7
370
    18
100
AcDbLine
 10
17560.0
 20
9909.232356713649
 30
0.0
 11
17560.0
 21
9501.0
 31
0.0
  0
LINE
  5
9EB
330
9E6
100
AcDbEntity
  8
1
  6
Continuous
 62
     7
370
    18
100
AcDbLine
 10
16110.0
 20
9888.232356713649
 30
0.0
 11
16136.36977505769
 21
9895.298116644946
 31
0.0
  0
LINE
  5
9EC
330
9E6
100
AcDbEntity
  8
1
  6
Continuous
 62
     7
370
    18
100
AcDbLine
 10
16110.0
 20
9888.232356713649
 30
0.0
 11
16136.36977505769
 21
9881.16659678235
 31
0.0
  0
LINE
  5
9ED
330
9E6
100
AcDbEntity
  8
1
  6
Continuous
 62
     7
370
    18
100
AcDbLine
 10
17560.0
 20
9888.232356713649
 30
0.0
 11
17533.63022494231
 21
9881.16659678235
 31
0.0
  0
LINE
  5
9EE
330
9E6
100
AcDbEntity
  8
1
  6
Continuous
 62
     7
370
    18
100
AcDbLine
 10
17560.0
 20
9888.232356713649
 30
0.0
 11
17533.63022494231
 21
9895.298116644946
 31
0.0
  0
TEXT
  5
9EF
330
9E6
100
AcDbEntity
  8
1
  6
Continuous
 62
     7
370
    18
100
AcDbText
 10
16896.55557034859
 20
9899.745047068979
 30
0.0
 40
63.0
  1
1450
 41
0.6666666666666666
 11
16896.55557034859
 21
9888.232356713649
 31
0.0
100
AcDbText
 73
     1
  0
ENDBLK
  5
9F0
330
9E6
100
AcDbEntity
  8
1
  6
Continuous
 62
     7
370
    18
100
AcDbBlockEnd
  0
BLOCK
  5
9F3
330
9F2
100
AcDbEntity
  8
1
  6
Continuous
 62
     7
370
    18
100
AcDbBlockBegin
  2
*D29
 70
     0
 10
0.0
 20
0.0
 30
0.0
  3
*D29
  1

  0
LINE
  5
9F4
330
9F2
100
AcDbEntity
  8
1
  6
Continuous
 62
     7
370
    18
100
AcDbLine
 10
17060.0
 20
9732.955736995341
 30
0.0
 11
17560.0
 21
9732.955736995341
 31
0.0
  0
LINE
  5
9F5
330
9F2
100
AcDbEntity
  8
1
  6
Continuous
 62
     7
370
    18
100
AcDbLine
 10
17060.0
 20
9753.95573699534
 30
0.0
 11
17060.0
 21
9651.634422949516
 31
0.0
  0
LINE
  5
9F6
330
9F2
100
AcDbEntity
  8
1
  6
Continuous
 62
     7
370
    18
100
AcDbLine
 10
17560.0
 20
9753.95573699534
 30
0.0
 11
17560.0
 21
9501.0
 31
0.0
  0
LINE
  5
9F7
330
9F2
100
AcDbEntity
  8
1
  6
Continuous
 62
     7
370
    18
100
AcDbLine
 10
17060.0
 20
9732.955736995341
 30
0.0
 11
17086.36977505769
 21
9740.021496926638
 31
0.0
  0
LINE
  5
9F8
330
9F2
100
AcDbEntity
  8
1
  6
Continuous
 62
     7
370
    18
100
AcDbLine
 10
17060.0
 20
9732.955736995341
 30
0.0
 11
17086.36977505769
 21
9725.889977064042
 31
0.0
  0
LINE
  5
9F9
330
9F2
100
AcDbEntity
  8
1
  6
Continuous
 62
     7
370
    18
100
AcDbLine
 10
17560.0
 20
9732.955736995341
 30
0.0
 11
17533.63022494231
 21
9725.889977064042
 31
0.0
  0
LINE
  5
9FA
330
9F2
100
AcDbEntity
  8
1
  6
Continuous
 62
     7
370
    18
100
AcDbLine
 10
17560.0
 20
9732.955736995341
 30
0.0
 11
17533.63022494231
 21
9740.021496926638
 31
0.0
  0
TEXT
  5
9FB
330
9F2
100
AcDbEntity
  8
1
  6
Continuous
 62
     7
370
    18
100
AcDbText
 10
17247.0
 20
9744.468427350671
 30
0.0
 40
63.0
  1
500
 41
0.6666666666666666
 11
17247.0
 21
9732.955736995341
 31
0.0
100
AcDbText
 73
     1
  0
ENDBLK
  5
9FC
330
9F2
100
AcDbEntity
  8
1
  6
Continuous
 62
     7
370
    18
100
AcDbBlockEnd
  0
BLOCK
  5
9FF
330
9FE
100
AcDbEntity
  8
1
  6
Continuous
 62
     7
370
    18
100
AcDbBlockBegin
  2
*D30
 70
     0
 10
0.0
 20
0.0
 30
0.0
  3
*D30
  1

  0
LINE
  5
A00
330
9FE
100
AcDbEntity
  8
1
  6
Continuous
 62
     7
370
    18
100
AcDbLine
 10
17810.55557034859
 20
9079.999999999996
 30
0.0
 11
17810.55557034859
 21
8679.999999999997
 31
0.0
  0
LINE
  5
A01
330
9FE
100
AcDbEntity
  8
1
  6
Continuous
 62
     7
370
    18
100
AcDbLine
 10
17831.55557034859
 20
9079.999999999996
 30
0.0
 11
17581.0
 21
9080.0
 31
0.0
  0
LINE
  5
A02
330
9FE
100
AcDbEntity
  8
1
  6
Continuous
 62
     7
370
    18
100
AcDbLine
 10
17831.55557034859
 20
8679.999999999997
 30
0.0
 11
17581.0
 21
8680.0
 31
0.0
  0
LINE
  5
A03
330
9FE
100
AcDbEntity
  8
1
  6
Continuous
 62
     7
370
    18
100
AcDbLine
 10
17810.55557034859
 20
9079.999999999996
 30
0.0
 11
17817.62133027988
 21
9053.630224942304
 31
0.0
  0
LINE
  5
A04
330
9FE
100
AcDbEntity
  8
1
  6
Continuous
 62
     7
370
    18
100
AcDbLine
 10
17810.55557034859
 20
9079.999999999996
 30
0.0
 11
17803.48981041729
 21
9053.630224942304
 31
0.0
  0
LINE
  5
A05
330
9FE
100
AcDbEntity
  8
1
  6
Continuous
 62
     7
370
    18
100
AcDbLine
 10
17810.55557034859
 20
8679.999999999997
 30
0.0
 11
17803.48981041729
 21
8706.369775057689
 31
0.0
  0
LINE
  5
A06
330
9FE
100
AcDbEntity
  8
1
  6
Continuous
 62
     7
370
    18
100
AcDbLine
 10
17810.55557034859
 20
8679.999999999997
 30
0.0
 11
17817.62133027988
 21
8706.369775057689
 31
0.0
  0
TEXT
  5
A07
330
9FE
100
AcDbEntity
  8
1
  6
Continuous
 62
     7
370
    18
100
AcDbText
 10
17799.04287999326
 20
8816.999999999996
 30
0.0
 40
63.0
  1
400
 50
89.99999999999991
 41
0.6666666666666666
 11
17810.55557034859
 21
8816.999999999996
 31
0.0
100
AcDbText
 73
     1
  0
ENDBLK
  5
A08
330
9FE
100
AcDbEntity
  8
1
  6
Continuous
 62
     7
370
    18
100
AcDbBlockEnd
  0
BLOCK
  5
A0B
330
A0A
100
AcDbEntity
  8
1
  6
Continuous
 62
     7
370
    18
100
AcDbBlockBegin
  2
*D31
 70
     0
 10
0.0
 20
0.0
 30
0.0
  3
*D31
  1

  0
LINE
  5
A0C
330
A0A
100
AcDbEntity
  8
1
  6
Continuous
 62
     7
370
    18
100
AcDbLine
 10
17810.55557034859
 20
9479.999999999996
 30
0.0
 11
17810.55557034859
 21
9079.999999999996
 31
0.0
  0
LINE
  5
A0D
330
A0A
100
AcDbEntity
  8
1
  6
Continuous
 62
     7
370
    18
100
AcDbLine
 10
17831.55557034859
 20
9479.999999999996
 30
0.0
 11
17581.0
 21
9480.0
 31
0.0
  0
LINE
  5
A0E
330
A0A
100
AcDbEntity
  8
1
  6
Continuous
 62
     7
370
    18
100
AcDbLine
 10
17831.55557034859
 20
9079.999999999996
 30
0.0
 11
17581.0
 21
9080.0
 31
0.0
  0
LINE
  5
A0F
330
A0A
100
AcDbEntity
  8
1
  6
Continuous
 62
     7
370
    18
100
AcDbLine
 10
17810.55557034859
 20
9479.999999999996
 30
0.0
 11
17817.62133027988
 21
9453.630224942305
 31
0.0
  0
LINE
  5
A10
330
A0A
100
AcDbEntity
  8
1
  6
Continuous
 62
     7
370
    18
100
AcDbLine
 10
17810.55557034859
 20
9479.999999999996
 30
0.0
 11
17803.48981041729
 21
9453.630224942305
 31
0.0
  0
LINE
  5
A11
330
A0A
100
AcDbEntity
  8
1
  6
Continuous
 62
     7
370
    18
100
AcDbLine
 10
17810.55557034859
 20
9079.999999999996
 30
0.0
 11
17803.48981041729
 21
9106.369775057689
 31
0.0
  0
LINE
  5
A12
330
A0A
100
AcDbEntity
  8
1
  6
Continuous
 62
     7
370
    18
100
AcDbLine
 10
17810.55557034859
 20
9079.999999999996
 30
0.0
 11
17817.62133027988
 21
9106.369775057689
 31
0.0
  0
TEXT
  5
A13
330
A0A
100
AcDbEntity
  8
1
  6
Continuous
 62
     7
370
    18
100
AcDbText
 10
17799.04287999326
 20
9216.999999999996
 30
0.0
 40
63.0
  1
400
 50
89.99999999999991
 41
0.6666666666666666
 11
17810.55557034859
 21
9216.999999999996
 31
0.0
100
AcDbText
 73
     1
  0
ENDBLK
  5
A14
330
A0A
100
AcDbEntity
  8
1
  6
Continuous
 62
     7
370
    18
100
AcDbBlockEnd
  0
BLOCK
  5
A17
330
A16
100
AcDbEntity
  8
1
  6
Continuous
 62
     7
370
    18
100
AcDbBlockBegin
  2
*D32
 70
     0
 10
0.0
 20
0.0
 30
0.0
  3
*D32
  1

  0
LINE
  5
A18
330
A16
100
AcDbEntity
  8
1
  6
Continuous
 62
     7
370
    18
100
AcDbLine
 10
17060.0
 20
9732.955736995341
 30
0.0
 11
16110.0
 21
9732.955736995341
 31
0.0
  0
LINE
  5
A19
330
A16
100
AcDbEntity
  8
1
  6
Continuous
 62
     7
370
    18
100
AcDbLine
 10
17060.0
 20
9753.95573699534
 30
0.0
 11
17060.0
 21
9644.971772347155
 31
0.0
  0
LINE
  5
A1A
330
A16
100
AcDbEntity
  8
1
  6
Continuous
 62
     7
370
    18
100
AcDbLine
 10
16110.0
 20
9753.95573699534
 30
0.0
 11
16110.0
 21
9522.0
 31
0.0
  0
LINE
  5
A1B
330
A16
100
AcDbEntity
  8
1
  6
Continuous
 62
     7
370
    18
100
AcDbLine
 10
17060.0
 20
9732.955736995341
 30
0.0
 11
17033.63022494231
 21
9725.889977064042
 31
0.0
  0
LINE
  5
A1C
330
A16
100
AcDbEntity
  8
1
  6
Continuous
 62
     7
370
    18
100
AcDbLine
 10
17060.0
 20
9732.955736995341
 30
0.0
 11
17033.63022494231
 21
9740.021496926638
 31
0.0
  0
LINE
  5
A1D
330
A16
100
AcDbEntity
  8
1
  6
Continuous
 62
     7
370
    18
100
AcDbLine
 10
16110.0
 20
9732.955736995341
 30
0.0
 11
16136.36977505769
 21
9740.021496926638
 31
0.0
  0
LINE
  5
A1E
330
A16
100
AcDbEntity
  8
1
  6
Continuous
 62
     7
370
    18
100
AcDbLine
 10
16110.0
 20
9732.955736995341
 30
0.0
 11
16136.36977505769
 21
9725.889977064042
 31
0.0
  0
TEXT
  5
A1F
330
A16
100
AcDbEntity
  8
1
  6
Continuous
 62
     7
370
    18
100
AcDbText
 10
16522.0
 20
9744.468427350671
 30
0.0
 40
63.0
  1
950
 41
0.6666666666666666
 11
16522.0
 21
9732.955736995341
 31
0.0
100
AcDbText
 73
     1
  0
ENDBLK
  5
A20
330
A16
100
AcDbEntity
  8
1
  6
Continuous
 62
     7
370
    18
100
AcDbBlockEnd
  0
BLOCK
  5
A23
330
A22
100
AcDbEntity
  8
1
  6
Continuous
 62
     7
370
    18
100
AcDbBlockBegin
  2
*D33
 70
     0
 10
0.0
 20
0.0
 30
0.0
  3
*D33
  1

  0
LINE
  5
A24
330
A22
100
AcDbEntity
  8
1
  6
Continuous
 62
     7
370
    18
100
AcDbLine
 10
16942.58275921461
 20
9480.0
 30
0.0
 11
16942.58275921461
 21
9080.0
 31
0.0
  0
LINE
  5
A25
330
A22
100
AcDbEntity
  8
1
  6
Continuous
 62
     7
370
    18
100
AcDbLine
 10
16963.58275921461
 20
9480.0
 30
0.0
 11
16923.27628034151
 21
9480.0
 31
0.0
  0
LINE
  5
A26
330
A22
100
AcDbEntity
  8
1
  6
Continuous
 62
     7
370
    18
100
AcDbLine
 10
16963.58275921461
 20
9080.0
 30
0.0
 11
16922.97881555278
 21
9080.0
 31
0.0
  0
LINE
  5
A27
330
A22
100
AcDbEntity
  8
1
  6
Continuous
 62
     7
370
    18
100
AcDbLine
 10
16942.58275921461
 20
9480.0
 30
0.0
 11
16949.64851914591
 21
9453.630224942308
 31
0.0
  0
LINE
  5
A28
330
A22
100
AcDbEntity
  8
1
  6
Continuous
 62
     7
370
    18
100
AcDbLine
 10
16942.58275921461
 20
9480.0
 30
0.0
 11
16935.51699928331
 21
9453.630224942308
 31
0.0
  0
LINE
  5
A29
330
A22
100
AcDbEntity
  8
1
  6
Continuous
 62
     7
370
    18
100
AcDbLine
 10
16942.58275921461
 20
9080.0
 30
0.0
 11
16935.51699928331
 21
9106.369775057691
 31
0.0
  0
LINE
  5
A2A
330
A22
100
AcDbEntity
  8
1
  6
Continuous
 62
     7
370
    18
100
AcDbLine
 10
16942.58275921461
 20
9080.0
 30
0.0
 11
16949.64851914591
 21
9106.369775057691
 31
0.0
  0
TEXT
  5
A2B
330
A22
100
AcDbEntity
  8
1
  6
Continuous
 62
     7
370
    18
100
AcDbText
 10
16931.07006885928
 20
9217.0
 30
0.0
 40
63.0
  1
400
 50
89.99999999999991
 41
0.6666666666666666
 11
16942.58275921461
 21
9217.0
 31
0.0
100
AcDbText
 73
     1
  0
ENDBLK
  5
A2C
330
A22
100
AcDbEntity
  8
1
  6
Continuous
 62
     7
370
    18
100
AcDbBlockEnd
  0
BLOCK
  5
A2F
330
A2E
100
AcDbEntity
  8
1
  6
Continuous
 62
     7
370
    18
100
AcDbBlockBegin
  2
*D34
 70
     0
 10
0.0
 20
0.0
 30
0.0
  3
*D34
  1

  0
LINE
  5
A30
330
A2E
100
AcDbEntity
  8
1
  6
Continuous
 62
     7
370
    18
100
AcDbLine
 10
16860.0
 20
9550.461089108017
 30
0.0
 11
17260.0
 21
9550.461089108017
 31
0.0
  0
LINE
  5
A31
330
A2E
100
AcDbEntity
  8
1
  6
Continuous
 62
     7
370
    18
100
AcDbLine
 10
16860.0
 20
9571.461089108016
 30
0.0
 11
16860.0
 21
9501.0
 31
0.0
  0
LINE
  5
A32
330
A2E
100
AcDbEntity
  8
1
  6
Continuous
 62
     7
370
    18
100
AcDbLine
 10
17260.0
 20
9571.461089108016
 30
0.0
 11
17260.0
 21
9501.0
 31
0.0
  0
LINE
  5
A33
330
A2E
100
AcDbEntity
  8
1
  6
Continuous
 62
     7
370
    18
100
AcDbLine
 10
16860.0
 20
9550.461089108017
 30
0.0
 11
16886.36977505769
 21
9557.526849039314
 31
0.0
  0
LINE
  5
A34
330
A2E
100
AcDbEntity
  8
1
  6
Continuous
 62
     7
370
    18
100
AcDbLine
 10
16860.0
 20
9550.461089108017
 30
0.0
 11
16886.36977505769
 21
9543.395329176718
 31
0.0
  0
LINE
  5
A35
330
A2E
100
AcDbEntity
  8
1
  6
Continuous
 62
     7
370
    18
100
AcDbLine
 10
17260.0
 20
9550.461089108017
 30
0.0
 11
17233.63022494231
 21
9543.395329176718
 31
0.0
  0
LINE
  5
A36
330
A2E
100
AcDbEntity
  8
1
  6
Continuous
 62
     7
370
    18
100
AcDbLine
 10
17260.0
 20
9550.461089108017
 30
0.0
 11
17233.63022494231
 21
9557.526849039314
 31
0.0
  0
TEXT
  5
A37
330
A2E
100
AcDbEntity
  8
1
  6
Continuous
 62
     7
370
    18
100
AcDbText
 10
16997.0
 20
9561.973779463347
 30
0.0
 40
63.0
  1
400
 41
0.6666666666666666
 11
16997.0
 21
9550.461089108017
 31
0.0
100
AcDbText
 73
     1
  0
ENDBLK
  5
A38
330
A2E
100
AcDbEntity
  8
1
  6
Continuous
 62
     7
370
    18
100
AcDbBlockEnd
  0
BLOCK
  5
A3B
330
A3A
100
AcDbEntity
  8
1
  6
Continuous
 62
     7
370
    18
100
AcDbBlockBegin
  2
*D35
 70
     0
 10
0.0
 20
0.0
 30
0.0
  3
*D35
  1

  0
LINE
  5
A3C
330
A3A
100
AcDbEntity
  8
1
  6
Continuous
 62
     7
370
    18
100
AcDbLine
 10
16967.49999999999
 20
8876.66364785449
 30
0.0
 11
17152.5
 21
8876.66364785449
 31
0.0
  0
LINE
  5
A3D
330
A3A
100
AcDbEntity
  8
1
  6
Continuous
 62
     7
370
    18
100
AcDbLine
 10
16967.49999999999
 20
8861.963647854489
 30
0.0
 11
16967.5
 21
9214.0
 31
0.0
  0
LINE
  5
A3E
330
A3A
100
AcDbEntity
  8
1
  6
Continuous
 62
     7
370
    18
100
AcDbLine
 10
17152.5
 20
8861.963647854489
 30
0.0
 11
17152.5
 21
9214.0
 31
0.0
  0
LINE
  5
A3F
330
A3A
100
AcDbEntity
  8
1
  6
Continuous
 62
     7
370
    18
100
AcDbLine
 10
16967.49999999999
 20
8876.66364785449
 30
0.0
 11
16993.86977505769
 21
8883.729407785788
 31
0.0
  0
LINE
  5
A40
330
A3A
100
AcDbEntity
  8
1
  6
Continuous
 62
     7
370
    18
100
AcDbLine
 10
16967.49999999999
 20
8876.66364785449
 30
0.0
 11
16993.86977505769
 21
8869.597887923191
 31
0.0
  0
LINE
  5
A41
330
A3A
100
AcDbEntity
  8
1
  6
Continuous
 62
     7
370
    18
100
AcDbLine
 10
17152.5
 20
8876.66364785449
 30
0.0
 11
17126.13022494231
 21
8869.597887923191
 31
0.0
  0
LINE
  5
A42
330
A3A
100
AcDbEntity
  8
1
  6
Continuous
 62
     7
370
    18
100
AcDbLine
 10
17152.5
 20
8876.66364785449
 30
0.0
 11
17126.13022494231
 21
8883.729407785788
 31
0.0
  0
TEXT
  5
A43
330
A3A
100
AcDbEntity
  8
1
  6
Continuous
 62
     7
370
    18
100
AcDbText
 10
16955.0
 20
8898.676338209821
 30
0.0
 40
63.0
  1
φ185
 41
1.333333333333333
 11
16955.0
 21
8887.163647854491
 31
0.0
100
AcDbText
 73
     1
  0
ENDBLK
  5
A44
330
A3A
100
AcDbEntity
  8
1
  6
Continuous
 62
     7
370
    18
100
AcDbBlockEnd
  0
BLOCK
  5
A47
330
A46
100
AcDbEntity
  8
1
  6
Continuous
 62
     7
370
    18
100
AcDbBlockBegin
  2
*D36
 70
     0
 10
0.0
 20
0.0
 30
0.0
  3
*D36
  1

  0
LINE
  5
A48
330
A46
100
AcDbEntity
  8
1
  6
Continuous
 62
     7
370
    18
100
AcDbLine
 10
17205.73839078268
 20
9480.0
 30
0.0
 11
17205.73839078268
 21
9235.0
 31
0.0
  0
LINE
  5
A49
330
A46
100
AcDbEntity
  8
1
  6
Continuous
 62
     7
370
    18
100
AcDbLine
 10
17220.43839078268
 20
9480.0
 30
0.0
 11
17081.0
 21
9480.0
 31
0.0
  0
LINE
  5
A4A
330
A46
100
AcDbEntity
  8
1
  6
Continuous
 62
     7
370
    18
100
AcDbLine
 10
17220.43839078268
 20
9235.0
 30
0.0
 11
17081.0
 21
9235.0
 31
0.0
  0
LINE
  5
A4B
330
A46
100
AcDbEntity
  8
1
  6
Continuous
 62
     7
370
    18
100
AcDbLine
 10
17205.73839078268
 20
9480.0
 30
0.0
 11
17212.80415071398
 21
9453.630224942308
 31
0.0
  0
LINE
  5
A4C
330
A46
100
AcDbEntity
  8
1
  6
Continuous
 62
     7
370
    18
100
AcDbLine
 10
17205.73839078268
 20
9480.0
 30
0.0
 11
17198.67263085138
 21
9453.630224942308
 31
0.0
  0
LINE
  5
A4D
330
A46
100
AcDbEntity
  8
1
  6
Continuous
 62
     7
370
    18
100
AcDbLine
 10
17205.73839078268
 20
9235.0
 30
0.0
 11
17198.67263085138
 21
9261.369775057692
 31
0.0
  0
LINE
  5
A4E
330
A46
100
AcDbEntity
  8
1
  6
Continuous
 62
     7
370
    18
100
AcDbLine
 10
17205.73839078268
 20
9235.0
 30
0.0
 11
17212.80415071398
 21
9261.369775057692
 31
0.0
  0
TEXT
  5
A4F
330
A46
100
AcDbEntity
  8
1
  6
Continuous
 62
     7
370
    18
100
AcDbText
 10
17183.72570042735
 20
9294.500000000001
 30
0.0
 40
63.0
  1
245
 50
89.99999999999991
 41
0.6666666666666666
 11
17195.23839078268
 21
9294.500000000001
 31
0.0
100
AcDbText
 73
     1
  0
ENDBLK
  5
A50
330
A46
100
AcDbEntity
  8
1
  6
Continuous
 62
     7
370
    18
100
AcDbBlockEnd
  0
BLOCK
  5
A53
330
A52
100
AcDbEntity
  8
1
  6
Continuous
 62
     7
370
    18
100
AcDbBlockBegin
  2
*D37
 70
     0
 10
0.0
 20
0.0
 30
0.0
  3
*D37
  1

  0
LINE
  5
A54
330
A52
100
AcDbEntity
  8
1
  6
Continuous
 62
     7
370
    18
100
AcDbLine
 10
15205.73839078268
 20
9480.0
 30
0.0
 11
15205.73839078268
 21
9235.0
 31
0.0
  0
LINE
  5
A55
330
A52
100
AcDbEntity
  8
1
  6
Continuous
 62
     7
370
    18
100
AcDbLine
 10
15220.43839078268
 20
9480.0
 30
0.0
 11
15081.0
 21
9480.0
 31
0.0
  0
LINE
  5
A56
330
A52
100
AcDbEntity
  8
1
  6
Continuous
 62
     7
370
    18
100
AcDbLine
 10
15220.43839078268
 20
9235.0
 30
0.0
 11
15081.0
 21
9235.0
 31
0.0
  0
LINE
  5
A57
330
A52
100
AcDbEntity
  8
1
  6
Continuous
 62
     7
370
    18
100
AcDbLine
 10
15205.73839078268
 20
9480.0
 30
0.0
 11
15212.80415071398
 21
9453.630224942308
 31
0.0
  0
LINE
  5
A58
330
A52
100
AcDbEntity
  8
1
  6
Continuous
 62
     7
370
    18
100
AcDbLine
 10
15205.73839078268
 20
9480.0
 30
0.0
 11
15198.67263085138
 21
9453.630224942308
 31
0.0
  0
LINE
  5
A59
330
A52
100
AcDbEntity
  8
1
  6
Continuous
 62
     7
370
    18
100
AcDbLine
 10
15205.73839078268
 20
9235.0
 30
0.0
 11
15198.67263085138
 21
9261.369775057692
 31
0.0
  0
LINE
  5
A5A
330
A52
100
AcDbEntity
  8
1
  6
Continuous
 62
     7
370
    18
100
AcDbLine
 10
15205.73839078268
 20
9235.0
 30
0.0
 11
15212.80415071398
 21
9261.369775057692
 31
0.0
  0
TEXT
  5
A5B
330
A52
100
AcDbEntity
  8
1
  6
Continuous
 62
     7
370
    18
100
AcDbText
 10
15183.72570042735
 20
9294.500000000001
 30
0.0
 40
63.0
  1
245
 50
89.99999999999991
 41
0.6666666666666666
 11
15195.23839078268
 21
9294.500000000001
 31
0.0
100
AcDbText
 73
     1
  0
ENDBLK
  5
A5C
330
A52
100
AcDbEntity
  8
1
  6
Continuous
 62
     7
370
    18
100
AcDbBlockEnd
  0
BLOCK
  5
A5F
330
A5E
100
AcDbEntity
  8
1
  6
Continuous
 62
     7
370
    18
100
AcDbBlockBegin
  2
*D38
 70
     0
 10
0.0
 20
0.0
 30
0.0
  3
*D38
  1

  0
LINE
  5
A60
330
A5E
100
AcDbEntity
  8
1
  6
Continuous
 62
     7
370
    18
100
AcDbLine
 10
14967.5
 20
8876.66364785449
 30
0.0
 11
15152.5
 21
8876.66364785449
 31
0.0
  0
LINE
  5
A61
330
A5E
100
AcDbEntity
  8
1
  6
Continuous
 62
     7
370
    18
100
AcDbLine
 10
14967.5
 20
8861.963647854489
 30
0.0
 11
14967.5
 21
9214.0
 31
0.0
  0
LINE
  5
A62
330
A5E
100
AcDbEntity
  8
1
  6
Continuous
 62
     7
370
    18
100
AcDbLine
 10
15152.5
 20
8861.963647854489
 30
0.0
 11
15152.5
 21
9214.0
 31
0.0
  0
LINE
  5
A63
330
A5E
100
AcDbEntity
  8
1
  6
Continuous
 62
     7
370
    18
100
AcDbLine
 10
14967.5
 20
8876.66364785449
 30
0.0
 11
14993.86977505769
 21
8883.729407785788
 31
0.0
  0
LINE
  5
A64
330
A5E
100
AcDbEntity
  8
1
  6
Continuous
 62
     7
370
    18
100
AcDbLine
 10
14967.5
 20
8876.66364785449
 30
0.0
 11
14993.86977505769
 21
8869.597887923191
 31
0.0
  0
LINE
  5
A65
330
A5E
100
AcDbEntity
  8
1
  6
Continuous
 62
     7
370
    18
100
AcDbLine
 10
15152.5
 20
8876.66364785449
 30
0.0
 11
15126.1302249423
 21
8869.597887923191
 31
0.0
  0
LINE
  5
A66
330
A5E
100
AcDbEntity
  8
1
  6
Continuous
 62
     7
370
    18
100
AcDbLine
 10
15152.5
 20
8876.66364785449
 30
0.0
 11
15126.1302249423
 21
8883.729407785788
 31
0.0
  0
TEXT
  5
A67
330
A5E
100
AcDbEntity
  8
1
  6
Continuous
 62
     7
370
    18
100
AcDbText
 10
14955.0
 20
8898.676338209821
 30
0.0
 40
63.0
  1
φ185
 41
1.333333333333333
 11
14955.0
 21
8887.163647854491
 31
0.0
100
AcDbText
 73
     1
  0
ENDBLK
  5
A68
330
A5E
100
AcDbEntity
  8
1
  6
Continuous
 62
     7
370
    18
100
AcDbBlockEnd
  0
BLOCK
  5
A6B
330
A6A
100
AcDbEntity
  8
1
  6
Continuous
 62
     7
370
    18
100
AcDbBlockBegin
  2
*D39
 70
     0
 10
0.0
 20
0.0
 30
0.0
  3
*D39
  1

  0
LINE
  5
A6C
330
A6A
100
AcDbEntity
  8
1
  6
Continuous
 62
     7
370
    18
100
AcDbLine
 10
14060.0
 20
10013.91122995308
 30
0.0
 11
16060.0
 21
10013.91122995308
 31
0.0
  0
LINE
  5
A6D
330
A6A
100
AcDbEntity
  8
1
  6
Continuous
 62
     7
370
    18
100
AcDbLine
 10
14060.0
 20
10034.91122995308
 30
0.0
 11
14060.0
 21
9185.562508470809
 31
0.0
  0
LINE
  5
A6E
330
A6A
100
AcDbEntity
  8
1
  6
Continuous
 62
     7
370
    18
100
AcDbLine
 10
16060.0
 20
10034.91122995308
 30
0.0
 11
16060.0
 21
9177.196311287708
 31
0.0
  0
LINE
  5
A6F
330
A6A
100
AcDbEntity
  8
1
  6
Continuous
 62
     7
370
    18
100
AcDbLine
 10
14060.0
 20
10013.91122995308
 30
0.0
 11
14086.36977505769
 21
10020.97698988438
 31
0.0
  0
LINE
  5
A70
330
A6A
100
AcDbEntity
  8
1
  6
Continuous
 62
     7
370
    18
100
AcDbLine
 10
14060.0
 20
10013.91122995308
 30
0.0
 11
14086.36977505769
 21
10006.84547002179
 31
0.0
  0
LINE
  5
A71
330
A6A
100
AcDbEntity
  8
1
  6
Continuous
 62
     7
370
    18
100
AcDbLine
 10
16060.0
 20
10013.91122995308
 30
0.0
 11
16033.63022494231
 21
10006.84547002179
 31
0.0
  0
LINE
  5
A72
330
A6A
100
AcDbEntity
  8
1
  6
Continuous
 62
     7
370
    18
100
AcDbLine
 10
16060.0
 20
10013.91122995308
 30
0.0
 11
16033.63022494231
 21
10020.97698988438
 31
0.0
  0
TEXT
  5
A73
330
A6A
100
AcDbEntity
  8
1
  6
Continuous
 62
     7
370
    18
100
AcDbText
 10
14976.0
 20
10025.42392030841
 30
0.0
 40
63.0
  1
2000
 41
0.6666666666666666
 11
14976.0
 21
10013.91122995308
 31
0.0
100
AcDbText
 73
     1
  0
ENDBLK
  5
A74
330
A6A
100
AcDbEntity
  8
1
  6
Continuous
 62
     7
370
    18
100
AcDbBlockEnd
  0
BLOCK
  5
A77
330
A76
100
AcDbEntity
  8
1
  6
Continuous
 62
     7
370
    18
100
AcDbBlockBegin
  2
*D40
 70
     0
 10
0.0
 20
0.0
 30
0.0
  3
*D40
  1

  0
LINE
  5
A78
330
A76
100
AcDbEntity
  8
1
  6
Continuous
 62
     7
370
    18
100
AcDbLine
 10
14110.0
 20
9888.232356713649
 30
0.0
 11
16010.0
 21
9888.232356713649
 31
0.0
  0
LINE
  5
A79
330
A76
100
AcDbEntity
  8
1
  6
Continuous
 62
     7
370
    18
100
AcDbLine
 10
14110.0
 20
9909.232356713649
 30
0.0
 11
14110.0
 21
9501.0
 31
0.0
  0
LINE
  5
A7A
330
A76
100
AcDbEntity
  8
1
  6
Continuous
 62
     7
370
    18
100
AcDbLine
 10
16010.0
 20
9909.232356713649
 30
0.0
 11
16010.0
 21
9501.0
 31
0.0
  0
LINE
  5
A7B
330
A76
100
AcDbEntity
  8
1
  6
Continuous
 62
     7
370
    18
100
AcDbLine
 10
14110.0
 20
9888.232356713649
 30
0.0
 11
14136.36977505769
 21
9895.298116644946
 31
0.0
  0
LINE
  5
A7C
330
A76
100
AcDbEntity
  8
1
  6
Continuous
 62
     7
370
    18
100
AcDbLine
 10
14110.0
 20
9888.232356713649
 30
0.0
 11
14136.36977505769
 21
9881.16659678235
 31
0.0
  0
LINE
  5
A7D
330
A76
100
AcDbEntity
  8
1
  6
Continuous
 62
     7
370
    18
100
AcDbLine
 10
16010.0
 20
9888.232356713649
 30
0.0
 11
15983.63022494231
 21
9881.16659678235
 31
0.0
  0
LINE
  5
A7E
330
A76
100
AcDbEntity
  8
1
  6
Continuous
 62
     7
370
    18
100
AcDbLine
 10
16010.0
 20
9888.232356713649
 30
0.0
 11
15983.63022494231
 21
9895.298116644946
 31
0.0
  0
TEXT
  5
A7F
330
A76
100
AcDbEntity
  8
1
  6
Continuous
 62
     7
370
    18
100
AcDbText
 10
14976.0
 20
9899.745047068979
 30
0.0
 40
63.0
  1
1900
 41
0.6666666666666666
 11
14976.0
 21
9888.232356713649
 31
0.0
100
AcDbText
 73
     1
  0
ENDBLK
  5
A80
330
A76
100
AcDbEntity
  8
1
  6
Continuous
 62
     7
370
    18
100
AcDbBlockEnd
  0
BLOCK
  5
A83
330
A82
100
AcDbEntity
  8
1
  6
Continuous
 62
     7
370
    18
100
AcDbBlockBegin
  2
*D41
 70
     0
 10
0.0
 20
0.0
 30
0.0
  3
*D41
  1

  0
LINE
  5
A84
330
A82
100
AcDbEntity
  8
1
  6
Continuous
 62
     7
370
    18
100
AcDbLine
 10
14860.0
 20
9550.461089108017
 30
0.0
 11
15260.0
 21
9550.461089108017
 31
0.0
  0
LINE
  5
A85
330
A82
100
AcDbEntity
  8
1
  6
Continuous
 62
     7
370
    18
100
AcDbLine
 10
14860.0
 20
9571.461089108016
 30
0.0
 11
14860.0
 21
9501.0
 31
0.0
  0
LINE
  5
A86
330
A82
100
AcDbEntity
  8
1
  6
Continuous
 62
     7
370
    18
100
AcDbLine
 10
15260.0
 20
9571.461089108016
 30
0.0
 11
15260.0
 21
9501.0
 31
0.0
  0
LINE
  5
A87
330
A82
100
AcDbEntity
  8
1
  6
Continuous
 62
     7
370
    18
100
AcDbLine
 10
14860.0
 20
9550.461089108017
 30
0.0
 11
14886.36977505769
 21
9557.526849039314
 31
0.0
  0
LINE
  5
A88
330
A82
100
AcDbEntity
  8
1
  6
Continuous
 62
     7
370
    18
100
AcDbLine
 10
14860.0
 20
9550.461089108017
 30
0.0
 11
14886.36977505769
 21
9543.395329176718
 31
0.0
  0
LINE
  5
A89
330
A82
100
AcDbEntity
  8
1
  6
Continuous
 62
     7
370
    18
100
AcDbLine
 10
15260.0
 20
9550.461089108017
 30
0.0
 11
15233.63022494231
 21
9543.395329176718
 31
0.0
  0
LINE
  5
A8A
330
A82
100
AcDbEntity
  8
1
  6
Continuous
 62
     7
370
    18
100
AcDbLine
 10
15260.0
 20
9550.461089108017
 30
0.0
 11
15233.63022494231
 21
9557.526849039314
 31
0.0
  0
TEXT
  5
A8B
330
A82
100
AcDbEntity
  8
1
  6
Continuous
 62
     7
370
    18
100
AcDbText
 10
14997.0
 20
9561.973779463347
 30
0.0
 40
63.0
  1
400
 41
0.6666666666666666
 11
14997.0
 21
9550.461089108017
 31
0.0
100
AcDbText
 73
     1
  0
ENDBLK
  5
A8C
330
A82
100
AcDbEntity
  8
1
  6
Continuous
 62
     7
370
    18
100
AcDbBlockEnd
  0
BLOCK
  5
A8F
330
A8E
100
AcDbEntity
  8
1
  6
Continuous
 62
     7
370
    18
100
AcDbBlockBegin
  2
*D42
 70
     0
 10
0.0
 20
0.0
 30
0.0
  3
*D42
  1

  0
LINE
  5
A90
330
A8E
100
AcDbEntity
  8
1
  6
Continuous
 62
     7
370
    18
100
AcDbLine
 10
14942.58275921461
 20
9480.0
 30
0.0
 11
14942.58275921461
 21
9080.0
 31
0.0
  0
LINE
  5
A91
330
A8E
100
AcDbEntity
  8
1
  6
Continuous
 62
     7
370
    18
100
AcDbLine
 10
14963.58275921461
 20
9480.0
 30
0.0
 11
14923.27628034151
 21
9480.0
 31
0.0
  0
LINE
  5
A92
330
A8E
100
AcDbEntity
  8
1
  6
Continuous
 62
     7
370
    18
100
AcDbLine
 10
14963.58275921461
 20
9080.0
 30
0.0
 11
14922.97881555277
 21
9080.0
 31
0.0
  0
LINE
  5
A93
330
A8E
100
AcDbEntity
  8
1
  6
Continuous
 62
     7
370
    18
100
AcDbLine
 10
14942.58275921461
 20
9480.0
 30
0.0
 11
14949.64851914591
 21
9453.630224942308
 31
0.0
  0
LINE
  5
A94
330
A8E
100
AcDbEntity
  8
1
  6
Continuous
 62
     7
370
    18
100
AcDbLine
 10
14942.58275921461
 20
9480.0
 30
0.0
 11
14935.51699928331
 21
9453.630224942308
 31
0.0
  0
LINE
  5
A95
330
A8E
100
AcDbEntity
  8
1
  6
Continuous
 62
     7
370
    18
100
AcDbLine
 10
14942.58275921461
 20
9080.0
 30
0.0
 11
14935.51699928331
 21
9106.369775057691
 31
0.0
  0
LINE
  5
A96
330
A8E
100
AcDbEntity
  8
1
  6
Continuous
 62
     7
370
    18
100
AcDbLine
 10
14942.58275921461
 20
9080.0
 30
0.0
 11
14949.64851914591
 21
9106.369775057691
 31
0.0
  0
TEXT
  5
A97
330
A8E
100
AcDbEntity
  8
1
  6
Continuous
 62
     7
370
    18
100
AcDbText
 10
14931.07006885928
 20
9217.0
 30
0.0
 40
63.0
  1
400
 50
89.99999999999991
 41
0.6666666666666666
 11
14942.58275921461
 21
9217.0
 31
0.0
100
AcDbText
 73
     1
  0
ENDBLK
  5
A98
330
A8E
100
AcDbEntity
  8
1
  6
Continuous
 62
     7
370
    18
100
AcDbBlockEnd
  0
BLOCK
  5
A9B
330
A9A
100
AcDbEntity
  8
1
  6
Continuous
 62
     7
370
    18
100
AcDbBlockBegin
  2
*D43
 70
     0
 10
0.0
 20
0.0
 30
0.0
  3
*D43
  1

  0
LINE
  5
A9C
330
A9A
100
AcDbEntity
  8
1
  6
Continuous
 62
     7
370
    18
100
AcDbLine
 10
15060.0
 20
9732.955736995341
 30
0.0
 11
16010.0
 21
9732.955736995341
 31
0.0
  0
LINE
  5
A9D
330
A9A
100
AcDbEntity
  8
1
  6
Continuous
 62
     7
370
    18
100
AcDbLine
 10
15060.0
 20
9753.95573699534
 30
0.0
 11
15060.0
 21
9630.634422949515
 31
0.0
  0
LINE
  5
A9E
330
A9A
100
AcDbEntity
  8
1
  6
Continuous
 62
     7
370
    18
100
AcDbLine
 10
16010.0
 20
9753.95573699534
 30
0.0
 11
16010.0
 21
9522.0
 31
0.0
  0
LINE
  5
A9F
330
A9A
100
AcDbEntity
  8
1
  6
Continuous
 62
     7
370
    18
100
AcDbLine
 10
15060.0
 20
9732.955736995341
 30
0.0
 11
15086.36977505769
 21
9740.021496926638
 31
0.0
  0
LINE
  5
AA0
330
A9A
100
AcDbEntity
  8
1
  6
Continuous
 62
     7
370
    18
100
AcDbLine
 10
15060.0
 20
9732.955736995341
 30
0.0
 11
15086.36977505769
 21
9725.889977064042
 31
0.0
  0
LINE
  5
AA1
330
A9A
100
AcDbEntity
  8
1
  6
Continuous
 62
     7
370
    18
100
AcDbLine
 10
16010.0
 20
9732.955736995341
 30
0.0
 11
15983.63022494231
 21
9725.889977064042
 31
0.0
  0
LINE
  5
AA2
330
A9A
100
AcDbEntity
  8
1
  6
Continuous
 62
     7
370
    18
100
AcDbLine
 10
16010.0
 20
9732.955736995341
 30
0.0
 11
15983.63022494231
 21
9740.021496926638
 31
0.0
  0
TEXT
  5
AA3
330
A9A
100
AcDbEntity
  8
1
  6
Continuous
 62
     7
370
    18
100
AcDbText
 10
15472.0
 20
9744.468427350671
 30
0.0
 40
63.0
  1
950
 41
0.6666666666666666
 11
15472.0
 21
9732.955736995341
 31
0.0
100
AcDbText
 73
     1
  0
ENDBLK
  5
AA4
330
A9A
100
AcDbEntity
  8
1
  6
Continuous
 62
     7
370
    18
100
AcDbBlockEnd
  0
BLOCK
  5
AA7
330
AA6
100
AcDbEntity
  8
1
  6
Continuous
 62
     7
370
    18
100
AcDbBlockBegin
  2
*D44
 70
     0
 10
0.0
 20
0.0
 30
0.0
  3
*D44
  1

  0
LINE
  5
AA8
330
AA6
100
AcDbEntity
  8
1
  6
Continuous
 62
     7
370
    18
100
AcDbLine
 10
15060.0
 20
9732.955736995341
 30
0.0
 11
14110.0
 21
9732.955736995341
 31
0.0
  0
LINE
  5
AA9
330
AA6
100
AcDbEntity
  8
1
  6
Continuous
 62
     7
370
    18
100
AcDbLine
 10
15060.0
 20
9753.95573699534
 30
0.0
 11
15060.0
 21
9644.971772347155
 31
0.0
  0
LINE
  5
AAA
330
AA6
100
AcDbEntity
  8
1
  6
Continuous
 62
     7
370
    18
100
AcDbLine
 10
14110.0
 20
9753.95573699534
 30
0.0
 11
14110.0
 21
9522.0
 31
0.0
  0
LINE
  5
AAB
330
AA6
100
AcDbEntity
  8
1
  6
Continuous
 62
     7
370
    18
100
AcDbLine
 10
15060.0
 20
9732.955736995341
 30
0.0
 11
15033.63022494231
 21
9725.889977064042
 31
0.0
  0
LINE
  5
AAC
330
AA6
100
AcDbEntity
  8
1
  6
Continuous
 62
     7
370
    18
100
AcDbLine
 10
15060.0
 20
9732.955736995341
 30
0.0
 11
15033.63022494231
 21
9740.021496926638
 31
0.0
  0
LINE
  5
AAD
330
AA6
100
AcDbEntity
  8
1
  6
Continuous
 62
     7
370
    18
100
AcDbLine
 10
14110.0
 20
9732.955736995341
 30
0.0
 11
14136.36977505769
 21
9740.021496926638
 31
0.0
  0
LINE
  5
AAE
330
AA6
100
AcDbEntity
  8
1
  6
Continuous
 62
     7
370
    18
100
AcDbLine
 10
14110.0
 20
9732.955736995341
 30
0.0
 11
14136.36977505769
 21
9725.889977064042
 31
0.0
  0
TEXT
  5
AAF
330
AA6
100
AcDbEntity
  8
1
  6
Continuous
 62
     7
370
    18
100
AcDbText
 10
14522.0
 20
9744.468427350671
 30
0.0
 40
63.0
  1
950
 41
0.6666666666666666
 11
14522.0
 21
9732.955736995341
 31
0.0
100
AcDbText
 73
     1
  0
ENDBLK
  5
AB0
330
AA6
100
AcDbEntity
  8
1
  6
Continuous
 62
     7
370
    18
100
AcDbBlockEnd
  0
BLOCK
  5
11DD
330
11DC
100
AcDbEntity
  8
1
  6
Continuous
 62
     7
370
    18
100
AcDbBlockBegin
  2
*D45
 70
     0
 10
0.0
 20
0.0
 30
0.0
  3
*D45
  1

  0
LINE
  5
11DE
330
11DC
100
AcDbEntity
  8
1
  6
Continuous
 62
     7
370
    18
100
AcDbLine
 10
2994.51958323942
 20
2696.332518004219
 30
0.0
 11
2994.51958323942
 21
2496.332517666371
 31
0.0
  0
LINE
  5
11DF
330
11DC
100
AcDbEntity
  8
1
  6
Continuous
 62
     7
370
    18
100
AcDbLine
 10
3015.519583239421
 20
2696.332518004219
 30
0.0
 11
2399.745634472842
 21
2696.332518004226
 31
0.0
  0
LINE
  5
11E0
330
11DC
100
AcDbEntity
  8
1
  6
Continuous
 62
     7
370
    18
100
AcDbLine
 10
3015.519583239421
 20
2496.332517666371
 30
0.0
 11
2777.5789678332
 21
2496.332517666373
 31
0.0
  0
LINE
  5
11E1
330
11DC
100
AcDbEntity
  8
1
  6
Continuous
 62
     7
370
    18
100
AcDbLine
 10
2994.51958323942
 20
2696.332518004219
 30
0.0
 11
3001.585343170719
 21
2669.962742946528
 31
0.0
  0
LINE
  5
11E2
330
11DC
100
AcDbEntity
  8
1
  6
Continuous
 62
     7
370
    18
100
AcDbLine
 10
2994.51958323942
 20
2696.332518004219
 30
0.0
 11
2987.453823308122
 21
2669.962742946528
 31
0.0
  0
LINE
  5
11E3
330
11DC
100
AcDbEntity
  8
1
  6
Continuous
 62
     7
370
    18
100
AcDbLine
 10
2994.51958323942
 20
2496.332517666371
 30
0.0
 11
2987.453823308122
 21
2522.702292724063
 31
0.0
  0
LINE
  5
11E4
330
11DC
100
AcDbEntity
  8
1
  6
Continuous
 62
     7
370
    18
100
AcDbLine
 10
2994.51958323942
 20
2496.332517666371
 30
0.0
 11
3001.585343170719
 21
2522.702292724063
 31
0.0
  0
TEXT
  5
11E5
330
11DC
100
AcDbEntity
  8
1
  6
Continuous
 62
     7
370
    18
100
AcDbText
 10
2983.00689288409
 20
2533.332517835296
 30
0.0
 40
63.0
  1
200
 50
89.99999999999991
 41
0.6666666666666666
 11
2994.51958323942
 21
2533.332517835296
 31
0.0
100
AcDbText
 73
     1
  0
ENDBLK
  5
11E6
330
11DC
100
AcDbEntity
  8
1
  6
Continuous
 62
     7
370
    18
100
AcDbBlockEnd
  0
BLOCK
  5
11E9
330
11E8
100
AcDbEntity
  8
1
  6
Continuous
 62
     7
370
    18
100
AcDbBlockBegin
  2
*D46
 70
     0
 10
0.0
 20
0.0
 30
0.0
  3
*D46
  1

  0
LINE
  5
11EA
330
11E8
100
AcDbEntity
  8
1
  6
Continuous
 62
     7
370
    18
100
AcDbLine
 10
2994.51958323942
 20
2496.332517666371
 30
0.0
 11
2994.51958323942
 21
2296.332518004216
 31
0.0
  0
LINE
  5
11EB
330
11E8
100
AcDbEntity
  8
1
  6
Continuous
 62
     7
370
    18
100
AcDbLine
 10
3015.519583239421
 20
2496.332517666371
 30
0.0
 11
2777.5789678332
 21
2496.332517666373
 31
0.0
  0
LINE
  5
11EC
330
11E8
100
AcDbEntity
  8
1
  6
Continuous
 62
     7
370
    18
100
AcDbLine
 10
3015.519583239421
 20
2296.332518004215
 30
0.0
 11
2799.745634472842
 21
2296.332518004218
 31
0.0
  0
LINE
  5
11ED
330
11E8
100
AcDbEntity
  8
1
  6
Continuous
 62
     7
370
    18
100
AcDbLine
 10
2994.51958323942
 20
2496.332517666371
 30
0.0
 11
3001.585343170719
 21
2469.96274260868
 31
0.0
  0
LINE
  5
11EE
330
11E8
100
AcDbEntity
  8
1
  6
Continuous
 62
     7
370
    18
100
AcDbLine
 10
2994.51958323942
 20
2496.332517666371
 30
0.0
 11
2987.453823308122
 21
2469.96274260868
 31
0.0
  0
LINE
  5
11EF
330
11E8
100
AcDbEntity
  8
1
  6
Continuous
 62
     7
370
    18
100
AcDbLine
 10
2994.51958323942
 20
2296.332518004216
 30
0.0
 11
2987.453823308122
 21
2322.702293061908
 31
0.0
  0
LINE
  5
11F0
330
11E8
100
AcDbEntity
  8
1
  6
Continuous
 62
     7
370
    18
100
AcDbLine
 10
2994.51958323942
 20
2296.332518004216
 30
0.0
 11
3001.585343170719
 21
2322.702293061908
 31
0.0
  0
TEXT
  5
11F1
330
11E8
100
AcDbEntity
  8
1
  6
Continuous
 62
     7
370
    18
100
AcDbText
 10
2983.00689288409
 20
2333.332517835293
 30
0.0
 40
63.0
  1
200
 50
89.99999999999991
 41
0.6666666666666666
 11
2994.51958323942
 21
2333.332517835293
 31
0.0
100
AcDbText
 73
     1
  0
ENDBLK
  5
11F2
330
11E8
100
AcDbEntity
  8
1
  6
Continuous
 62
     7
370
    18
100
AcDbBlockEnd
  0
BLOCK
  5
11F5
330
11F4
100
AcDbEntity
  8
1
  6
Continuous
 62
     7
370
    18
100
AcDbBlockBegin
  2
*D47
 70
     0
 10
0.0
 20
0.0
 30
0.0
  3
*D47
  1

  0
LINE
  5
11F6
330
11F4
100
AcDbEntity
  8
1
  6
Continuous
 62
     7
370
    18
100
AcDbLine
 10
2294.745634472846
 20
3141.985720139823
 30
0.0
 11
2694.745634472847
 21
3141.985720139823
 31
0.0
  0
LINE
  5
11F7
330
11F4
100
AcDbEntity
  8
1
  6
Continuous
 62
     7
370
    18
100
AcDbLine
 10
2294.745634472846
 20
3162.985720139823
 30
0.0
 11
2294.745634472842
 21
2801.332518004226
 31
0.0
  0
LINE
  5
11F8
330
11F4
100
AcDbEntity
  8
1
  6
Continuous
 62
     7
370
    18
100
AcDbLine
 10
2694.745634472847
 20
3162.985720139823
 30
0.0
 11
2694.745634472843
 21
2401.332518004227
 31
0.0
  0
LINE
  5
11F9
330
11F4
100
AcDbEntity
  8
1
  6
Continuous
 62
     7
370
    18
100
AcDbLine
 10
2294.745634472846
 20
3141.985720139823
 30
0.0
 11
2321.115409530537
 21
3149.051480071122
 31
0.0
  0
LINE
  5
11FA
330
11F4
100
AcDbEntity
  8
1
  6
Continuous
 62
     7
370
    18
100
AcDbLine
 10
2294.745634472846
 20
3141.985720139823
 30
0.0
 11
2321.115409530537
 21
3134.919960208524
 31
0.0
  0
LINE
  5
11FB
330
11F4
100
AcDbEntity
  8
1
  6
Continuous
 62
     7
370
    18
100
AcDbLine
 10
2694.745634472847
 20
3141.985720139823
 30
0.0
 11
2668.375859415156
 21
3134.919960208524
 31
0.0
  0
LINE
  5
11FC
330
11F4
100
AcDbEntity
  8
1
  6
Continuous
 62
     7
370
    18
100
AcDbLine
 10
2694.745634472847
 20
3141.985720139823
 30
0.0
 11
2668.375859415156
 21
3149.051480071122
 31
0.0
  0
TEXT
  5
11FD
330
11F4
100
AcDbEntity
  8
1
  6
Continuous
 62
     7
370
    18
100
AcDbText
 10
2431.745634472845
 20
3153.498410495153
 30
0.0
 40
63.0
  1
400
 41
0.6666666666666666
 11
2431.745634472845
 21
3141.985720139823
 31
0.0
100
AcDbText
 73
     1
  0
ENDBLK
  5
11FE
330
11F4
100
AcDbEntity
  8
1
  6
Continuous
 62
     7
370
    18
100
AcDbBlockEnd
  0
BLOCK
  5
1201
330
1200
100
AcDbEntity
  8
1
  6
Continuous
 62
     7
370
    18
100
AcDbBlockBegin
  2
*D48
 70
     0
 10
0.0
 20
0.0
 30
0.0
  3
*D48
  1

  0
LINE
  5
1202
330
1200
100
AcDbEntity
  8
1
  6
Continuous
 62
     7
370
    18
100
AcDbLine
 10
3187.187526900743
 20
2696.332518004218
 30
0.0
 11
3187.187526900743
 21
2216.332518004221
 31
0.0
  0
LINE
  5
1203
330
1200
100
AcDbEntity
  8
1
  6
Continuous
 62
     7
370
    18
100
AcDbLine
 10
3208.187526900744
 20
2696.332518004218
 30
0.0
 11
2399.745634472842
 21
2696.332518004226
 31
0.0
  0
LINE
  5
1204
330
1200
100
AcDbEntity
  8
1
  6
Continuous
 62
     7
370
    18
100
AcDbLine
 10
3208.187526900744
 20
2216.332518004221
 30
0.0
 11
2799.745634472842
 21
2216.332518004225
 31
0.0
  0
LINE
  5
1205
330
1200
100
AcDbEntity
  8
1
  6
Continuous
 62
     7
370
    18
100
AcDbLine
 10
3187.187526900743
 20
2696.332518004218
 30
0.0
 11
3194.253286832042
 21
2669.962742946526
 31
0.0
  0
LINE
  5
1206
330
1200
100
AcDbEntity
  8
1
  6
Continuous
 62
     7
370
    18
100
AcDbLine
 10
3187.187526900743
 20
2696.332518004218
 30
0.0
 11
3180.121766969445
 21
2669.962742946526
 31
0.0
  0
LINE
  5
1207
330
1200
100
AcDbEntity
  8
1
  6
Continuous
 62
     7
370
    18
100
AcDbLine
 10
3187.187526900743
 20
2216.332518004221
 30
0.0
 11
3180.121766969444
 21
2242.702293061913
 31
0.0
  0
LINE
  5
1208
330
1200
100
AcDbEntity
  8
1
  6
Continuous
 62
     7
370
    18
100
AcDbLine
 10
3187.187526900743
 20
2216.332518004221
 30
0.0
 11
3194.253286832042
 21
2242.702293061913
 31
0.0
  0
TEXT
  5
1209
330
1200
100
AcDbEntity
  8
1
  6
Continuous
 62
     7
370
    18
100
AcDbText
 10
3175.674836545413
 20
2393.332518004219
 30
0.0
 40
63.0
  1
480
 50
89.99999999999992
 41
0.6666666666666666
 11
3187.187526900743
 21
2393.332518004219
 31
0.0
100
AcDbText
 73
     1
  0
ENDBLK
  5
120A
330
1200
100
AcDbEntity
  8
1
  6
Continuous
 62
     7
370
    18
100
AcDbBlockEnd
  0
BLOCK
  5
120D
330
120C
100
AcDbEntity
  8
1
  6
Continuous
 62
     7
370
    18
100
AcDbBlockBegin
  2
*D49
 70
     0
 10
0.0
 20
0.0
 30
0.0
  3
*D49
  1

  0
LINE
  5
120E
330
120C
100
AcDbEntity
  8
1
  6
Continuous
 62
     7
370
    18
100
AcDbLine
 10
1894.745634472841
 20
3141.985720139823
 30
0.0
 11
2294.745634472842
 21
3141.985720139823
 31
0.0
  0
LINE
  5
120F
330
120C
100
AcDbEntity
  8
1
  6
Continuous
 62
     7
370
    18
100
AcDbLine
 10
1894.745634472841
 20
3162.985720139823
 30
0.0
 11
1894.745634472841
 21
2707.332518004227
 31
0.0
  0
LINE
  5
1210
330
120C
100
AcDbEntity
  8
1
  6
Continuous
 62
     7
370
    18
100
AcDbLine
 10
2294.745634472842
 20
3162.985720139823
 30
0.0
 11
2294.745634472842
 21
2717.332518004227
 31
0.0
  0
LINE
  5
1211
330
120C
100
AcDbEntity
  8
1
  6
Continuous
 62
     7
370
    18
100
AcDbLine
 10
1894.745634472841
 20
3141.985720139823
 30
0.0
 11
1921.115409530533
 21
3149.051480071122
 31
0.0
  0
LINE
  5
1212
330
120C
100
AcDbEntity
  8
1
  6
Continuous
 62
     7
370
    18
100
AcDbLine
 10
1894.745634472841
 20
3141.985720139823
 30
0.0
 11
1921.115409530533
 21
3134.919960208524
 31
0.0
  0
LINE
  5
1213
330
120C
100
AcDbEntity
  8
1
  6
Continuous
 62
     7
370
    18
100
AcDbLine
 10
2294.745634472842
 20
3141.985720139823
 30
0.0
 11
2268.37585941515
 21
3134.919960208524
 31
0.0
  0
LINE
  5
1214
330
120C
100
AcDbEntity
  8
1
  6
Continuous
 62
     7
370
    18
100
AcDbLine
 10
2294.745634472842
 20
3141.985720139823
 30
0.0
 11
2268.37585941515
 21
3149.051480071122
 31
0.0
  0
TEXT
  5
1215
330
120C
100
AcDbEntity
  8
1
  6
Continuous
 62
     7
370
    18
100
AcDbText
 10
2031.745634472842
 20
3153.498410495153
 30
0.0
 40
63.0
  1
400
 41
0.6666666666666666
 11
2031.745634472842
 21
3141.985720139823
 31
0.0
100
AcDbText
 73
     1
  0
ENDBLK
  5
1216
330
120C
100
AcDbEntity
  8
1
  6
Continuous
 62
     7
370
    18
100
AcDbBlockEnd
  0
BLOCK
  5
1219
330
1218
100
AcDbEntity
  8
1
  6
Continuous
 62
     7
370
    18
100
AcDbBlockBegin
  2
*D50
 70
     0
 10
0.0
 20
0.0
 30
0.0
  3
*D50
  1

  0
LINE
  5
121A
330
1218
100
AcDbEntity
  8
1
  6
Continuous
 62
     7
370
    18
100
AcDbLine
 10
2994.51958323942
 20
2296.332518004223
 30
0.0
 11
2994.51958323942
 21
2216.332518004223
 31
0.0
  0
LINE
  5
121B
330
1218
100
AcDbEntity
  8
1
  6
Continuous
 62
     7
370
    18
100
AcDbLine
 10
3015.519583239421
 20
2296.332518004223
 30
0.0
 11
2715.745634472842
 21
2296.332518004226
 31
0.0
  0
LINE
  5
121C
330
1218
100
AcDbEntity
  8
1
  6
Continuous
 62
     7
370
    18
100
AcDbLine
 10
3015.519583239421
 20
2216.332518004223
 30
0.0
 11
2715.745634472842
 21
2216.332518004226
 31
0.0
  0
LINE
  5
121D
330
1218
100
AcDbEntity
  8
1
  6
Continuous
 62
     7
370
    18
100
AcDbLine
 10
2994.51958323942
 20
2296.332518004223
 30
0.0
 11
3001.585343170719
 21
2269.962742946531
 31
0.0
  0
LINE
  5
121E
330
1218
100
AcDbEntity
  8
1
  6
Continuous
 62
     7
370
    18
100
AcDbLine
 10
2994.51958323942
 20
2296.332518004223
 30
0.0
 11
2987.453823308122
 21
2269.962742946531
 31
0.0
  0
LINE
  5
121F
330
1218
100
AcDbEntity
  8
1
  6
Continuous
 62
     7
370
    18
100
AcDbLine
 10
2994.51958323942
 20
2216.332518004223
 30
0.0
 11
2987.453823308122
 21
2242.702293061915
 31
0.0
  0
LINE
  5
1220
330
1218
100
AcDbEntity
  8
1
  6
Continuous
 62
     7
370
    18
100
AcDbLine
 10
2994.51958323942
 20
2216.332518004223
 30
0.0
 11
3001.585343170719
 21
2242.702293061915
 31
0.0
  0
TEXT
  5
1221
330
1218
100
AcDbEntity
  8
1
  6
Continuous
 62
     7
370
    18
100
AcDbText
 10
2983.00689288409
 20
2214.332518004223
 30
0.0
 40
63.0
  1
80
 50
89.99999999999991
 41
0.6666666666666666
 11
2994.51958323942
 21
2214.332518004223
 31
0.0
100
AcDbText
 73
     1
  0
ENDBLK
  5
1222
330
1218
100
AcDbEntity
  8
1
  6
Continuous
 62
     7
370
    18
100
AcDbBlockEnd
  0
BLOCK
  5
1225
330
1224
100
AcDbEntity
  8
1
  6
Continuous
 62
     7
370
    18
100
AcDbBlockBegin
  2
*D51
 70
     0
 10
0.0
 20
0.0
 30
0.0
  3
*D51
  1

  0
LINE
  5
1226
330
1224
100
AcDbEntity
  8
1
  6
Continuous
 62
     7
370
    18
100
AcDbLine
 10
1894.745634472838
 20
1820.983578943229
 30
0.0
 11
2694.745634472838
 21
1820.983578943229
 31
0.0
  0
LINE
  5
1227
330
1224
100
AcDbEntity
  8
1
  6
Continuous
 62
     7
370
    18
100
AcDbLine
 10
1894.745634472837
 20
1799.983578943229
 30
0.0
 11
1894.745634472841
 21
2195.332518004227
 31
0.0
  0
LINE
  5
1228
330
1224
100
AcDbEntity
  8
1
  6
Continuous
 62
     7
370
    18
100
AcDbLine
 10
2694.745634472838
 20
1799.983578943229
 30
0.0
 11
2694.745634472841
 21
2195.332518004227
 31
0.0
  0
LINE
  5
1229
330
1224
100
AcDbEntity
  8
1
  6
Continuous
 62
     7
370
    18
100
AcDbLine
 10
1894.745634472838
 20
1820.983578943229
 30
0.0
 11
1921.11540953053
 21
1828.049338874528
 31
0.0
  0
LINE
  5
122A
330
1224
100
AcDbEntity
  8
1
  6
Continuous
 62
     7
370
    18
100
AcDbLine
 10
1894.745634472838
 20
1820.983578943229
 30
0.0
 11
1921.11540953053
 21
1813.91781901193
 31
0.0
  0
LINE
  5
122B
330
1224
100
AcDbEntity
  8
1
  6
Continuous
 62
     7
370
    18
100
AcDbLine
 10
2694.745634472838
 20
1820.983578943229
 30
0.0
 11
2668.375859415146
 21
1813.91781901193
 31
0.0
  0
LINE
  5
122C
330
1224
100
AcDbEntity
  8
1
  6
Continuous
 62
     7
370
    18
100
AcDbLine
 10
2694.745634472838
 20
1820.983578943229
 30
0.0
 11
2668.375859415146
 21
1828.049338874528
 31
0.0
  0
TEXT
  5
122D
330
1224
100
AcDbEntity
  8
1
  6
Continuous
 62
     7
370
    18
100
AcDbText
 10
2231.745634472838
 20
1832.496269298559
 30
0.0
 40
63.0
  1
800
 41
0.6666666666666666
 11
2231.745634472838
 21
1820.983578943229
 31
0.0
100
AcDbText
 73
     1
  0
ENDBLK
  5
122E
330
1224
100
AcDbEntity
  8
1
  6
Continuous
 62
     7
370
    18
100
AcDbBlockEnd
  0
BLOCK
  5
1231
330
1230
100
AcDbEntity
  8
1
  6
Continuous
 62
     7
370
    18
100
AcDbBlockBegin
  2
*D52
 70
     0
 10
0.0
 20
0.0
 30
0.0
  3
*D52
  1

  0
LINE
  5
1232
330
1230
100
AcDbEntity
  8
1
  6
Continuous
 62
     7
370
    18
100
AcDbLine
 10
5249.444429651412
 20
3569.288254999565
 30
0.0
 11
4299.444429651412
 21
3569.288254999565
 31
0.0
  0
LINE
  5
1233
330
1230
100
AcDbEntity
  8
1
  6
Continuous
 62
     7
370
    18
100
AcDbLine
 10
5249.444429651412
 20
3590.288254999565
 30
0.0
 11
5249.444429651412
 21
3481.30429035138
 31
0.0
  0
LINE
  5
1234
330
1230
100
AcDbEntity
  8
1
  6
Continuous
 62
     7
370
    18
100
AcDbLine
 10
4299.444429651412
 20
3590.288254999565
 30
0.0
 11
4299.444429651412
 21
3358.332518004227
 31
0.0
  0
LINE
  5
1235
330
1230
100
AcDbEntity
  8
1
  6
Continuous
 62
     7
370
    18
100
AcDbLine
 10
5249.444429651412
 20
3569.288254999565
 30
0.0
 11
5223.074654593721
 21
3562.222495068267
 31
0.0
  0
LINE
  5
1236
330
1230
100
AcDbEntity
  8
1
  6
Continuous
 62
     7
370
    18
100
AcDbLine
 10
5249.444429651412
 20
3569.288254999565
 30
0.0
 11
5223.074654593721
 21
3576.354014930864
 31
0.0
  0
LINE
  5
1237
330
1230
100
AcDbEntity
  8
1
  6
Continuous
 62
     7
370
    18
100
AcDbLine
 10
4299.444429651412
 20
3569.288254999565
 30
0.0
 11
4325.814204709103
 21
3576.354014930864
 31
0.0
  0
LINE
  5
1238
330
1230
100
AcDbEntity
  8
1
  6
Continuous
 62
     7
370
    18
100
AcDbLine
 10
4299.444429651412
 20
3569.288254999565
 30
0.0
 11
4325.814204709103
 21
3562.222495068266
 31
0.0
  0
TEXT
  5
1239
330
1230
100
AcDbEntity
  8
1
  6
Continuous
 62
     7
370
    18
100
AcDbText
 10
4711.444429651412
 20
3580.800945354895
 30
0.0
 40
63.0
  1
950
 41
0.6666666666666666
 11
4711.444429651412
 21
3569.288254999565
 31
0.0
100
AcDbText
 73
     1
  0
ENDBLK
  5
123A
330
1230
100
AcDbEntity
  8
1
  6
Continuous
 62
     7
370
    18
100
AcDbBlockEnd
  0
BLOCK
  5
123D
330
123C
100
AcDbEntity
  8
1
  6
Continuous
 62
     7
370
    18
100
AcDbBlockBegin
  2
*D53
 70
     0
 10
0.0
 20
0.0
 30
0.0
  3
*D53
  1

  0
LINE
  5
123E
330
123C
100
AcDbEntity
  8
1
  6
Continuous
 62
     7
370
    18
100
AcDbLine
 10
5249.444429651412
 20
3569.288254999565
 30
0.0
 11
6199.444429651412
 21
3569.288254999565
 31
0.0
  0
LINE
  5
123F
330
123C
100
AcDbEntity
  8
1
  6
Continuous
 62
     7
370
    18
100
AcDbLine
 10
5249.444429651412
 20
3590.288254999565
 30
0.0
 11
5249.444429651412
 21
3466.966940953744
 31
0.0
  0
LINE
  5
1240
330
123C
100
AcDbEntity
  8
1
  6
Continuous
 62
     7
370
    18
100
AcDbLine
 10
6199.444429651412
 20
3590.288254999565
 30
0.0
 11
6199.444429651412
 21
3358.332518004227
 31
0.0
  0
LINE
  5
1241
330
123C
100
AcDbEntity
  8
1
  6
Continuous
 62
     7
370
    18
100
AcDbLine
 10
5249.444429651412
 20
3569.288254999565
 30
0.0
 11
5275.814204709103
 21
3576.354014930864
 31
0.0
  0
LINE
  5
1242
330
123C
100
AcDbEntity
  8
1
  6
Continuous
 62
     7
370
    18
100
AcDbLine
 10
5249.444429651412
 20
3569.288254999565
 30
0.0
 11
5275.814204709103
 21
3562.222495068266
 31
0.0
  0
LINE
  5
1243
330
123C
100
AcDbEntity
  8
1
  6
Continuous
 62
     7
370
    18
100
AcDbLine
 10
6199.444429651412
 20
3569.288254999565
 30
0.0
 11
6173.074654593721
 21
3562.222495068267
 31
0.0
  0
LINE
  5
1244
330
123C
100
AcDbEntity
  8
1
  6
Continuous
 62
     7
370
    18
100
AcDbLine
 10
6199.444429651412
 20
3569.288254999565
 30
0.0
 11
6173.074654593721
 21
3576.354014930864
 31
0.0
  0
TEXT
  5
1245
330
123C
100
AcDbEntity
  8
1
  6
Continuous
 62
     7
370
    18
100
AcDbText
 10
5661.444429651412
 20
3580.800945354895
 30
0.0
 40
63.0
  1
950
 41
0.6666666666666666
 11
5661.444429651412
 21
3569.288254999565
 31
0.0
100
AcDbText
 73
     1
  0
ENDBLK
  5
1246
330
123C
100
AcDbEntity
  8
1
  6
Continuous
 62
     7
370
    18
100
AcDbBlockEnd
  0
BLOCK
  5
1249
330
1248
100
AcDbEntity
  8
1
  6
Continuous
 62
     7
370
    18
100
AcDbBlockBegin
  2
*D54
 70
     0
 10
0.0
 20
0.0
 30
0.0
  3
*D54
  1

  0
LINE
  5
124A
330
1248
100
AcDbEntity
  8
1
  6
Continuous
 62
     7
370
    18
100
AcDbLine
 10
5132.027188866024
 20
3316.332518004227
 30
0.0
 11
5132.027188866024
 21
2916.332518004227
 31
0.0
  0
LINE
  5
124B
330
1248
100
AcDbEntity
  8
1
  6
Continuous
 62
     7
370
    18
100
AcDbLine
 10
5153.027188866024
 20
3316.332518004227
 30
0.0
 11
5112.720709992924
 21
3316.332518004227
 31
0.0
  0
LINE
  5
124C
330
1248
100
AcDbEntity
  8
1
  6
Continuous
 62
     7
370
    18
100
AcDbLine
 10
5153.027188866024
 20
2916.332518004227
 30
0.0
 11
5112.423245204189
 21
2916.332518004227
 31
0.0
  0
LINE
  5
124D
330
1248
100
AcDbEntity
  8
1
  6
Continuous
 62
     7
370
    18
100
AcDbLine
 10
5132.027188866024
 20
3316.332518004227
 30
0.0
 11
5139.092948797324
 21
3289.962742946535
 31
0.0
  0
LINE
  5
124E
330
1248
100
AcDbEntity
  8
1
  6
Continuous
 62
     7
370
    18
100
AcDbLine
 10
5132.027188866024
 20
3316.332518004227
 30
0.0
 11
5124.961428934725
 21
3289.962742946535
 31
0.0
  0
LINE
  5
124F
330
1248
100
AcDbEntity
  8
1
  6
Continuous
 62
     7
370
    18
100
AcDbLine
 10
5132.027188866024
 20
2916.332518004227
 30
0.0
 11
5124.961428934725
 21
2942.702293061918
 31
0.0
  0
LINE
  5
1250
330
1248
100
AcDbEntity
  8
1
  6
Continuous
 62
     7
370
    18
100
AcDbLine
 10
5132.027188866024
 20
2916.332518004227
 30
0.0
 11
5139.092948797324
 21
2942.702293061918
 31
0.0
  0
TEXT
  5
1251
330
1248
100
AcDbEntity
  8
1
  6
Continuous
 62
     7
370
    18
100
AcDbText
 10
5120.514498510694
 20
3053.332518004227
 30
0.0
 40
63.0
  1
400
 50
89.99999999999991
 41
0.6666666666666666
 11
5132.027188866024
 21
3053.332518004227
 31
0.0
100
AcDbText
 73
     1
  0
ENDBLK
  5
1252
330
1248
100
AcDbEntity
  8
1
  6
Continuous
 62
     7
370
    18
100
AcDbBlockEnd
  0
BLOCK
  5
1255
330
1254
100
AcDbEntity
  8
1
  6
Continuous
 62
     7
370
    18
100
AcDbBlockBegin
  2
*D55
 70
     0
 10
0.0
 20
0.0
 30
0.0
  3
*D55
  1

  0
LINE
  5
1256
330
1254
100
AcDbEntity
  8
1
  6
Continuous
 62
     7
370
    18
100
AcDbLine
 10
3814.444429651413
 20
2916.332518004228
 30
0.0
 11
3814.444429651413
 21
2516.332518004229
 31
0.0
  0
LINE
  5
1257
330
1254
100
AcDbEntity
  8
1
  6
Continuous
 62
     7
370
    18
100
AcDbLine
 10
3793.444429651412
 20
2916.332518004228
 30
0.0
 11
4253.444429651412
 21
2916.332518004227
 31
0.0
  0
LINE
  5
1258
330
1254
100
AcDbEntity
  8
1
  6
Continuous
 62
     7
370
    18
100
AcDbLine
 10
3793.444429651412
 20
2516.332518004229
 30
0.0
 11
4265.944429651412
 21
2516.332518004227
 31
0.0
  0
LINE
  5
1259
330
1254
100
AcDbEntity
  8
1
  6
Continuous
 62
     7
370
    18
100
AcDbLine
 10
3814.444429651413
 20
2916.332518004228
 30
0.0
 11
3821.510189582711
 21
2889.962742946537
 31
0.0
  0
LINE
  5
125A
330
1254
100
AcDbEntity
  8
1
  6
Continuous
 62
     7
370
    18
100
AcDbLine
 10
3814.444429651413
 20
2916.332518004228
 30
0.0
 11
3807.378669720114
 21
2889.962742946537
 31
0.0
  0
LINE
  5
125B
330
1254
100
AcDbEntity
  8
1
  6
Continuous
 62
     7
370
    18
100
AcDbLine
 10
3814.444429651413
 20
2516.332518004229
 30
0.0
 11
3807.378669720114
 21
2542.70229306192
 31
0.0
  0
LINE
  5
125C
330
1254
100
AcDbEntity
  8
1
  6
Continuous
 62
     7
370
    18
100
AcDbLine
 10
3814.444429651413
 20
2516.332518004229
 30
0.0
 11
3821.510189582711
 21
2542.70229306192
 31
0.0
  0
TEXT
  5
125D
330
1254
100
AcDbEntity
  8
1
  6
Continuous
 62
     7
370
    18
100
AcDbText
 10
3802.931739296082
 20
2653.332518004229
 30
0.0
 40
63.0
  1
400
 50
89.99999999999991
 41
0.6666666666666666
 11
3814.444429651413
 21
2653.332518004229
 31
0.0
100
AcDbText
 73
     1
  0
ENDBLK
  5
125E
330
1254
100
AcDbEntity
  8
1
  6
Continuous
 62
     7
370
    18
100
AcDbBlockEnd
  0
BLOCK
  5
1261
330
1260
100
AcDbEntity
  8
1
  6
Continuous
 62
     7
370
    18
100
AcDbBlockBegin
  2
*D56
 70
     0
 10
0.0
 20
0.0
 30
0.0
  3
*D56
  1

  0
LINE
  5
1262
330
1260
100
AcDbEntity
  8
1
  6
Continuous
 62
     7
370
    18
100
AcDbLine
 10
3969.136909107657
 20
2916.332518004228
 30
0.0
 11
3969.136909107657
 21
2516.332518004229
 31
0.0
  0
LINE
  5
1263
330
1260
100
AcDbEntity
  8
1
  6
Continuous
 62
     7
370
    18
100
AcDbLine
 10
3948.136909107658
 20
2916.332518004228
 30
0.0
 11
4253.444429651412
 21
2916.332518004227
 31
0.0
  0
LINE
  5
1264
330
1260
100
AcDbEntity
  8
1
  6
Continuous
 62
     7
370
    18
100
AcDbLine
 10
3948.136909107658
 20
2516.332518004229
 30
0.0
 11
4265.944429651412
 21
2516.332518004227
 31
0.0
  0
LINE
  5
1265
330
1260
100
AcDbEntity
  8
1
  6
Continuous
 62
     7
370
    18
100
AcDbLine
 10
3969.136909107657
 20
2916.332518004228
 30
0.0
 11
3976.202669038957
 21
2889.962742946537
 31
0.0
  0
LINE
  5
1266
330
1260
100
AcDbEntity
  8
1
  6
Continuous
 62
     7
370
    18
100
AcDbLine
 10
3969.136909107657
 20
2916.332518004228
 30
0.0
 11
3962.07114917636
 21
2889.962742946537
 31
0.0
  0
LINE
  5
1267
330
1260
100
AcDbEntity
  8
1
  6
Continuous
 62
     7
370
    18
100
AcDbLine
 10
3969.136909107657
 20
2516.332518004229
 30
0.0
 11
3962.07114917636
 21
2542.70229306192
 31
0.0
  0
LINE
  5
1268
330
1260
100
AcDbEntity
  8
1
  6
Continuous
 62
     7
370
    18
100
AcDbLine
 10
3969.136909107657
 20
2516.332518004229
 30
0.0
 11
3976.202669038957
 21
2542.70229306192
 31
0.0
  0
TEXT
  5
1269
330
1260
100
AcDbEntity
  8
1
  6
Continuous
 62
     7
370
    18
100
AcDbText
 10
3957.624218752328
 20
2653.332518004229
 30
0.0
 40
63.0
  1
400
 50
89.99999999999991
 41
0.6666666666666666
 11
3969.136909107657
 21
2653.332518004229
 31
0.0
100
AcDbText
 73
     1
  0
ENDBLK
  5
126A
330
1260
100
AcDbEntity
  8
1
  6
Continuous
 62
     7
370
    18
100
AcDbBlockEnd
  0
BLOCK
  5
126D
330
126C
100
AcDbEntity
  8
1
  6
Continuous
 62
     7
370
    18
100
AcDbBlockBegin
  2
*D57
 70
     0
 10
0.0
 20
0.0
 30
0.0
  3
*D57
  1

  0
LINE
  5
126E
330
126C
100
AcDbEntity
  8
1
  6
Continuous
 62
     7
370
    18
100
AcDbLine
 10
5049.444429651412
 20
3386.79360711224
 30
0.0
 11
5449.444429651412
 21
3386.79360711224
 31
0.0
  0
LINE
  5
126F
330
126C
100
AcDbEntity
  8
1
  6
Continuous
 62
     7
370
    18
100
AcDbLine
 10
5049.444429651412
 20
3407.79360711224
 30
0.0
 11
5049.444429651412
 21
3337.332518004227
 31
0.0
  0
LINE
  5
1270
330
126C
100
AcDbEntity
  8
1
  6
Continuous
 62
     7
370
    18
100
AcDbLine
 10
5449.444429651412
 20
3407.79360711224
 30
0.0
 11
5449.444429651412
 21
3337.332518004227
 31
0.0
  0
LINE
  5
1271
330
126C
100
AcDbEntity
  8
1
  6
Continuous
 62
     7
370
    18
100
AcDbLine
 10
5049.444429651412
 20
3386.79360711224
 30
0.0
 11
5075.814204709104
 21
3393.859367043539
 31
0.0
  0
LINE
  5
1272
330
126C
100
AcDbEntity
  8
1
  6
Continuous
 62
     7
370
    18
100
AcDbLine
 10
5049.444429651412
 20
3386.79360711224
 30
0.0
 11
5075.814204709104
 21
3379.727847180941
 31
0.0
  0
LINE
  5
1273
330
126C
100
AcDbEntity
  8
1
  6
Continuous
 62
     7
370
    18
100
AcDbLine
 10
5449.444429651412
 20
3386.79360711224
 30
0.0
 11
5423.074654593721
 21
3379.727847180942
 31
0.0
  0
LINE
  5
1274
330
126C
100
AcDbEntity
  8
1
  6
Continuous
 62
     7
370
    18
100
AcDbLine
 10
5449.444429651412
 20
3386.79360711224
 30
0.0
 11
5423.074654593721
 21
3393.859367043539
 31
0.0
  0
TEXT
  5
1275
330
126C
100
AcDbEntity
  8
1
  6
Continuous
 62
     7
370
    18
100
AcDbText
 10
5186.444429651412
 20
3398.30629746757
 30
0.0
 40
63.0
  1
400
 41
0.6666666666666666
 11
5186.444429651412
 21
3386.79360711224
 31
0.0
100
AcDbText
 73
     1
  0
ENDBLK
  5
1276
330
126C
100
AcDbEntity
  8
1
  6
Continuous
 62
     7
370
    18
100
AcDbBlockEnd
  0
BLOCK
  5
1279
330
1278
100
AcDbEntity
  8
1
  6
Continuous
 62
     7
370
    18
100
AcDbBlockBegin
  2
*D58
 70
     0
 10
0.0
 20
0.0
 30
0.0
  3
*D58
  1

  0
LINE
  5
127A
330
1278
100
AcDbEntity
  8
1
  6
Continuous
 62
     7
370
    18
100
AcDbLine
 10
4341.444429651414
 20
3724.564874717877
 30
0.0
 11
4131.84719495637
 21
3724.564874717877
 31
0.0
  0
LINE
  5
127B
330
1278
100
AcDbEntity
  8
1
  6
Continuous
 62
     7
370
    18
100
AcDbLine
 10
4299.444429651414
 20
3735.064874717877
 30
0.0
 11
4299.444429651412
 21
3337.332518004227
 31
0.0
  0
LINE
  5
127C
330
1278
100
AcDbEntity
  8
1
  6
Continuous
 62
     7
370
    18
100
AcDbLine
 10
4249.444429651417
 20
3735.064874717877
 30
0.0
 11
4249.444429651412
 21
2997.332518004227
 31
0.0
  0
LINE
  5
127D
330
1278
100
AcDbEntity
  8
1
  6
Continuous
 62
     7
370
    18
100
AcDbLine
 10
4299.444429651414
 20
3724.564874717877
 30
0.0
 11
4325.814204709105
 21
3731.630634649175
 31
0.0
  0
LINE
  5
127E
330
1278
100
AcDbEntity
  8
1
  6
Continuous
 62
     7
370
    18
100
AcDbLine
 10
4299.444429651414
 20
3724.564874717877
 30
0.0
 11
4325.814204709105
 21
3717.499114786578
 31
0.0
  0
LINE
  5
127F
330
1278
100
AcDbEntity
  8
1
  6
Continuous
 62
     7
370
    18
100
AcDbLine
 10
4249.444429651417
 20
3724.564874717877
 30
0.0
 11
4223.074654593726
 21
3717.499114786579
 31
0.0
  0
LINE
  5
1280
330
1278
100
AcDbEntity
  8
1
  6
Continuous
 62
     7
370
    18
100
AcDbLine
 10
4249.444429651417
 20
3724.564874717877
 30
0.0
 11
4223.074654593726
 21
3731.630634649176
 31
0.0
  0
TEXT
  5
1281
330
1278
100
AcDbEntity
  8
1
  6
Continuous
 62
     7
370
    18
100
AcDbText
 10
4131.84719495637
 20
3736.077565073207
 30
0.0
 40
63.0
  1
50
 41
0.6666666666666666
 11
4131.84719495637
 21
3724.564874717877
 31
0.0
100
AcDbText
 73
     1
  0
ENDBLK
  5
1282
330
1278
100
AcDbEntity
  8
1
  6
Continuous
 62
     7
370
    18
100
AcDbBlockEnd
  0
BLOCK
  5
1285
330
1284
100
AcDbEntity
  8
1
  6
Continuous
 62
     7
370
    18
100
AcDbBlockBegin
  2
*D59
 70
     0
 10
0.0
 20
0.0
 30
0.0
  3
*D59
  1

  0
LINE
  5
1286
330
1284
100
AcDbEntity
  8
1
  6
Continuous
 62
     7
370
    18
100
AcDbLine
 10
6157.444429651413
 20
3724.564874717877
 30
0.0
 11
6378.111532984547
 21
3724.564874717877
 31
0.0
  0
LINE
  5
1287
330
1284
100
AcDbEntity
  8
1
  6
Continuous
 62
     7
370
    18
100
AcDbLine
 10
6249.444429651412
 20
3745.564874717877
 30
0.0
 11
6249.444429651412
 21
3635.159589855327
 31
0.0
  0
LINE
  5
1288
330
1284
100
AcDbEntity
  8
1
  6
Continuous
 62
     7
370
    18
100
AcDbLine
 10
6199.444429651412
 20
3724.564874717877
 30
0.0
 11
6173.074654593721
 21
3717.499114786579
 31
0.0
  0
LINE
  5
1289
330
1284
100
AcDbEntity
  8
1
  6
Continuous
 62
     7
370
    18
100
AcDbLine
 10
6199.444429651412
 20
3724.564874717877
 30
0.0
 11
6173.074654593721
 21
3731.630634649176
 31
0.0
  0
LINE
  5
128A
330
1284
100
AcDbEntity
  8
1
  6
Continuous
 62
     7
370
    18
100
AcDbLine
 10
6249.444429651412
 20
3724.564874717877
 30
0.0
 11
6275.814204709103
 21
3731.630634649175
 31
0.0
  0
LINE
  5
128B
330
1284
100
AcDbEntity
  8
1
  6
Continuous
 62
     7
370
    18
100
AcDbLine
 10
6249.444429651412
 20
3724.564874717877
 30
0.0
 11
6275.814204709103
 21
3717.499114786578
 31
0.0
  0
TEXT
  5
128C
330
1284
100
AcDbEntity
  8
1
  6
Continuous
 62
     7
370
    18
100
AcDbText
 10
6294.111532984548
 20
3736.077565073207
 30
0.0
 40
63.0
  1
50
 41
0.6666666666666666
 11
6294.111532984548
 21
3724.564874717877
 31
0.0
100
AcDbText
 73
     1
  0
ENDBLK
  5
128D
330
1284
100
AcDbEntity
  8
1
  6
Continuous
 62
     7
370
    18
100
AcDbBlockEnd
  0
BLOCK
  5
1290
330
128F
100
AcDbEntity
  8
1
  6
Continuous
 62
     7
370
    18
100
AcDbBlockBegin
  2
*D60
 70
     0
 10
0.0
 20
0.0
 30
0.0
  3
*D60
  1

  0
LINE
  5
1291
330
128F
100
AcDbEntity
  8
1
  6
Continuous
 62
     7
370
    18
100
AcDbLine
 10
4299.444429651412
 20
3724.564874717877
 30
0.0
 11
6199.444429651412
 21
3724.564874717877
 31
0.0
  0
LINE
  5
1292
330
128F
100
AcDbEntity
  8
1
  6
Continuous
 62
     7
370
    18
100
AcDbLine
 10
4299.444429651412
 20
3745.564874717877
 30
0.0
 11
4299.444429651412
 21
3337.332518004227
 31
0.0
  0
LINE
  5
1293
330
128F
100
AcDbEntity
  8
1
  6
Continuous
 62
     7
370
    18
100
AcDbLine
 10
6199.444429651412
 20
3745.564874717877
 30
0.0
 11
6199.444429651412
 21
3337.332518004227
 31
0.0
  0
LINE
  5
1294
330
128F
100
AcDbEntity
  8
1
  6
Continuous
 62
     7
370
    18
100
AcDbLine
 10
4299.444429651412
 20
3724.564874717877
 30
0.0
 11
4325.814204709103
 21
3731.630634649176
 31
0.0
  0
LINE
  5
1295
330
128F
100
AcDbEntity
  8
1
  6
Continuous
 62
     7
370
    18
100
AcDbLine
 10
4299.444429651412
 20
3724.564874717877
 30
0.0
 11
4325.814204709103
 21
3717.499114786578
 31
0.0
  0
LINE
  5
1296
330
128F
100
AcDbEntity
  8
1
  6
Continuous
 62
     7
370
    18
100
AcDbLine
 10
6199.444429651412
 20
3724.564874717877
 30
0.0
 11
6173.074654593721
 21
3717.499114786579
 31
0.0
  0
LINE
  5
1297
330
128F
100
AcDbEntity
  8
1
  6
Continuous
 62
     7
370
    18
100
AcDbLine
 10
6199.444429651412
 20
3724.564874717877
 30
0.0
 11
6173.074654593721
 21
3731.630634649176
 31
0.0
  0
TEXT
  5
1298
330
128F
100
AcDbEntity
  8
1
  6
Continuous
 62
     7
370
    18
100
AcDbText
 10
5165.444429651412
 20
3736.077565073207
 30
0.0
 40
63.0
  1
1900
 41
0.6666666666666666
 11
5165.444429651412
 21
3724.564874717877
 31
0.0
100
AcDbText
 73
     1
  0
ENDBLK
  5
1299
330
128F
100
AcDbEntity
  8
1
  6
Continuous
 62
     7
370
    18
100
AcDbBlockEnd
  0
BLOCK
  5
129C
330
129B
100
AcDbEntity
  8
1
  6
Continuous
 62
     7
370
    18
100
AcDbBlockBegin
  2
*D61
 70
     0
 10
0.0
 20
0.0
 30
0.0
  3
*D61
  1

  0
LINE
  5
129D
330
129B
100
AcDbEntity
  8
1
  6
Continuous
 62
     7
370
    18
100
AcDbLine
 10
4249.444429651414
 20
3850.243747957314
 30
0.0
 11
6249.444429651414
 21
3850.243747957314
 31
0.0
  0
LINE
  5
129E
330
129B
100
AcDbEntity
  8
1
  6
Continuous
 62
     7
370
    18
100
AcDbLine
 10
4249.444429651414
 20
3871.243747957315
 30
0.0
 11
4249.444429651412
 21
3021.895026475037
 31
0.0
  0
LINE
  5
129F
330
129B
100
AcDbEntity
  8
1
  6
Continuous
 62
     7
370
    18
100
AcDbLine
 10
6249.444429651414
 20
3871.243747957315
 30
0.0
 11
6249.444429651412
 21
3013.528829291938
 31
0.0
  0
LINE
  5
12A0
330
129B
100
AcDbEntity
  8
1
  6
Continuous
 62
     7
370
    18
100
AcDbLine
 10
4249.444429651414
 20
3850.243747957314
 30
0.0
 11
4275.814204709105
 21
3857.309507888614
 31
0.0
  0
LINE
  5
12A1
330
129B
100
AcDbEntity
  8
1
  6
Continuous
 62
     7
370
    18
100
AcDbLine
 10
4249.444429651414
 20
3850.243747957314
 30
0.0
 11
4275.814204709105
 21
3843.177988026016
 31
0.0
  0
LINE
  5
12A2
330
129B
100
AcDbEntity
  8
1
  6
Continuous
 62
     7
370
    18
100
AcDbLine
 10
6249.444429651414
 20
3850.243747957314
 30
0.0
 11
6223.074654593723
 21
3843.177988026016
 31
0.0
  0
LINE
  5
12A3
330
129B
100
AcDbEntity
  8
1
  6
Continuous
 62
     7
370
    18
100
AcDbLine
 10
6249.444429651414
 20
3850.243747957314
 30
0.0
 11
6223.074654593723
 21
3857.309507888614
 31
0.0
  0
TEXT
  5
12A4
330
129B
100
AcDbEntity
  8
1
  6
Continuous
 62
     7
370
    18
100
AcDbText
 10
5165.444429651414
 20
3861.756438312645
 30
0.0
 40
63.0
  1
2000
 41
0.6666666666666666
 11
5165.444429651414
 21
3850.243747957314
 31
0.0
100
AcDbText
 73
     1
  0
ENDBLK
  5
12A5
330
129B
100
AcDbEntity
  8
1
  6
Continuous
 62
     7
370
    18
100
AcDbBlockEnd
  0
BLOCK
  5
12A8
330
12A7
100
AcDbEntity
  8
1
  6
Continuous
 62
     7
370
    18
100
AcDbBlockBegin
  2
*D62
 70
     0
 10
0.0
 20
0.0
 30
0.0
  3
*D62
  1

  0
LINE
  5
12A9
330
12A7
100
AcDbEntity
  8
1
  6
Continuous
 62
     7
370
    18
100
AcDbLine
 10
6555.826781585048
 20
2916.332518004223
 30
0.0
 11
6555.826781585048
 21
2516.332518004223
 31
0.0
  0
LINE
  5
12AA
330
12A7
100
AcDbEntity
  8
1
  6
Continuous
 62
     7
370
    18
100
AcDbLine
 10
6576.826781585049
 20
2916.332518004223
 30
0.0
 11
6245.444429651412
 21
2916.332518004226
 31
0.0
  0
LINE
  5
12AB
330
12A7
100
AcDbEntity
  8
1
  6
Continuous
 62
     7
370
    18
100
AcDbLine
 10
6576.826781585049
 20
2516.332518004223
 30
0.0
 11
6232.944429651412
 21
2516.332518004227
 31
0.0
  0
LINE
  5
12AC
330
12A7
100
AcDbEntity
  8
1
  6
Continuous
 62
     7
370
    18
100
AcDbLine
 10
6555.826781585048
 20
2916.332518004223
 30
0.0
 11
6562.892541516347
 21
2889.962742946531
 31
0.0
  0
LINE
  5
12AD
330
12A7
100
AcDbEntity
  8
1
  6
Continuous
 62
     7
370
    18
100
AcDbLine
 10
6555.826781585048
 20
2916.332518004223
 30
0.0
 11
6548.761021653749
 21
2889.962742946531
 31
0.0
  0
LINE
  5
12AE
330
12A7
100
AcDbEntity
  8
1
  6
Continuous
 62
     7
370
    18
100
AcDbLine
 10
6555.826781585048
 20
2516.332518004223
 30
0.0
 11
6548.761021653749
 21
2542.702293061914
 31
0.0
  0
LINE
  5
12AF
330
12A7
100
AcDbEntity
  8
1
  6
Continuous
 62
     7
370
    18
100
AcDbLine
 10
6555.826781585048
 20
2516.332518004223
 30
0.0
 11
6562.892541516347
 21
2542.702293061914
 31
0.0
  0
TEXT
  5
12B0
330
12A7
100
AcDbEntity
  8
1
  6
Continuous
 62
     7
370
    18
100
AcDbText
 10
6544.314091229718
 20
2653.332518004223
 30
0.0
 40
63.0
  1
400
 50
89.99999999999991
 41
0.6666666666666666
 11
6555.826781585048
 21
2653.332518004223
 31
0.0
100
AcDbText
 73
     1
  0
ENDBLK
  5
12B1
330
12A7
100
AcDbEntity
  8
1
  6
Continuous
 62
     7
370
    18
100
AcDbBlockEnd
  0
BLOCK
  5
12B4
330
12B3
100
AcDbEntity
  8
1
  6
Continuous
 62
     7
370
    18
100
AcDbBlockBegin
  2
*D63
 70
     0
 10
0.0
 20
0.0
 30
0.0
  3
*D63
  1

  0
LINE
  5
12B5
330
12B3
100
AcDbEntity
  8
1
  6
Continuous
 62
     7
370
    18
100
AcDbLine
 10
6555.826781585048
 20
3316.332518004223
 30
0.0
 11
6555.826781585048
 21
2916.332518004223
 31
0.0
  0
LINE
  5
12B6
330
12B3
100
AcDbEntity
  8
1
  6
Continuous
 62
     7
370
    18
100
AcDbLine
 10
6576.826781585049
 20
3316.332518004223
 30
0.0
 11
6220.444429651411
 21
3316.332518004227
 31
0.0
  0
LINE
  5
12B7
330
12B3
100
AcDbEntity
  8
1
  6
Continuous
 62
     7
370
    18
100
AcDbLine
 10
6576.826781585049
 20
2916.332518004223
 30
0.0
 11
6245.444429651412
 21
2916.332518004226
 31
0.0
  0
LINE
  5
12B8
330
12B3
100
AcDbEntity
  8
1
  6
Continuous
 62
     7
370
    18
100
AcDbLine
 10
6555.826781585048
 20
3316.332518004223
 30
0.0
 11
6562.892541516347
 21
3289.962742946531
 31
0.0
  0
LINE
  5
12B9
330
12B3
100
AcDbEntity
  8
1
  6
Continuous
 62
     7
370
    18
100
AcDbLine
 10
6555.826781585048
 20
3316.332518004223
 30
0.0
 11
6548.761021653749
 21
3289.962742946531
 31
0.0
  0
LINE
  5
12BA
330
12B3
100
AcDbEntity
  8
1
  6
Continuous
 62
     7
370
    18
100
AcDbLine
 10
6555.826781585048
 20
2916.332518004223
 30
0.0
 11
6548.761021653749
 21
2942.702293061915
 31
0.0
  0
LINE
  5
12BB
330
12B3
100
AcDbEntity
  8
1
  6
Continuous
 62
     7
370
    18
100
AcDbLine
 10
6555.826781585048
 20
2916.332518004223
 30
0.0
 11
6562.892541516347
 21
2942.702293061915
 31
0.0
  0
TEXT
  5
12BC
330
12B3
100
AcDbEntity
  8
1
  6
Continuous
 62
     7
370
    18
100
AcDbText
 10
6544.314091229718
 20
3053.332518004223
 30
0.0
 40
63.0
  1
400
 50
89.99999999999991
 41
0.6666666666666666
 11
6555.826781585048
 21
3053.332518004223
 31
0.0
100
AcDbText
 73
     1
  0
ENDBLK
  5
12BD
330
12B3
100
AcDbEntity
  8
1
  6
Continuous
 62
     7
370
    18
100
AcDbBlockEnd
  0
BLOCK
  5
12C0
330
12BF
100
AcDbEntity
  8
1
  6
Continuous
 62
     7
370
    18
100
AcDbBlockBegin
  2
*D64
 70
     0
 10
0.0
 20
0.0
 30
0.0
  3
*D64
  1

  0
LINE
  5
12C1
330
12BF
100
AcDbEntity
  8
1
  6
Continuous
 62
     7
370
    18
100
AcDbLine
 10
6836.336077359696
 20
3316.332518004222
 30
0.0
 11
6836.336077359698
 21
2516.332518004221
 31
0.0
  0
LINE
  5
12C2
330
12BF
100
AcDbEntity
  8
1
  6
Continuous
 62
     7
370
    18
100
AcDbLine
 10
6857.336077359696
 20
3316.332518004222
 30
0.0
 11
6220.444429651411
 21
3316.332518004227
 31
0.0
  0
LINE
  5
12C3
330
12BF
100
AcDbEntity
  8
1
  6
Continuous
 62
     7
370
    18
100
AcDbLine
 10
6857.336077359697
 20
2516.332518004221
 30
0.0
 11
6232.944429651412
 21
2516.332518004227
 31
0.0
  0
LINE
  5
12C4
330
12BF
100
AcDbEntity
  8
1
  6
Continuous
 62
     7
370
    18
100
AcDbLine
 10
6836.336077359696
 20
3316.332518004222
 30
0.0
 11
6843.401837290994
 21
3289.96274294653
 31
0.0
  0
LINE
  5
12C5
330
12BF
100
AcDbEntity
  8
1
  6
Continuous
 62
     7
370
    18
100
AcDbLine
 10
6836.336077359696
 20
3316.332518004222
 30
0.0
 11
6829.270317428397
 21
3289.96274294653
 31
0.0
  0
LINE
  5
12C6
330
12BF
100
AcDbEntity
  8
1
  6
Continuous
 62
     7
370
    18
100
AcDbLine
 10
6836.336077359698
 20
2516.332518004221
 30
0.0
 11
6829.270317428399
 21
2542.702293061913
 31
0.0
  0
LINE
  5
12C7
330
12BF
100
AcDbEntity
  8
1
  6
Continuous
 62
     7
370
    18
100
AcDbLine
 10
6836.336077359698
 20
2516.332518004221
 30
0.0
 11
6843.401837290997
 21
2542.702293061913
 31
0.0
  0
TEXT
  5
12C8
330
12BF
100
AcDbEntity
  8
1
  6
Continuous
 62
     7
370
    18
100
AcDbText
 10
6824.823387004368
 20
2853.332518004221
 30
0.0
 40
63.0
  1
800
 50
89.99999999999994
 41
0.6666666666666666
 11
6836.336077359698
 21
2853.332518004221
 31
0.0
100
AcDbText
 73
     1
  0
ENDBLK
  5
12C9
330
12BF
100
AcDbEntity
  8
1
  6
Continuous
 62
     7
370
    18
100
AcDbBlockEnd
  0
BLOCK
  5
12CC
330
12CB
100
AcDbEntity
  8
1
  6
Continuous
 62
     7
370
    18
100
AcDbBlockBegin
  2
*D65
 70
     0
 10
0.0
 20
0.0
 30
0.0
  3
*D65
  1

  0
LINE
  5
12CD
330
12CB
100
AcDbEntity
  8
1
  6
Continuous
 62
     7
370
    18
100
AcDbLine
 10
6408.033862593194
 20
2730.715305503494
 30
0.0
 11
6148.444429651412
 21
2730.715305503494
 31
0.0
  0
LINE
  5
12CE
330
12CB
100
AcDbEntity
  8
1
  6
Continuous
 62
     7
370
    18
100
AcDbLine
 10
6248.44442965141
 20
2709.715305503494
 30
0.0
 11
6248.444429651412
 21
2895.332518004227
 31
0.0
  0
LINE
  5
12CF
330
12CB
100
AcDbEntity
  8
1
  6
Continuous
 62
     7
370
    18
100
AcDbLine
 10
6148.444429651412
 20
2709.715305503494
 30
0.0
 11
6148.444429651412
 21
2746.823739238553
 31
0.0
  0
LINE
  5
12D0
330
12CB
100
AcDbEntity
  8
1
  6
Continuous
 62
     7
370
    18
100
AcDbLine
 10
6248.44442965141
 20
2730.715305503494
 30
0.0
 11
6222.074654593718
 21
2723.649545572196
 31
0.0
  0
LINE
  5
12D1
330
12CB
100
AcDbEntity
  8
1
  6
Continuous
 62
     7
370
    18
100
AcDbLine
 10
6248.44442965141
 20
2730.715305503494
 30
0.0
 11
6222.074654593718
 21
2737.781065434794
 31
0.0
  0
LINE
  5
12D2
330
12CB
100
AcDbEntity
  8
1
  6
Continuous
 62
     7
370
    18
100
AcDbLine
 10
6148.444429651412
 20
2730.715305503494
 30
0.0
 11
6174.814204709104
 21
2737.781065434794
 31
0.0
  0
LINE
  5
12D3
330
12CB
100
AcDbEntity
  8
1
  6
Continuous
 62
     7
370
    18
100
AcDbLine
 10
6148.444429651412
 20
2730.715305503494
 30
0.0
 11
6174.814204709104
 21
2723.649545572195
 31
0.0
  0
TEXT
  5
12D4
330
12CB
100
AcDbEntity
  8
1
  6
Continuous
 62
     7
370
    18
100
AcDbText
 10
6282.033862593195
 20
2742.227995858824
 30
0.0
 40
63.0
  1
100
 41
0.6666666666666666
 11
6282.033862593195
 21
2730.715305503494
 31
0.0
100
AcDbText
 73
     1
  0
ENDBLK
  5
12D5
330
12CB
100
AcDbEntity
  8
1
  6
Continuous
 62
     7
370
    18
100
AcDbBlockEnd
  0
BLOCK
  5
12D8
330
12D7
100
AcDbEntity
  8
1
  6
Continuous
 62
     7
370
    18
100
AcDbBlockBegin
  2
*D66
 70
     0
 10
0.0
 20
0.0
 30
0.0
  3
*D66
  1

  0
LINE
  5
12D9
330
12D7
100
AcDbEntity
  8
1
  6
Continuous
 62
     7
370
    18
100
AcDbLine
 10
4349.444429651408
 20
2385.869212746047
 30
0.0
 11
4429.444429651408
 21
2385.869212746047
 31
0.0
  0
LINE
  5
12DA
330
12D7
100
AcDbEntity
  8
1
  6
Continuous
 62
     7
370
    18
100
AcDbLine
 10
4349.444429651408
 20
2364.869212746047
 30
0.0
 11
4349.44442965141
 21
2522.332518004227
 31
0.0
  0
LINE
  5
12DB
330
12D7
100
AcDbEntity
  8
1
  6
Continuous
 62
     7
370
    18
100
AcDbLine
 10
4429.444429651408
 20
2364.869212746047
 30
0.0
 11
4429.44442965141
 21
2522.332518004227
 31
0.0
  0
LINE
  5
12DC
330
12D7
100
AcDbEntity
  8
1
  6
Continuous
 62
     7
370
    18
100
AcDbLine
 10
4349.444429651408
 20
2385.869212746047
 30
0.0
 11
4375.8142047091
 21
2392.934972677347
 31
0.0
  0
LINE
  5
12DD
330
12D7
100
AcDbEntity
  8
1
  6
Continuous
 62
     7
370
    18
100
AcDbLine
 10
4349.444429651408
 20
2385.869212746047
 30
0.0
 11
4375.8142047091
 21
2378.803452814748
 31
0.0
  0
LINE
  5
12DE
330
12D7
100
AcDbEntity
  8
1
  6
Continuous
 62
     7
370
    18
100
AcDbLine
 10
4429.444429651408
 20
2385.869212746047
 30
0.0
 11
4403.074654593717
 21
2378.803452814749
 31
0.0
  0
LINE
  5
12DF
330
12D7
100
AcDbEntity
  8
1
  6
Continuous
 62
     7
370
    18
100
AcDbLine
 10
4429.444429651408
 20
2385.869212746047
 30
0.0
 11
4403.074654593717
 21
2392.934972677347
 31
0.0
  0
TEXT
  5
12E0
330
12D7
100
AcDbEntity
  8
1
  6
Continuous
 62
     7
370
    18
100
AcDbText
 10
4347.444429651408
 20
2397.381903101377
 30
0.0
 40
63.0
  1
80
 41
0.6666666666666666
 11
4347.444429651408
 21
2385.869212746047
 31
0.0
100
AcDbText
 73
     1
  0
ENDBLK
  5
12E1
330
12D7
100
AcDbEntity
  8
1
  6
Continuous
 62
     7
370
    18
100
AcDbBlockEnd
  0
BLOCK
  5
12E4
330
12E3
100
AcDbEntity
  8
1
  6
Continuous
 62
     7
370
    18
100
AcDbBlockBegin
  2
*D67
 70
     0
 10
0.0
 20
0.0
 30
0.0
  3
*D67
  1

  0
LINE
  5
12E5
330
12E3
100
AcDbEntity
  8
1
  6
Continuous
 62
     7
370
    18
100
AcDbLine
 10
4329.444429651409
 20
2246.358226830555
 30
0.0
 11
4449.444429651406
 21
2246.358226830555
 31
0.0
  0
LINE
  5
12E6
330
12E3
100
AcDbEntity
  8
1
  6
Continuous
 62
     7
370
    18
100
AcDbLine
 10
4329.444429651409
 20
2225.358226830555
 30
0.0
 11
4329.444429651412
 21
2504.332518004227
 31
0.0
  0
LINE
  5
12E7
330
12E3
100
AcDbEntity
  8
1
  6
Continuous
 62
     7
370
    18
100
AcDbLine
 10
4449.444429651406
 20
2225.358226830555
 30
0.0
 11
4449.44442965141
 21
2504.332518004227
 31
0.0
  0
LINE
  5
12E8
330
12E3
100
AcDbEntity
  8
1
  6
Continuous
 62
     7
370
    18
100
AcDbLine
 10
4329.444429651409
 20
2246.358226830555
 30
0.0
 11
4355.814204709099
 21
2253.423986761854
 31
0.0
  0
LINE
  5
12E9
330
12E3
100
AcDbEntity
  8
1
  6
Continuous
 62
     7
370
    18
100
AcDbLine
 10
4329.444429651409
 20
2246.358226830555
 30
0.0
 11
4355.814204709099
 21
2239.292466899255
 31
0.0
  0
LINE
  5
12EA
330
12E3
100
AcDbEntity
  8
1
  6
Continuous
 62
     7
370
    18
100
AcDbLine
 10
4449.444429651406
 20
2246.358226830555
 30
0.0
 11
4423.074654593715
 21
2239.292466899256
 31
0.0
  0
LINE
  5
12EB
330
12E3
100
AcDbEntity
  8
1
  6
Continuous
 62
     7
370
    18
100
AcDbLine
 10
4449.444429651406
 20
2246.358226830555
 30
0.0
 11
4423.074654593715
 21
2253.423986761854
 31
0.0
  0
TEXT
  5
12EC
330
12E3
100
AcDbEntity
  8
1
  6
Continuous
 62
     7
370
    18
100
AcDbText
 10
4326.444429651409
 20
2257.870917185885
 30
0.0
 40
63.0
  1
120
 41
0.6666666666666666
 11
4326.444429651409
 21
2246.358226830555
 31
0.0
100
AcDbText
 73
     1
  0
ENDBLK
  5
12ED
330
12E3
100
AcDbEntity
  8
1
  6
Continuous
 62
     7
370
    18
100
AcDbBlockEnd
  0
BLOCK
  5
12F0
330
12EF
100
AcDbEntity
  8
1
  6
Continuous
 62
     7
370
    18
100
AcDbBlockBegin
  2
*D68
 70
     0
 10
0.0
 20
0.0
 30
0.0
  3
*D68
  1

  0
LINE
  5
12F1
330
12EF
100
AcDbEntity
  8
1
  6
Continuous
 62
     7
370
    18
100
AcDbLine
 10
4286.944429651406
 20
1820.983578943229
 30
0.0
 11
6211.944429651406
 21
1820.983578943229
 31
0.0
  0
LINE
  5
12F2
330
12EF
100
AcDbEntity
  8
1
  6
Continuous
 62
     7
370
    18
100
AcDbLine
 10
4286.944429651406
 20
1799.983578943229
 30
0.0
 11
4286.944429651412
 21
2495.332518004227
 31
0.0
  0
LINE
  5
12F3
330
12EF
100
AcDbEntity
  8
1
  6
Continuous
 62
     7
370
    18
100
AcDbLine
 10
6211.944429651406
 20
1799.983578943229
 30
0.0
 11
6211.944429651413
 21
2495.332518004225
 31
0.0
  0
LINE
  5
12F4
330
12EF
100
AcDbEntity
  8
1
  6
Continuous
 62
     7
370
    18
100
AcDbLine
 10
4286.944429651406
 20
1820.983578943229
 30
0.0
 11
4313.314204709097
 21
1828.049338874528
 31
0.0
  0
LINE
  5
12F5
330
12EF
100
AcDbEntity
  8
1
  6
Continuous
 62
     7
370
    18
100
AcDbLine
 10
4286.944429651406
 20
1820.983578943229
 30
0.0
 11
4313.314204709097
 21
1813.91781901193
 31
0.0
  0
LINE
  5
12F6
330
12EF
100
AcDbEntity
  8
1
  6
Continuous
 62
     7
370
    18
100
AcDbLine
 10
6211.944429651406
 20
1820.983578943229
 30
0.0
 11
6185.574654593716
 21
1813.91781901193
 31
0.0
  0
LINE
  5
12F7
330
12EF
100
AcDbEntity
  8
1
  6
Continuous
 62
     7
370
    18
100
AcDbLine
 10
6211.944429651406
 20
1820.983578943229
 30
0.0
 11
6185.574654593716
 21
1828.049338874528
 31
0.0
  0
TEXT
  5
12F8
330
12EF
100
AcDbEntity
  8
1
  6
Continuous
 62
     7
370
    18
100
AcDbText
 10
5165.444429651406
 20
1832.496269298559
 30
0.0
 40
63.0
  1
1925
 41
0.6666666666666666
 11
5165.444429651406
 21
1820.983578943229
 31
0.0
100
AcDbText
 73
     1
  0
ENDBLK
  5
12F9
330
12EF
100
AcDbEntity
  8
1
  6
Continuous
 62
     7
370
    18
100
AcDbBlockEnd
  0
BLOCK
  5
12FC
330
12FB
100
AcDbEntity
  8
1
  6
Continuous
 62
     7
370
    18
100
AcDbBlockBegin
  2
*D69
 70
     0
 10
0.0
 20
0.0
 30
0.0
  3
*D69
  1

  0
LINE
  5
12FD
330
12FB
100
AcDbEntity
  8
1
  6
Continuous
 62
     7
370
    18
100
AcDbLine
 10
3969.136909107657
 20
2996.332518004227
 30
0.0
 11
3969.136909107657
 21
2916.332518004227
 31
0.0
  0
LINE
  5
12FE
330
12FB
100
AcDbEntity
  8
1
  6
Continuous
 62
     7
370
    18
100
AcDbLine
 10
3948.136909107658
 20
2996.332518004227
 30
0.0
 11
4253.444429651412
 21
2996.332518004227
 31
0.0
  0
LINE
  5
12FF
330
12FB
100
AcDbEntity
  8
1
  6
Continuous
 62
     7
370
    18
100
AcDbLine
 10
3948.136909107658
 20
2916.332518004227
 30
0.0
 11
4253.444429651412
 21
2916.332518004227
 31
0.0
  0
LINE
  5
1300
330
12FB
100
AcDbEntity
  8
1
  6
Continuous
 62
     7
370
    18
100
AcDbLine
 10
3969.136909107657
 20
2996.332518004227
 30
0.0
 11
3976.202669038957
 21
2969.962742946535
 31
0.0
  0
LINE
  5
1301
330
12FB
100
AcDbEntity
  8
1
  6
Continuous
 62
     7
370
    18
100
AcDbLine
 10
3969.136909107657
 20
2996.332518004227
 30
0.0
 11
3962.07114917636
 21
2969.962742946535
 31
0.0
  0
LINE
  5
1302
330
12FB
100
AcDbEntity
  8
1
  6
Continuous
 62
     7
370
    18
100
AcDbLine
 10
3969.136909107657
 20
2916.332518004227
 30
0.0
 11
3962.07114917636
 21
2942.702293061918
 31
0.0
  0
LINE
  5
1303
330
12FB
100
AcDbEntity
  8
1
  6
Continuous
 62
     7
370
    18
100
AcDbLine
 10
3969.136909107657
 20
2916.332518004227
 30
0.0
 11
3976.202669038957
 21
2942.702293061918
 31
0.0
  0
TEXT
  5
1304
330
12FB
100
AcDbEntity
  8
1
  6
Continuous
 62
     7
370
    18
100
AcDbText
 10
3957.624218752328
 20
2914.332518004227
 30
0.0
 40
63.0
  1
80
 50
89.99999999999991
 41
0.6666666666666666
 11
3969.136909107657
 21
2914.332518004227
 31
0.0
100
AcDbText
 73
     1
  0
ENDBLK
  5
1305
330
12FB
100
AcDbEntity
  8
1
  6
Continuous
 62
     7
370
    18
100
AcDbBlockEnd
  0
BLOCK
  5
1308
330
1307
100
AcDbEntity
  8
1
  6
Continuous
 62
     7
370
    18
100
AcDbBlockBegin
  2
*D70
 70
     0
 10
0.0
 20
0.0
 30
0.0
  3
*D70
  1

  0
LINE
  5
1309
330
1307
100
AcDbEntity
  8
1
  6
Continuous
 62
     7
370
    18
100
AcDbLine
 10
3969.136909107657
 20
3316.332518004227
 30
0.0
 11
3969.136909107657
 21
2996.332518004227
 31
0.0
  0
LINE
  5
130A
330
1307
100
AcDbEntity
  8
1
  6
Continuous
 62
     7
370
    18
100
AcDbLine
 10
3948.136909107658
 20
3316.332518004227
 30
0.0
 11
4278.444429651412
 21
3316.332518004227
 31
0.0
  0
LINE
  5
130B
330
1307
100
AcDbEntity
  8
1
  6
Continuous
 62
     7
370
    18
100
AcDbLine
 10
3948.136909107658
 20
2996.332518004227
 30
0.0
 11
4253.444429651412
 21
2996.332518004227
 31
0.0
  0
LINE
  5
130C
330
1307
100
AcDbEntity
  8
1
  6
Continuous
 62
     7
370
    18
100
AcDbLine
 10
3969.136909107657
 20
3316.332518004227
 30
0.0
 11
3976.202669038957
 21
3289.962742946535
 31
0.0
  0
LINE
  5
130D
330
1307
100
AcDbEntity
  8
1
  6
Continuous
 62
     7
370
    18
100
AcDbLine
 10
3969.136909107657
 20
3316.332518004227
 30
0.0
 11
3962.07114917636
 21
3289.962742946535
 31
0.0
  0
LINE
  5
130E
330
1307
100
AcDbEntity
  8
1
  6
Continuous
 62
     7
370
    18
100
AcDbLine
 10
3969.136909107657
 20
2996.332518004227
 30
0.0
 11
3962.07114917636
 21
3022.702293061918
 31
0.0
  0
LINE
  5
130F
330
1307
100
AcDbEntity
  8
1
  6
Continuous
 62
     7
370
    18
100
AcDbLine
 10
3969.136909107657
 20
2996.332518004227
 30
0.0
 11
3976.202669038957
 21
3022.702293061918
 31
0.0
  0
TEXT
  5
1310
330
1307
100
AcDbEntity
  8
1
  6
Continuous
 62
     7
370
    18
100
AcDbText
 10
3957.624218752328
 20
3093.332518004227
 30
0.0
 40
63.0
  1
320
 50
89.99999999999991
 41
0.6666666666666666
 11
3969.136909107657
 21
3093.332518004227
 31
0.0
100
AcDbText
 73
     1
  0
ENDBLK
  5
1311
330
1307
100
AcDbEntity
  8
1
  6
Continuous
 62
     7
370
    18
100
AcDbBlockEnd
  0
BLOCK
  5
1314
330
1313
100
AcDbEntity
  8
1
  6
Continuous
 62
     7
370
    18
100
AcDbBlockBegin
  2
*D71
 70
     0
 10
0.0
 20
0.0
 30
0.0
  3
*D71
  1

  0
LINE
  5
1315
330
1313
100
AcDbEntity
  8
1
  6
Continuous
 62
     7
370
    18
100
AcDbLine
 10
3814.444429651413
 20
3316.332518004227
 30
0.0
 11
3814.444429651413
 21
2916.332518004227
 31
0.0
  0
LINE
  5
1316
330
1313
100
AcDbEntity
  8
1
  6
Continuous
 62
     7
370
    18
100
AcDbLine
 10
3793.444429651412
 20
3316.332518004227
 30
0.0
 11
4278.444429651412
 21
3316.332518004227
 31
0.0
  0
LINE
  5
1317
330
1313
100
AcDbEntity
  8
1
  6
Continuous
 62
     7
370
    18
100
AcDbLine
 10
3793.444429651412
 20
2916.332518004227
 30
0.0
 11
4253.444429651412
 21
2916.332518004227
 31
0.0
  0
LINE
  5
1318
330
1313
100
AcDbEntity
  8
1
  6
Continuous
 62
     7
370
    18
100
AcDbLine
 10
3814.444429651413
 20
3316.332518004227
 30
0.0
 11
3821.510189582711
 21
3289.962742946535
 31
0.0
  0
LINE
  5
1319
330
1313
100
AcDbEntity
  8
1
  6
Continuous
 62
     7
370
    18
100
AcDbLine
 10
3814.444429651413
 20
3316.332518004227
 30
0.0
 11
3807.378669720114
 21
3289.962742946535
 31
0.0
  0
LINE
  5
131A
330
1313
100
AcDbEntity
  8
1
  6
Continuous
 62
     7
370
    18
100
AcDbLine
 10
3814.444429651413
 20
2916.332518004227
 30
0.0
 11
3807.378669720114
 21
2942.702293061918
 31
0.0
  0
LINE
  5
131B
330
1313
100
AcDbEntity
  8
1
  6
Continuous
 62
     7
370
    18
100
AcDbLine
 10
3814.444429651413
 20
2916.332518004227
 30
0.0
 11
3821.510189582711
 21
2942.702293061918
 31
0.0
  0
TEXT
  5
131C
330
1313
100
AcDbEntity
  8
1
  6
Continuous
 62
     7
370
    18
100
AcDbText
 10
3802.931739296082
 20
3053.332518004227
 30
0.0
 40
63.0
  1
400
 50
89.99999999999994
 41
0.6666666666666666
 11
3814.444429651413
 21
3053.332518004227
 31
0.0
100
AcDbText
 73
     1
  0
ENDBLK
  5
131D
330
1313
100
AcDbEntity
  8
1
  6
Continuous
 62
     7
370
    18
100
AcDbBlockEnd
  0
BLOCK
  5
1320
330
131F
100
AcDbEntity
  8
1
  6
Continuous
 62
     7
370
    18
100
AcDbBlockBegin
  2
*D72
 70
     0
 10
0.0
 20
0.0
 30
0.0
  3
*D72
  1

  0
LINE
  5
1321
330
131F
100
AcDbEntity
  8
1
  6
Continuous
 62
     7
370
    18
100
AcDbLine
 10
2294.745634472842
 20
2938.194810925896
 30
0.0
 11
2214.745634472842
 21
2938.194810925896
 31
0.0
  0
LINE
  5
1322
330
131F
100
AcDbEntity
  8
1
  6
Continuous
 62
     7
370
    18
100
AcDbLine
 10
2294.745634472842
 20
2959.194810925896
 30
0.0
 11
2294.745634472842
 21
2717.332518004227
 31
0.0
  0
LINE
  5
1323
330
131F
100
AcDbEntity
  8
1
  6
Continuous
 62
     7
370
    18
100
AcDbLine
 10
2214.745634472842
 20
2959.194810925896
 30
0.0
 11
2214.745634472842
 21
2717.332518004227
 31
0.0
  0
LINE
  5
1324
330
131F
100
AcDbEntity
  8
1
  6
Continuous
 62
     7
370
    18
100
AcDbLine
 10
2294.745634472842
 20
2938.194810925896
 30
0.0
 11
2268.37585941515
 21
2931.129050994597
 31
0.0
  0
LINE
  5
1325
330
131F
100
AcDbEntity
  8
1
  6
Continuous
 62
     7
370
    18
100
AcDbLine
 10
2294.745634472842
 20
2938.194810925896
 30
0.0
 11
2268.37585941515
 21
2945.260570857195
 31
0.0
  0
LINE
  5
1326
330
131F
100
AcDbEntity
  8
1
  6
Continuous
 62
     7
370
    18
100
AcDbLine
 10
2214.745634472842
 20
2938.194810925896
 30
0.0
 11
2241.115409530533
 21
2945.260570857195
 31
0.0
  0
LINE
  5
1327
330
131F
100
AcDbEntity
  8
1
  6
Continuous
 62
     7
370
    18
100
AcDbLine
 10
2214.745634472842
 20
2938.194810925896
 30
0.0
 11
2241.115409530533
 21
2931.129050994597
 31
0.0
  0
TEXT
  5
1328
330
131F
100
AcDbEntity
  8
1
  6
Continuous
 62
     7
370
    18
100
AcDbText
 10
2212.745634472842
 20
2949.707501281226
 30
0.0
 40
63.0
  1
80
 41
0.6666666666666666
 11
2212.745634472842
 21
2938.194810925896
 31
0.0
100
AcDbText
 73
     1
  0
ENDBLK
  5
1329
330
131F
100
AcDbEntity
  8
1
  6
Continuous
 62
     7
370
    18
100
AcDbBlockEnd
  0
BLOCK
  5
132C
330
132B
100
AcDbEntity
  8
1
  6
Continuous
 62
     7
370
    18
100
AcDbBlockBegin
  2
*D73
 70
     0
 10
0.0
 20
0.0
 30
0.0
  3
*D73
  1

  0
LINE
  5
132D
330
132B
100
AcDbEntity
  8
1
  6
Continuous
 62
     7
370
    18
100
AcDbLine
 10
1894.745634472841
 20
2938.194810925896
 30
0.0
 11
2214.745634472842
 21
2938.194810925896
 31
0.0
  0
LINE
  5
132E
330
132B
100
AcDbEntity
  8
1
  6
Continuous
 62
     7
370
    18
100
AcDbLine
 10
1894.745634472841
 20
2959.194810925896
 30
0.0
 11
1894.745634472841
 21
2707.332518004227
 31
0.0
  0
LINE
  5
132F
330
132B
100
AcDbEntity
  8
1
  6
Continuous
 62
     7
370
    18
100
AcDbLine
 10
2214.745634472842
 20
2959.194810925896
 30
0.0
 11
2214.745634472842
 21
2717.332518004227
 31
0.0
  0
LINE
  5
1330
330
132B
100
AcDbEntity
  8
1
  6
Continuous
 62
     7
370
    18
100
AcDbLine
 10
1894.745634472841
 20
2938.194810925896
 30
0.0
 11
1921.115409530533
 21
2945.260570857195
 31
0.0
  0
LINE
  5
1331
330
132B
100
AcDbEntity
  8
1
  6
Continuous
 62
     7
370
    18
100
AcDbLine
 10
1894.745634472841
 20
2938.194810925896
 30
0.0
 11
1921.115409530533
 21
2931.129050994597
 31
0.0
  0
LINE
  5
1332
330
132B
100
AcDbEntity
  8
1
  6
Continuous
 62
     7
370
    18
100
AcDbLine
 10
2214.745634472842
 20
2938.194810925896
 30
0.0
 11
2188.37585941515
 21
2931.129050994597
 31
0.0
  0
LINE
  5
1333
330
132B
100
AcDbEntity
  8
1
  6
Continuous
 62
     7
370
    18
100
AcDbLine
 10
2214.745634472842
 20
2938.194810925896
 30
0.0
 11
2188.37585941515
 21
2945.260570857195
 31
0.0
  0
TEXT
  5
1334
330
132B
100
AcDbEntity
  8
1
  6
Continuous
 62
     7
370
    18
100
AcDbText
 10
1991.745634472842
 20
2949.707501281226
 30
0.0
 40
63.0
  1
320
 41
0.6666666666666666
 11
1991.745634472842
 21
2938.194810925896
 31
0.0
100
AcDbText
 73
     1
  0
ENDBLK
  5
1335
330
132B
100
AcDbEntity
  8
1
  6
Continuous
 62
     7
370
    18
100
AcDbBlockEnd
  0
BLOCK
  5
1338
330
1337
100
AcDbEntity
  8
1
  6
Continuous
 62
     7
370
    18
100
AcDbBlockBegin
  2
*D74
 70
     0
 10
0.0
 20
0.0
 30
0.0
  3
*D74
  1

  0
LINE
  5
1339
330
1337
100
AcDbEntity
  8
1
  6
Continuous
 62
     7
370
    18
100
AcDbLine
 10
1754.135026579697
 20
2296.332518004227
 30
0.0
 11
1754.135026579697
 21
2216.332518004227
 31
0.0
  0
LINE
  5
133A
330
1337
100
AcDbEntity
  8
1
  6
Continuous
 62
     7
370
    18
100
AcDbLine
 10
1733.135026579697
 20
2296.332518004227
 30
0.0
 11
1873.745634472841
 21
2296.332518004227
 31
0.0
  0
LINE
  5
133B
330
1337
100
AcDbEntity
  8
1
  6
Continuous
 62
     7
370
    18
100
AcDbLine
 10
1733.135026579697
 20
2216.332518004227
 30
0.0
 11
1873.745634472841
 21
2216.332518004227
 31
0.0
  0
LINE
  5
133C
330
1337
100
AcDbEntity
  8
1
  6
Continuous
 62
     7
370
    18
100
AcDbLine
 10
1754.135026579697
 20
2296.332518004227
 30
0.0
 11
1761.200786510996
 21
2269.962742946535
 31
0.0
  0
LINE
  5
133D
330
1337
100
AcDbEntity
  8
1
  6
Continuous
 62
     7
370
    18
100
AcDbLine
 10
1754.135026579697
 20
2296.332518004227
 30
0.0
 11
1747.069266648398
 21
2269.962742946535
 31
0.0
  0
LINE
  5
133E
330
1337
100
AcDbEntity
  8
1
  6
Continuous
 62
     7
370
    18
100
AcDbLine
 10
1754.135026579697
 20
2216.332518004227
 30
0.0
 11
1747.069266648398
 21
2242.702293061919
 31
0.0
  0
LINE
  5
133F
330
1337
100
AcDbEntity
  8
1
  6
Continuous
 62
     7
370
    18
100
AcDbLine
 10
1754.135026579697
 20
2216.332518004227
 30
0.0
 11
1761.200786510996
 21
2242.702293061919
 31
0.0
  0
TEXT
  5
1340
330
1337
100
AcDbEntity
  8
1
  6
Continuous
 62
     7
370
    18
100
AcDbText
 10
1742.622336224367
 20
2214.332518004226
 30
0.0
 40
63.0
  1
80
 50
89.99999999999991
 41
0.6666666666666666
 11
1754.135026579697
 21
2214.332518004226
 31
0.0
100
AcDbText
 73
     1
  0
ENDBLK
  5
1341
330
1337
100
AcDbEntity
  8
1
  6
Continuous
 62
     7
370
    18
100
AcDbBlockEnd
  0
BLOCK
  5
1344
330
1343
100
AcDbEntity
  8
1
  6
Continuous
 62
     7
370
    18
100
AcDbBlockBegin
  2
*D75
 70
     0
 10
0.0
 20
0.0
 30
0.0
  3
*D75
  1

  0
LINE
  5
1345
330
1343
100
AcDbEntity
  8
1
  6
Continuous
 62
     7
370
    18
100
AcDbLine
 10
1526.424183206203
 20
2696.332518004229
 30
0.0
 11
1526.424183206203
 21
2216.332518004229
 31
0.0
  0
LINE
  5
1346
330
1343
100
AcDbEntity
  8
1
  6
Continuous
 62
     7
370
    18
100
AcDbLine
 10
1505.424183206203
 20
2696.332518004229
 30
0.0
 11
1883.745634472841
 21
2696.332518004227
 31
0.0
  0
LINE
  5
1347
330
1343
100
AcDbEntity
  8
1
  6
Continuous
 62
     7
370
    18
100
AcDbLine
 10
1505.424183206203
 20
2216.332518004229
 30
0.0
 11
1873.745634472841
 21
2216.332518004227
 31
0.0
  0
LINE
  5
1348
330
1343
100
AcDbEntity
  8
1
  6
Continuous
 62
     7
370
    18
100
AcDbLine
 10
1526.424183206203
 20
2696.332518004229
 30
0.0
 11
1533.489943137502
 21
2669.962742946537
 31
0.0
  0
LINE
  5
1349
330
1343
100
AcDbEntity
  8
1
  6
Continuous
 62
     7
370
    18
100
AcDbLine
 10
1526.424183206203
 20
2696.332518004229
 30
0.0
 11
1519.358423274904
 21
2669.962742946537
 31
0.0
  0
LINE
  5
134A
330
1343
100
AcDbEntity
  8
1
  6
Continuous
 62
     7
370
    18
100
AcDbLine
 10
1526.424183206203
 20
2216.332518004229
 30
0.0
 11
1519.358423274904
 21
2242.70229306192
 31
0.0
  0
LINE
  5
134B
330
1343
100
AcDbEntity
  8
1
  6
Continuous
 62
     7
370
    18
100
AcDbLine
 10
1526.424183206203
 20
2216.332518004229
 30
0.0
 11
1533.489943137502
 21
2242.70229306192
 31
0.0
  0
TEXT
  5
134C
330
1343
100
AcDbEntity
  8
1
  6
Continuous
 62
     7
370
    18
100
AcDbText
 10
1514.911492850873
 20
2393.332518004228
 30
0.0
 40
63.0
  1
480
 50
89.99999999999992
 41
0.6666666666666666
 11
1526.424183206203
 21
2393.332518004228
 31
0.0
100
AcDbText
 73
     1
  0
ENDBLK
  5
134D
330
1343
100
AcDbEntity
  8
1
  6
Continuous
 62
     7
370
    18
100
AcDbBlockEnd
  0
BLOCK
  5
1350
330
134F
100
AcDbEntity
  8
1
  6
Continuous
 62
     7
370
    18
100
AcDbBlockBegin
  2
*D76
 70
     0
 10
0.0
 20
0.0
 30
0.0
  3
*D76
  1

  0
LINE
  5
1351
330
134F
100
AcDbEntity
  8
1
  6
Continuous
 62
     7
370
    18
100
AcDbLine
 10
5156.944429651408
 20
2712.996165858718
 30
0.0
 11
5341.94442965141
 21
2712.996165858718
 31
0.0
  0
LINE
  5
1352
330
134F
100
AcDbEntity
  8
1
  6
Continuous
 62
     7
370
    18
100
AcDbLine
 10
5156.944429651408
 20
2698.296165858718
 30
0.0
 11
5156.94442965141
 21
3050.332518004227
 31
0.0
  0
LINE
  5
1353
330
134F
100
AcDbEntity
  8
1
  6
Continuous
 62
     7
370
    18
100
AcDbLine
 10
5341.94442965141
 20
2698.296165858718
 30
0.0
 11
5341.94442965141
 21
3050.332518004227
 31
0.0
  0
LINE
  5
1354
330
134F
100
AcDbEntity
  8
1
  6
Continuous
 62
     7
370
    18
100
AcDbLine
 10
5156.944429651408
 20
2712.996165858718
 30
0.0
 11
5183.314204709099
 21
2720.061925790017
 31
0.0
  0
LINE
  5
1355
330
134F
100
AcDbEntity
  8
1
  6
Continuous
 62
     7
370
    18
100
AcDbLine
 10
5156.944429651408
 20
2712.996165858718
 30
0.0
 11
5183.314204709099
 21
2705.930405927419
 31
0.0
  0
LINE
  5
1356
330
134F
100
AcDbEntity
  8
1
  6
Continuous
 62
     7
370
    18
100
AcDbLine
 10
5341.94442965141
 20
2712.996165858718
 30
0.0
 11
5315.574654593719
 21
2705.93040592742
 31
0.0
  0
LINE
  5
1357
330
134F
100
AcDbEntity
  8
1
  6
Continuous
 62
     7
370
    18
100
AcDbLine
 10
5341.94442965141
 20
2712.996165858718
 30
0.0
 11
5315.574654593719
 21
2720.061925790017
 31
0.0
  0
TEXT
  5
1358
330
134F
100
AcDbEntity
  8
1
  6
Continuous
 62
     7
370
    18
100
AcDbText
 10
5144.444429651411
 20
2735.008856214048
 30
0.0
 40
63.0
  1
φ185
 41
1.333333333333333
 11
5144.444429651411
 21
2723.496165858718
 31
0.0
100
AcDbText
 73
     1
  0
ENDBLK
  5
1359
330
134F
100
AcDbEntity
  8
1
  6
Continuous
 62
     7
370
    18
100
AcDbBlockEnd
  0
BLOCK
  5
135C
330
135B
100
AcDbEntity
  8
1
  6
Continuous
 62
     7
370
    18
100
AcDbBlockBegin
  2
*G77
 70
     0
 10
0.0
 20
0.0
 30
0.0
  3
*G77
  1

  0
LINE
  5
135D
330
135B
100
AcDbEntity
  8
1
  6
Continuous
 62
     7
370
    18
100
AcDbLine
 10
240.0
 20
120.0
 30
0.0
 11
240.0
 21
5760.000000000002
 31
0.0
  0
LINE
  5
135E
330
135B
100
AcDbEntity
  8
1
  6
Continuous
 62
     7
370
    18
100
AcDbLine
 10
240.0
 20
5760.000000000002
 30
0.0
 11
8350.0
 21
5760.000000000002
 31
0.0
  0
LINE
  5
135F
330
135B
100
AcDbEntity
  8
1
  6
Continuous
 62
     7
370
    18
100
AcDbLine
 10
8350.0
 20
5760.000000000002
 30
0.0
 11
8350.0
 21
120.0
 31
0.0
  0
LINE
  5
1360
330
135B
100
AcDbEntity
  8
1
  6
Continuous
 62
     7
370
    18
100
AcDbLine
 10
8350.0
 20
120.0
 30
0.0
 11
240.0
 21
120.0
 31
0.0
  0
ENDBLK
  5
1361
330
135B
100
AcDbEntity
  8
0
100
AcDbBlockEnd
  0
BLOCK
  5
140E
330
140D
100
AcDbEntity
  8
1
  6
Continuous
 62
     7
370
    18
100
AcDbBlockBegin
  2
*G78
 70
     0
 10
0.0
 20
0.0
 30
0.0
  3
*G78
  1

  0
LINE
  5
140F
330
140D
100
AcDbEntity
  8
1
  6
Continuous
 62
     7
370
    18
100
AcDbLine
 10
2243.879778851473
 20
-1044.245571155763
 30
0.0
 11
2233.879778851473
 21
-1039.245571155763
 31
0.0
  0
LINE
  5
1410
330
140D
100
AcDbEntity
  8
1
  6
Continuous
 62
     7
370
    18
100
AcDbLine
 10
2178.879780851472
 20
-1044.245571155763
 30
0.0
 11
2243.879778851473
 21
-1044.245571155763
 31
0.0
  0
LINE
  5
1411
330
140D
100
AcDbEntity
  8
1
  6
Continuous
 62
     7
370
    18
100
AcDbLine
 10
2178.879780851472
 20
-1109.245570155763
 30
0.0
 11
2178.879780851472
 21
-1044.245571155763
 31
0.0
  0
ENDBLK
  5
1412
330
140D
100
AcDbEntity
  8
0
100
AcDbBlockEnd
  0
BLOCK
  5
1433
330
1432
100
AcDbEntity
  8
1
  6
Continuous
 62
     7
370
    18
100
AcDbBlockBegin
  2
*G79
 70
     0
 10
0.0
 20
0.0
 30
0.0
  3
*G79
  1

  0
LINE
  5
1434
330
1432
100
AcDbEntity
  8
1
  6
Continuous
 62
     7
370
    18
100
AcDbLine
 10
2874.814080851474
 20
-1044.245571155763
 30
0.0
 11
2864.814080851473
 21
-1039.245571155763
 31
0.0
  0
LINE
  5
1435
330
1432
100
AcDbEntity
  8
1
  6
Continuous
 62
     7
370
    18
100
AcDbLine
 10
2809.814082851474
 20
-1044.245571155763
 30
0.0
 11
2874.814080851474
 21
-1044.245571155763
 31
0.0
  0
LINE
  5
1436
330
1432
100
AcDbEntity
  8
1
  6
Continuous
 62
     7
370
    18
100
AcDbLine
 10
2809.814082851474
 20
-1109.245570155763
 30
0.0
 11
2809.814082851474
 21
-1044.245571155763
 31
0.0
  0
ENDBLK
  5
1437
330
1432
100
AcDbEntity
  8
0
100
AcDbBlockEnd
  0
BLOCK
  5
143D
330
143C
100
AcDbEntity
  8
1
  6
Continuous
 62
     7
370
    18
100
AcDbBlockBegin
  2
*G80
 70
     0
 10
0.0
 20
0.0
 30
0.0
  3
*G80
  1

  0
LINE
  5
143E
330
143C
100
AcDbEntity
  8
1
  6
Continuous
 62
     7
370
    18
100
AcDbLine
 10
3712.170537851473
 20
-1044.245571155763
 30
0.0
 11
3702.170537851473
 21
-1039.245571155763
 31
0.0
  0
LINE
  5
143F
330
143C
100
AcDbEntity
  8
1
  6
Continuous
 62
     7
370
    18
100
AcDbLine
 10
3647.170539851472
 20
-1044.245571155763
 30
0.0
 11
3712.170537851473
 21
-1044.245571155763
 31
0.0
  0
LINE
  5
1440
330
143C
100
AcDbEntity
  8
1
  6
Continuous
 62
     7
370
    18
100
AcDbLine
 10
3647.170539851472
 20
-1109.245570155763
 30
0.0
 11
3647.170539851472
 21
-1044.245571155763
 31
0.0
  0
ENDBLK
  5
1441
330
143C
100
AcDbEntity
  8
0
100
AcDbBlockEnd
  0
BLOCK
  5
2014
330
2013
100
AcDbEntity
  8
1
  6
Continuous
 62
     7
370
    18
100
AcDbBlockBegin
  2
*D81
 70
     0
 10
0.0
 20
0.0
 30
0.0
  3
*D81
  1

  0
LINE
  5
2015
330
2013
100
AcDbEntity
  8
1
  6
Continuous
 62
     7
370
    18
100
AcDbLine
 10
6161.613442936055
 20
-8727.692174916331
 30
0.0
 11
6161.613442936055
 21
-8927.69217491633
 31
0.0
  0
LINE
  5
2016
330
2013
100
AcDbEntity
  8
1
  6
Continuous
 62
     7
370
    18
100
AcDbLine
 10
6146.913442936056
 20
-8727.692174916331
 30
0.0
 11
6272.389209851475
 21
-8727.692174916331
 31
0.0
  0
LINE
  5
2017
330
2013
100
AcDbEntity
  8
1
  6
Continuous
 62
     7
370
    18
100
AcDbLine
 10
6146.913442936056
 20
-8927.69217491633
 30
0.0
 11
6470.130062654328
 21
-8927.69217491633
 31
0.0
  0
LINE
  5
2018
330
2013
100
AcDbEntity
  8
1
  6
Continuous
 62
     7
370
    18
100
AcDbLine
 10
6161.613442936055
 20
-8727.692174916331
 30
0.0
 11
6168.679202867354
 21
-8754.061949974023
 31
0.0
  0
LINE
  5
2019
330
2013
100
AcDbEntity
  8
1
  6
Continuous
 62
     7
370
    18
100
AcDbLine
 10
6161.613442936055
 20
-8727.692174916331
 30
0.0
 11
6154.547683004757
 21
-8754.061949974023
 31
0.0
  0
LINE
  5
201A
330
2013
100
AcDbEntity
  8
1
  6
Continuous
 62
     7
370
    18
100
AcDbLine
 10
6161.613442936055
 20
-8927.69217491633
 30
0.0
 11
6154.547683004757
 21
-8901.322399858639
 31
0.0
  0
LINE
  5
201B
330
2013
100
AcDbEntity
  8
1
  6
Continuous
 62
     7
370
    18
100
AcDbLine
 10
6161.613442936055
 20
-8927.69217491633
 30
0.0
 11
6168.679202867354
 21
-8901.322399858639
 31
0.0
  0
TEXT
  5
201C
330
2013
100
AcDbEntity
  8
1
  6
Continuous
 62
     7
370
    18
100
AcDbText
 10
6143.822072377679
 20
-8868.642174916331
 30
0.0
 40
39.9
  1
200
 50
89.99999999999991
 41
0.6842105263157895
 11
6151.113442936055
 21
-8868.642174916331
 31
0.0
100
AcDbText
 73
     1
  0
ENDBLK
  5
201D
330
2013
100
AcDbEntity
  8
1
  6
Continuous
 62
     7
370
    18
100
AcDbBlockEnd
  0
BLOCK
  5
2020
330
201F
100
AcDbEntity
  8
1
  6
Continuous
 62
     7
370
    18
100
AcDbBlockBegin
  2
*D82
 70
     0
 10
0.0
 20
0.0
 30
0.0
  3
*D82
  1

  0
LINE
  5
2021
330
201F
100
AcDbEntity
  8
1
  6
Continuous
 62
     7
370
    18
100
AcDbLine
 10
6161.613442936055
 20
-8885.69217491633
 30
0.0
 11
6161.613442936055
 21
-9004.69217491633
 31
0.0
  0
LINE
  5
2022
330
201F
100
AcDbEntity
  8
1
  6
Continuous
 62
     7
370
    18
100
AcDbLine
 10
6146.913442936056
 20
-8927.69217491633
 30
0.0
 11
6470.130062654328
 21
-8927.69217491633
 31
0.0
  0
LINE
  5
2023
330
201F
100
AcDbEntity
  8
1
  6
Continuous
 62
     7
370
    18
100
AcDbLine
 10
6146.913442936056
 20
-8962.69217491633
 30
0.0
 11
6470.130062654328
 21
-8962.69217491633
 31
0.0
  0
LINE
  5
2024
330
201F
100
AcDbEntity
  8
1
  6
Continuous
 62
     7
370
    18
100
AcDbLine
 10
6161.613442936055
 20
-8927.69217491633
 30
0.0
 11
6154.547683004757
 21
-8901.322399858639
 31
0.0
  0
LINE
  5
2025
330
201F
100
AcDbEntity
  8
1
  6
Continuous
 62
     7
370
    18
100
AcDbLine
 10
6161.613442936055
 20
-8927.69217491633
 30
0.0
 11
6168.679202867354
 21
-8901.322399858639
 31
0.0
  0
LINE
  5
2026
330
201F
100
AcDbEntity
  8
1
  6
Continuous
 62
     7
370
    18
100
AcDbLine
 10
6161.613442936055
 20
-8962.69217491633
 30
0.0
 11
6168.679202867354
 21
-8989.061949974022
 31
0.0
  0
LINE
  5
2027
330
201F
100
AcDbEntity
  8
1
  6
Continuous
 62
     7
370
    18
100
AcDbLine
 10
6161.613442936055
 20
-8962.69217491633
 30
0.0
 11
6154.547683004757
 21
-8989.061949974022
 31
0.0
  0
TEXT
  5
2028
330
201F
100
AcDbEntity
  8
1
  6
Continuous
 62
     7
370
    18
100
AcDbText
 10
6143.822072377679
 20
-8972.492174916331
 30
0.0
 40
39.9
  1
35
 50
89.99999999999991
 41
0.6842105263157895
 11
6151.113442936055
 21
-8972.492174916331
 31
0.0
100
AcDbText
 73
     1
  0
ENDBLK
  5
2029
330
201F
100
AcDbEntity
  8
1
  6
Continuous
 62
     7
370
    18
100
AcDbBlockEnd
  0
BLOCK
  5
202C
330
202B
100
AcDbEntity
  8
1
  6
Continuous
 62
     7
370
    18
100
AcDbBlockBegin
  2
*D83
 70
     0
 10
0.0
 20
0.0
 30
0.0
  3
*D83
  1

  0
LINE
  5
202D
330
202B
100
AcDbEntity
  8
1
  6
Continuous
 62
     7
370
    18
100
AcDbLine
 10
6161.613442936055
 20
-8962.69217491633
 30
0.0
 11
6161.613442936055
 21
-9127.692174916331
 31
0.0
  0
LINE
  5
202E
330
202B
100
AcDbEntity
  8
1
  6
Continuous
 62
     7
370
    18
100
AcDbLine
 10
6146.913442936056
 20
-8962.69217491633
 30
0.0
 11
6470.130062654328
 21
-8962.69217491633
 31
0.0
  0
LINE
  5
202F
330
202B
100
AcDbEntity
  8
1
  6
Continuous
 62
     7
370
    18
100
AcDbLine
 10
6146.913442936056
 20
-9127.692174916331
 30
0.0
 11
6272.389209851475
 21
-9127.692174916331
 31
0.0
  0
LINE
  5
2030
330
202B
100
AcDbEntity
  8
1
  6
Continuous
 62
     7
370
    18
100
AcDbLine
 10
6161.613442936055
 20
-8962.69217491633
 30
0.0
 11
6168.679202867354
 21
-8989.061949974022
 31
0.0
  0
LINE
  5
2031
330
202B
100
AcDbEntity
  8
1
  6
Continuous
 62
     7
370
    18
100
AcDbLine
 10
6161.613442936055
 20
-8962.69217491633
 30
0.0
 11
6154.547683004757
 21
-8989.061949974022
 31
0.0
  0
LINE
  5
2032
330
202B
100
AcDbEntity
  8
1
  6
Continuous
 62
     7
370
    18
100
AcDbLine
 10
6161.613442936055
 20
-9127.692174916331
 30
0.0
 11
6154.547683004757
 21
-9101.322399858638
 31
0.0
  0
LINE
  5
2033
330
202B
100
AcDbEntity
  8
1
  6
Continuous
 62
     7
370
    18
100
AcDbLine
 10
6161.613442936055
 20
-9127.692174916331
 30
0.0
 11
6168.679202867354
 21
-9101.322399858638
 31
0.0
  0
TEXT
  5
2034
330
202B
100
AcDbEntity
  8
1
  6
Continuous
 62
     7
370
    18
100
AcDbText
 10
6143.822072377679
 20
-9086.14217491633
 30
0.0
 40
39.9
  1
165
 50
89.99999999999991
 41
0.6842105263157895
 11
6151.113442936055
 21
-9086.14217491633
 31
0.0
100
AcDbText
 73
     1
  0
ENDBLK
  5
2035
330
202B
100
AcDbEntity
  8
1
  6
Continuous
 62
     7
370
    18
100
AcDbBlockEnd
  0
BLOCK
  5
2038
330
2037
100
AcDbEntity
  8
1
  6
Continuous
 62
     7
370
    18
100
AcDbBlockBegin
  2
*D84
 70
     0
 10
0.0
 20
0.0
 30
0.0
  3
*D84
  1

  0
LINE
  5
2039
330
2037
100
AcDbEntity
  8
1
  6
Continuous
 62
     7
370
    18
100
AcDbLine
 10
6161.613442936055
 20
-9127.692174916331
 30
0.0
 11
6161.613442936055
 21
-9207.69217491633
 31
0.0
  0
LINE
  5
203A
330
2037
100
AcDbEntity
  8
1
  6
Continuous
 62
     7
370
    18
100
AcDbLine
 10
6146.913442936056
 20
-9127.692174916331
 30
0.0
 11
6272.389209851475
 21
-9127.692174916331
 31
0.0
  0
LINE
  5
203B
330
2037
100
AcDbEntity
  8
1
  6
Continuous
 62
     7
370
    18
100
AcDbLine
 10
6146.913442936056
 20
-9207.69217491633
 30
0.0
 11
6272.389209851475
 21
-9207.69217491633
 31
0.0
  0
LINE
  5
203C
330
2037
100
AcDbEntity
  8
1
  6
Continuous
 62
     7
370
    18
100
AcDbLine
 10
6161.613442936055
 20
-9127.692174916331
 30
0.0
 11
6168.679202867354
 21
-9154.061949974023
 31
0.0
  0
LINE
  5
203D
330
2037
100
AcDbEntity
  8
1
  6
Continuous
 62
     7
370
    18
100
AcDbLine
 10
6161.613442936055
 20
-9127.692174916331
 30
0.0
 11
6154.547683004757
 21
-9154.061949974023
 31
0.0
  0
LINE
  5
203E
330
2037
100
AcDbEntity
  8
1
  6
Continuous
 62
     7
370
    18
100
AcDbLine
 10
6161.613442936055
 20
-9207.69217491633
 30
0.0
 11
6154.547683004757
 21
-9181.322399858638
 31
0.0
  0
LINE
  5
203F
330
2037
100
AcDbEntity
  8
1
  6
Continuous
 62
     7
370
    18
100
AcDbLine
 10
6161.613442936055
 20
-9207.69217491633
 30
0.0
 11
6168.679202867354
 21
-9181.322399858638
 31
0.0
  0
TEXT
  5
2040
330
2037
100
AcDbEntity
  8
1
  6
Continuous
 62
     7
370
    18
100
AcDbText
 10
6143.822072377679
 20
-9194.992174916329
 30
0.0
 40
39.9
  1
80
 50
89.99999999999991
 41
0.6842105263157895
 11
6151.113442936055
 21
-9194.992174916329
 31
0.0
100
AcDbText
 73
     1
  0
ENDBLK
  5
2041
330
2037
100
AcDbEntity
  8
1
  6
Continuous
 62
     7
370
    18
100
AcDbBlockEnd
  0
BLOCK
  5
2044
330
2043
100
AcDbEntity
  8
1
  6
Continuous
 62
     7
370
    18
100
AcDbBlockBegin
  2
*D85
 70
     0
 10
0.0
 20
0.0
 30
0.0
  3
*D85
  1

  0
LINE
  5
2045
330
2043
100
AcDbEntity
  8
1
  6
Continuous
 62
     7
370
    18
100
AcDbLine
 10
6021.311200682556
 20
-8727.692174916331
 30
0.0
 11
6021.311200682556
 21
-9207.69217491633
 31
0.0
  0
LINE
  5
2046
330
2043
100
AcDbEntity
  8
1
  6
Continuous
 62
     7
370
    18
100
AcDbLine
 10
6006.611200682556
 20
-8727.692174916331
 30
0.0
 11
6272.389209851475
 21
-8727.692174916331
 31
0.0
  0
LINE
  5
2047
330
2043
100
AcDbEntity
  8
1
  6
Continuous
 62
     7
370
    18
100
AcDbLine
 10
6006.611200682556
 20
-9207.69217491633
 30
0.0
 11
6272.389209851475
 21
-9207.69217491633
 31
0.0
  0
LINE
  5
2048
330
2043
100
AcDbEntity
  8
1
  6
Continuous
 62
     7
370
    18
100
AcDbLine
 10
6021.311200682556
 20
-8727.692174916331
 30
0.0
 11
6028.376960613854
 21
-8754.061949974023
 31
0.0
  0
LINE
  5
2049
330
2043
100
AcDbEntity
  8
1
  6
Continuous
 62
     7
370
    18
100
AcDbLine
 10
6021.311200682556
 20
-8727.692174916331
 30
0.0
 11
6014.245440751256
 21
-8754.061949974023
 31
0.0
  0
LINE
  5
204A
330
2043
100
AcDbEntity
  8
1
  6
Continuous
 62
     7
370
    18
100
AcDbLine
 10
6021.311200682556
 20
-9207.69217491633
 30
0.0
 11
6014.245440751256
 21
-9181.322399858638
 31
0.0
  0
LINE
  5
204B
330
2043
100
AcDbEntity
  8
1
  6
Continuous
 62
     7
370
    18
100
AcDbLine
 10
6021.311200682556
 20
-9207.69217491633
 30
0.0
 11
6028.376960613854
 21
-9181.322399858638
 31
0.0
  0
TEXT
  5
204C
330
2043
100
AcDbEntity
  8
1
  6
Continuous
 62
     7
370
    18
100
AcDbText
 10
6003.519830124179
 20
-9008.64217491633
 30
0.0
 40
39.9
  1
480
 50
89.99999999999991
 41
0.6842105263157895
 11
6010.811200682556
 21
-9008.64217491633
 31
0.0
100
AcDbText
 73
     1
  0
ENDBLK
  5
204D
330
2043
100
AcDbEntity
  8
1
  6
Continuous
 62
     7
370
    18
100
AcDbBlockEnd
  0
BLOCK
  5
2050
330
204F
100
AcDbEntity
  8
1
  6
Continuous
 62
     7
370
    18
100
AcDbBlockBegin
  2
*D86
 70
     0
 10
0.0
 20
0.0
 30
0.0
  3
*D86
  1

  0
LINE
  5
2051
330
204F
100
AcDbEntity
  8
1
  6
Continuous
 62
     7
370
    18
100
AcDbLine
 10
7255.827257020438
 20
-8927.692174916334
 30
0.0
 11
7255.827257020438
 21
-9027.692174916333
 31
0.0
  0
LINE
  5
2052
330
204F
100
AcDbEntity
  8
1
  6
Continuous
 62
     7
370
    18
100
AcDbLine
 10
7270.527257020437
 20
-8927.692174916334
 30
0.0
 11
7114.38920985148
 21
-8927.69217491633
 31
0.0
  0
LINE
  5
2053
330
204F
100
AcDbEntity
  8
1
  6
Continuous
 62
     7
370
    18
100
AcDbLine
 10
7270.527257020437
 20
-9027.692174916333
 30
0.0
 11
7114.38920985148
 21
-9027.69217491633
 31
0.0
  0
LINE
  5
2054
330
204F
100
AcDbEntity
  8
1
  6
Continuous
 62
     7
370
    18
100
AcDbLine
 10
7255.827257020438
 20
-8927.692174916334
 30
0.0
 11
7262.893016951736
 21
-8954.061949974025
 31
0.0
  0
LINE
  5
2055
330
204F
100
AcDbEntity
  8
1
  6
Continuous
 62
     7
370
    18
100
AcDbLine
 10
7255.827257020438
 20
-8927.692174916334
 30
0.0
 11
7248.761497089138
 21
-8954.061949974025
 31
0.0
  0
LINE
  5
2056
330
204F
100
AcDbEntity
  8
1
  6
Continuous
 62
     7
370
    18
100
AcDbLine
 10
7255.827257020438
 20
-9027.692174916333
 30
0.0
 11
7248.761497089138
 21
-9001.322399858642
 31
0.0
  0
LINE
  5
2057
330
204F
100
AcDbEntity
  8
1
  6
Continuous
 62
     7
370
    18
100
AcDbLine
 10
7255.827257020438
 20
-9027.692174916333
 30
0.0
 11
7262.893016951736
 21
-9001.322399858642
 31
0.0
  0
TEXT
  5
2058
330
204F
100
AcDbEntity
  8
1
  6
Continuous
 62
     7
370
    18
100
AcDbText
 10
7238.035886462061
 20
-9018.642174916335
 30
0.0
 40
39.9
  1
100
 50
89.99999999999991
 41
0.6842105263157895
 11
7245.327257020438
 21
-9018.642174916335
 31
0.0
100
AcDbText
 73
     1
  0
ENDBLK
  5
2059
330
204F
100
AcDbEntity
  8
1
  6
Continuous
 62
     7
370
    18
100
AcDbBlockEnd
  0
BLOCK
  5
205C
330
205B
100
AcDbEntity
  8
1
  6
Continuous
 62
     7
370
    18
100
AcDbBlockBegin
  2
*D87
 70
     0
 10
0.0
 20
0.0
 30
0.0
  3
*D87
  1

  0
LINE
  5
205D
330
205B
100
AcDbEntity
  8
1
  6
Continuous
 62
     7
370
    18
100
AcDbLine
 10
7255.827257020438
 20
-9027.692174916333
 30
0.0
 11
7255.827257020438
 21
-9127.692174916333
 31
0.0
  0
LINE
  5
205E
330
205B
100
AcDbEntity
  8
1
  6
Continuous
 62
     7
370
    18
100
AcDbLine
 10
7270.527257020437
 20
-9027.692174916333
 30
0.0
 11
7114.38920985148
 21
-9027.69217491633
 31
0.0
  0
LINE
  5
205F
330
205B
100
AcDbEntity
  8
1
  6
Continuous
 62
     7
370
    18
100
AcDbLine
 10
7270.527257020437
 20
-9127.692174916333
 30
0.0
 11
7114.38920985148
 21
-9127.692174916331
 31
0.0
  0
LINE
  5
2060
330
205B
100
AcDbEntity
  8
1
  6
Continuous
 62
     7
370
    18
100
AcDbLine
 10
7255.827257020438
 20
-9027.692174916333
 30
0.0
 11
7262.893016951736
 21
-9054.061949974025
 31
0.0
  0
LINE
  5
2061
330
205B
100
AcDbEntity
  8
1
  6
Continuous
 62
     7
370
    18
100
AcDbLine
 10
7255.827257020438
 20
-9027.692174916333
 30
0.0
 11
7248.761497089138
 21
-9054.061949974025
 31
0.0
  0
LINE
  5
2062
330
205B
100
AcDbEntity
  8
1
  6
Continuous
 62
     7
370
    18
100
AcDbLine
 10
7255.827257020438
 20
-9127.692174916333
 30
0.0
 11
7248.761497089138
 21
-9101.322399858643
 31
0.0
  0
LINE
  5
2063
330
205B
100
AcDbEntity
  8
1
  6
Continuous
 62
     7
370
    18
100
AcDbLine
 10
7255.827257020438
 20
-9127.692174916333
 30
0.0
 11
7262.893016951736
 21
-9101.322399858643
 31
0.0
  0
TEXT
  5
2064
330
205B
100
AcDbEntity
  8
1
  6
Continuous
 62
     7
370
    18
100
AcDbText
 10
7238.035886462061
 20
-9118.642174916335
 30
0.0
 40
39.9
  1
100
 50
89.99999999999991
 41
0.6842105263157895
 11
7245.327257020438
 21
-9118.642174916335
 31
0.0
100
AcDbText
 73
     1
  0
ENDBLK
  5
2065
330
205B
100
AcDbEntity
  8
1
  6
Continuous
 62
     7
370
    18
100
AcDbBlockEnd
  0
BLOCK
  5
2068
330
2067
100
AcDbEntity
  8
1
  6
Continuous
 62
     7
370
    18
100
AcDbBlockBegin
  2
*D88
 70
     0
 10
0.0
 20
0.0
 30
0.0
  3
*D88
  1

  0
LINE
  5
2069
330
2067
100
AcDbEntity
  8
1
  6
Continuous
 62
     7
370
    18
100
AcDbLine
 10
7409.341397865488
 20
-8927.692174916334
 30
0.0
 11
7409.341397865488
 21
-9127.692174916333
 31
0.0
  0
LINE
  5
206A
330
2067
100
AcDbEntity
  8
1
  6
Continuous
 62
     7
370
    18
100
AcDbLine
 10
7424.041397865488
 20
-8927.692174916334
 30
0.0
 11
7114.38920985148
 21
-8927.69217491633
 31
0.0
  0
LINE
  5
206B
330
2067
100
AcDbEntity
  8
1
  6
Continuous
 62
     7
370
    18
100
AcDbLine
 10
7424.041397865488
 20
-9127.692174916333
 30
0.0
 11
7114.38920985148
 21
-9127.692174916331
 31
0.0
  0
LINE
  5
206C
330
2067
100
AcDbEntity
  8
1
  6
Continuous
 62
     7
370
    18
100
AcDbLine
 10
7409.341397865488
 20
-8927.692174916334
 30
0.0
 11
7416.407157796787
 21
-8954.061949974025
 31
0.0
  0
LINE
  5
206D
330
2067
100
AcDbEntity
  8
1
  6
Continuous
 62
     7
370
    18
100
AcDbLine
 10
7409.341397865488
 20
-8927.692174916334
 30
0.0
 11
7402.275637934188
 21
-8954.061949974025
 31
0.0
  0
LINE
  5
206E
330
2067
100
AcDbEntity
  8
1
  6
Continuous
 62
     7
370
    18
100
AcDbLine
 10
7409.341397865488
 20
-9127.692174916333
 30
0.0
 11
7402.275637934188
 21
-9101.322399858643
 31
0.0
  0
LINE
  5
206F
330
2067
100
AcDbEntity
  8
1
  6
Continuous
 62
     7
370
    18
100
AcDbLine
 10
7409.341397865488
 20
-9127.692174916333
 30
0.0
 11
7416.407157796787
 21
-9101.322399858643
 31
0.0
  0
TEXT
  5
2070
330
2067
100
AcDbEntity
  8
1
  6
Continuous
 62
     7
370
    18
100
AcDbText
 10
7391.550027307111
 20
-9068.642174916334
 30
0.0
 40
39.9
  1
200
 50
89.99999999999991
 41
0.6842105263157895
 11
7398.841397865488
 21
-9068.642174916334
 31
0.0
100
AcDbText
 73
     1
  0
ENDBLK
  5
2071
330
2067
100
AcDbEntity
  8
1
  6
Continuous
 62
     7
370
    18
100
AcDbBlockEnd
  0
BLOCK
  5
2074
330
2073
100
AcDbEntity
  8
1
  6
Continuous
 62
     7
370
    18
100
AcDbBlockBegin
  2
*D89
 70
     0
 10
0.0
 20
0.0
 30
0.0
  3
*D89
  1

  0
LINE
  5
2075
330
2073
100
AcDbEntity
  8
1
  6
Continuous
 62
     7
370
    18
100
AcDbLine
 10
7546.770130259838
 20
-8727.692174916338
 30
0.0
 11
7546.770130259838
 21
-9127.692174916333
 31
0.0
  0
LINE
  5
2076
330
2073
100
AcDbEntity
  8
1
  6
Continuous
 62
     7
370
    18
100
AcDbLine
 10
7561.470130259838
 20
-8727.692174916338
 30
0.0
 11
6714.389209851475
 21
-8727.692174916331
 31
0.0
  0
LINE
  5
2077
330
2073
100
AcDbEntity
  8
1
  6
Continuous
 62
     7
370
    18
100
AcDbLine
 10
7561.470130259838
 20
-9127.692174916333
 30
0.0
 11
7135.389209851479
 21
-9127.692174916331
 31
0.0
  0
LINE
  5
2078
330
2073
100
AcDbEntity
  8
1
  6
Continuous
 62
     7
370
    18
100
AcDbLine
 10
7546.770130259838
 20
-8727.692174916338
 30
0.0
 11
7553.835890191137
 21
-8754.06194997403
 31
0.0
  0
LINE
  5
2079
330
2073
100
AcDbEntity
  8
1
  6
Continuous
 62
     7
370
    18
100
AcDbLine
 10
7546.770130259838
 20
-8727.692174916338
 30
0.0
 11
7539.704370328539
 21
-8754.06194997403
 31
0.0
  0
LINE
  5
207A
330
2073
100
AcDbEntity
  8
1
  6
Continuous
 62
     7
370
    18
100
AcDbLine
 10
7546.770130259838
 20
-9127.692174916333
 30
0.0
 11
7539.704370328539
 21
-9101.322399858643
 31
0.0
  0
LINE
  5
207B
330
2073
100
AcDbEntity
  8
1
  6
Continuous
 62
     7
370
    18
100
AcDbLine
 10
7546.770130259838
 20
-9127.692174916333
 30
0.0
 11
7553.835890191137
 21
-9101.322399858643
 31
0.0
  0
TEXT
  5
207C
330
2073
100
AcDbEntity
  8
1
  6
Continuous
 62
     7
370
    18
100
AcDbText
 10
7528.978759701463
 20
-8968.642174916338
 30
0.0
 40
39.9
  1
400
 50
89.99999999999991
 41
0.6842105263157895
 11
7536.270130259838
 21
-8968.642174916338
 31
0.0
100
AcDbText
 73
     1
  0
ENDBLK
  5
207D
330
2073
100
AcDbEntity
  8
1
  6
Continuous
 62
     7
370
    18
100
AcDbBlockEnd
  0
BLOCK
  5
2080
330
207F
100
AcDbEntity
  8
1
  6
Continuous
 62
     7
370
    18
100
AcDbBlockBegin
  2
*D90
 70
     0
 10
0.0
 20
0.0
 30
0.0
  3
*D90
  1

  0
LINE
  5
2081
330
207F
100
AcDbEntity
  8
1
  6
Continuous
 62
     7
370
    18
100
AcDbLine
 10
7546.770130259838
 20
-9127.692174916333
 30
0.0
 11
7546.770130259838
 21
-9207.692174916335
 31
0.0
  0
LINE
  5
2082
330
207F
100
AcDbEntity
  8
1
  6
Continuous
 62
     7
370
    18
100
AcDbLine
 10
7561.470130259838
 20
-9127.692174916333
 30
0.0
 11
7114.38920985148
 21
-9127.692174916331
 31
0.0
  0
LINE
  5
2083
330
207F
100
AcDbEntity
  8
1
  6
Continuous
 62
     7
370
    18
100
AcDbLine
 10
7561.470130259838
 20
-9207.692174916335
 30
0.0
 11
7114.38920985148
 21
-9207.69217491633
 31
0.0
  0
LINE
  5
2084
330
207F
100
AcDbEntity
  8
1
  6
Continuous
 62
     7
370
    18
100
AcDbLine
 10
7546.770130259838
 20
-9127.692174916333
 30
0.0
 11
7553.835890191137
 21
-9154.061949974027
 31
0.0
  0
LINE
  5
2085
330
207F
100
AcDbEntity
  8
1
  6
Continuous
 62
     7
370
    18
100
AcDbLine
 10
7546.770130259838
 20
-9127.692174916333
 30
0.0
 11
7539.704370328539
 21
-9154.061949974027
 31
0.0
  0
LINE
  5
2086
330
207F
100
AcDbEntity
  8
1
  6
Continuous
 62
     7
370
    18
100
AcDbLine
 10
7546.770130259838
 20
-9207.692174916335
 30
0.0
 11
7539.704370328539
 21
-9181.322399858641
 31
0.0
  0
LINE
  5
2087
330
207F
100
AcDbEntity
  8
1
  6
Continuous
 62
     7
370
    18
100
AcDbLine
 10
7546.770130259838
 20
-9207.692174916335
 30
0.0
 11
7553.835890191137
 21
-9181.322399858641
 31
0.0
  0
TEXT
  5
2088
330
207F
100
AcDbEntity
  8
1
  6
Continuous
 62
     7
370
    18
100
AcDbText
 10
7528.978759701463
 20
-9194.992174916334
 30
0.0
 40
39.9
  1
80
 50
89.99999999999991
 41
0.6842105263157895
 11
7536.270130259838
 21
-9194.992174916334
 31
0.0
100
AcDbText
 73
     1
  0
ENDBLK
  5
2089
330
207F
100
AcDbEntity
  8
1
  6
Continuous
 62
     7
370
    18
100
AcDbBlockEnd
  0
BLOCK
  5
208C
330
208B
100
AcDbEntity
  8
1
  6
Continuous
 62
     7
370
    18
100
AcDbBlockBegin
  2
*D91
 70
     0
 10
0.0
 20
0.0
 30
0.0
  3
*D91
  1

  0
LINE
  5
208D
330
208B
100
AcDbEntity
  8
1
  6
Continuous
 62
     7
370
    18
100
AcDbLine
 10
7697.31705983729
 20
-8727.69217491634
 30
0.0
 11
7697.31705983729
 21
-9207.692174916337
 31
0.0
  0
LINE
  5
208E
330
208B
100
AcDbEntity
  8
1
  6
Continuous
 62
     7
370
    18
100
AcDbLine
 10
7712.017059837291
 20
-8727.69217491634
 30
0.0
 11
6714.389209851475
 21
-8727.692174916331
 31
0.0
  0
LINE
  5
208F
330
208B
100
AcDbEntity
  8
1
  6
Continuous
 62
     7
370
    18
100
AcDbLine
 10
7712.017059837291
 20
-9207.692174916337
 30
0.0
 11
7114.38920985148
 21
-9207.69217491633
 31
0.0
  0
LINE
  5
2090
330
208B
100
AcDbEntity
  8
1
  6
Continuous
 62
     7
370
    18
100
AcDbLine
 10
7697.31705983729
 20
-8727.69217491634
 30
0.0
 11
7704.382819768589
 21
-8754.061949974033
 31
0.0
  0
LINE
  5
2091
330
208B
100
AcDbEntity
  8
1
  6
Continuous
 62
     7
370
    18
100
AcDbLine
 10
7697.31705983729
 20
-8727.69217491634
 30
0.0
 11
7690.251299905992
 21
-8754.061949974033
 31
0.0
  0
LINE
  5
2092
330
208B
100
AcDbEntity
  8
1
  6
Continuous
 62
     7
370
    18
100
AcDbLine
 10
7697.31705983729
 20
-9207.692174916337
 30
0.0
 11
7690.251299905992
 21
-9181.322399858645
 31
0.0
  0
LINE
  5
2093
330
208B
100
AcDbEntity
  8
1
  6
Continuous
 62
     7
370
    18
100
AcDbLine
 10
7697.31705983729
 20
-9207.692174916337
 30
0.0
 11
7704.382819768589
 21
-9181.322399858645
 31
0.0
  0
TEXT
  5
2094
330
208B
100
AcDbEntity
  8
1
  6
Continuous
 62
     7
370
    18
100
AcDbText
 10
7679.525689278915
 20
-9008.642174916337
 30
0.0
 40
39.9
  1
480
 50
89.99999999999991
 41
0.6842105263157895
 11
7686.817059837292
 21
-9008.642174916337
 31
0.0
100
AcDbText
 73
     1
  0
ENDBLK
  5
2095
330
208B
100
AcDbEntity
  8
1
  6
Continuous
 62
     7
370
    18
100
AcDbBlockEnd
  0
BLOCK
  5
2098
330
2097
100
AcDbEntity
  8
1
  6
Continuous
 62
     7
370
    18
100
AcDbBlockBegin
  2
*D92
 70
     0
 10
0.0
 20
0.0
 30
0.0
  3
*D92
  1

  0
LINE
  5
2099
330
2097
100
AcDbEntity
  8
1
  6
Continuous
 62
     7
370
    18
100
AcDbLine
 10
7011.389209851479
 20
-9429.794955268404
 30
0.0
 11
7158.504383781019
 21
-9429.794955268404
 31
0.0
  0
LINE
  5
209A
330
2097
100
AcDbEntity
  8
1
  6
Continuous
 62
     7
370
    18
100
AcDbLine
 10
7053.389209851478
 20
-9444.494955268405
 30
0.0
 11
7053.389209851478
 21
-9228.69217491633
 31
0.0
  0
LINE
  5
209B
330
2097
100
AcDbEntity
  8
1
  6
Continuous
 62
     7
370
    18
100
AcDbLine
 10
7093.389209851479
 20
-9444.494955268405
 30
0.0
 11
7093.389209851479
 21
-9228.69217491633
 31
0.0
  0
LINE
  5
209C
330
2097
100
AcDbEntity
  8
1
  6
Continuous
 62
     7
370
    18
100
AcDbLine
 10
7053.389209851478
 20
-9429.794955268404
 30
0.0
 11
7027.019434793787
 21
-9436.860715199703
 31
0.0
  0
LINE
  5
209D
330
2097
100
AcDbEntity
  8
1
  6
Continuous
 62
     7
370
    18
100
AcDbLine
 10
7053.389209851478
 20
-9429.794955268404
 30
0.0
 11
7027.019434793787
 21
-9422.729195337106
 31
0.0
  0
LINE
  5
209E
330
2097
100
AcDbEntity
  8
1
  6
Continuous
 62
     7
370
    18
100
AcDbLine
 10
7093.389209851479
 20
-9429.794955268404
 30
0.0
 11
7119.75898490917
 21
-9422.729195337106
 31
0.0
  0
LINE
  5
209F
330
2097
100
AcDbEntity
  8
1
  6
Continuous
 62
     7
370
    18
100
AcDbLine
 10
7093.389209851479
 20
-9429.794955268404
 30
0.0
 11
7119.75898490917
 21
-9436.860715199703
 31
0.0
  0
TEXT
  5
20A0
330
2097
100
AcDbEntity
  8
1
  6
Continuous
 62
     7
370
    18
100
AcDbText
 10
7103.904383781018
 20
-9412.003584710028
 30
0.0
 40
39.9
  1
40
 41
0.6842105263157895
 11
7103.904383781018
 21
-9419.294955268403
 31
0.0
100
AcDbText
 73
     1
  0
ENDBLK
  5
20A1
330
2097
100
AcDbEntity
  8
1
  6
Continuous
 62
     7
370
    18
100
AcDbBlockEnd
  0
BLOCK
  5
20A4
330
20A3
100
AcDbEntity
  8
1
  6
Continuous
 62
     7
370
    18
100
AcDbBlockBegin
  2
*D93
 70
     0
 10
0.0
 20
0.0
 30
0.0
  3
*D93
  1

  0
LINE
  5
20A5
330
20A3
100
AcDbEntity
  8
1
  6
Continuous
 62
     7
370
    18
100
AcDbLine
 10
6596.389209851475
 20
-9520.997659493747
 30
0.0
 11
6708.389209851475
 21
-9520.997659493747
 31
0.0
  0
LINE
  5
20A6
330
20A3
100
AcDbEntity
  8
1
  6
Continuous
 62
     7
370
    18
100
AcDbLine
 10
6596.389209851475
 20
-9535.697659493747
 30
0.0
 11
6596.389209851475
 21
-9228.69217491633
 31
0.0
  0
LINE
  5
20A7
330
20A3
100
AcDbEntity
  8
1
  6
Continuous
 62
     7
370
    18
100
AcDbLine
 10
6708.389209851475
 20
-9535.697659493747
 30
0.0
 11
6708.389209851475
 21
-9228.69217491633
 31
0.0
  0
LINE
  5
20A8
330
20A3
100
AcDbEntity
  8
1
  6
Continuous
 62
     7
370
    18
100
AcDbLine
 10
6596.389209851475
 20
-9520.997659493747
 30
0.0
 11
6622.758984909167
 21
-9513.931899562448
 31
0.0
  0
LINE
  5
20A9
330
20A3
100
AcDbEntity
  8
1
  6
Continuous
 62
     7
370
    18
100
AcDbLine
 10
6596.389209851475
 20
-9520.997659493747
 30
0.0
 11
6622.758984909167
 21
-9528.063419425045
 31
0.0
  0
LINE
  5
20AA
330
20A3
100
AcDbEntity
  8
1
  6
Continuous
 62
     7
370
    18
100
AcDbLine
 10
6708.389209851475
 20
-9520.997659493747
 30
0.0
 11
6682.019434793784
 21
-9528.063419425045
 31
0.0
  0
LINE
  5
20AB
330
20A3
100
AcDbEntity
  8
1
  6
Continuous
 62
     7
370
    18
100
AcDbLine
 10
6708.389209851475
 20
-9520.997659493747
 30
0.0
 11
6682.019434793784
 21
-9513.931899562448
 31
0.0
  0
TEXT
  5
20AC
330
20A3
100
AcDbEntity
  8
1
  6
Continuous
 62
     7
370
    18
100
AcDbText
 10
6611.439209851475
 20
-9503.206288935372
 30
0.0
 40
39.9
  1
112
 41
0.6842105263157895
 11
6611.439209851475
 21
-9510.497659493747
 31
0.0
100
AcDbText
 73
     1
  0
ENDBLK
  5
20AD
330
20A3
100
AcDbEntity
  8
1
  6
Continuous
 62
     7
370
    18
100
AcDbBlockEnd
  0
BLOCK
  5
20B0
330
20AF
100
AcDbEntity
  8
1
  6
Continuous
 62
     7
370
    18
100
AcDbBlockBegin
  2
*D94
 70
     0
 10
0.0
 20
0.0
 30
0.0
  3
*D94
  1

  0
LINE
  5
20B1
330
20AF
100
AcDbEntity
  8
1
  6
Continuous
 62
     7
370
    18
100
AcDbLine
 10
6293.389209851476
 20
-9520.997659493747
 30
0.0
 11
6596.389209851475
 21
-9520.997659493747
 31
0.0
  0
LINE
  5
20B2
330
20AF
100
AcDbEntity
  8
1
  6
Continuous
 62
     7
370
    18
100
AcDbLine
 10
6293.389209851476
 20
-9535.697659493747
 30
0.0
 11
6293.389209851476
 21
-9228.69217491633
 31
0.0
  0
LINE
  5
20B3
330
20AF
100
AcDbEntity
  8
1
  6
Continuous
 62
     7
370
    18
100
AcDbLine
 10
6596.389209851475
 20
-9535.697659493747
 30
0.0
 11
6596.389209851475
 21
-9228.69217491633
 31
0.0
  0
LINE
  5
20B4
330
20AF
100
AcDbEntity
  8
1
  6
Continuous
 62
     7
370
    18
100
AcDbLine
 10
6293.389209851476
 20
-9520.997659493747
 30
0.0
 11
6319.758984909166
 21
-9513.931899562448
 31
0.0
  0
LINE
  5
20B5
330
20AF
100
AcDbEntity
  8
1
  6
Continuous
 62
     7
370
    18
100
AcDbLine
 10
6293.389209851476
 20
-9520.997659493747
 30
0.0
 11
6319.758984909166
 21
-9528.063419425045
 31
0.0
  0
LINE
  5
20B6
330
20AF
100
AcDbEntity
  8
1
  6
Continuous
 62
     7
370
    18
100
AcDbLine
 10
6596.389209851475
 20
-9520.997659493747
 30
0.0
 11
6570.019434793784
 21
-9528.063419425045
 31
0.0
  0
LINE
  5
20B7
330
20AF
100
AcDbEntity
  8
1
  6
Continuous
 62
     7
370
    18
100
AcDbLine
 10
6596.389209851475
 20
-9520.997659493747
 30
0.0
 11
6570.019434793784
 21
-9513.931899562448
 31
0.0
  0
TEXT
  5
20B8
330
20AF
100
AcDbEntity
  8
1
  6
Continuous
 62
     7
370
    18
100
AcDbText
 10
6403.939209851476
 20
-9503.206288935372
 30
0.0
 40
39.9
  1
303
 41
0.6842105263157895
 11
6403.939209851476
 21
-9510.497659493747
 31
0.0
100
AcDbText
 73
     1
  0
ENDBLK
  5
20B9
330
20AF
100
AcDbEntity
  8
1
  6
Continuous
 62
     7
370
    18
100
AcDbBlockEnd
  0
BLOCK
  5
20BC
330
20BB
100
AcDbEntity
  8
1
  6
Continuous
 62
     7
370
    18
100
AcDbBlockBegin
  2
*D95
 70
     0
 10
0.0
 20
0.0
 30
0.0
  3
*D95
  1

  0
LINE
  5
20BD
330
20BB
100
AcDbEntity
  8
1
  6
Continuous
 62
     7
370
    18
100
AcDbLine
 10
6293.389209851476
 20
-9663.736138366974
 30
0.0
 11
7093.389209851472
 21
-9663.736138366974
 31
0.0
  0
LINE
  5
20BE
330
20BB
100
AcDbEntity
  8
1
  6
Continuous
 62
     7
370
    18
100
AcDbLine
 10
6293.389209851476
 20
-9678.436138366976
 30
0.0
 11
6293.389209851476
 21
-9228.69217491633
 31
0.0
  0
LINE
  5
20BF
330
20BB
100
AcDbEntity
  8
1
  6
Continuous
 62
     7
370
    18
100
AcDbLine
 10
7093.389209851472
 20
-9678.436138366976
 30
0.0
 11
7093.389209851479
 21
-9228.69217491633
 31
0.0
  0
LINE
  5
20C0
330
20BB
100
AcDbEntity
  8
1
  6
Continuous
 62
     7
370
    18
100
AcDbLine
 10
6293.389209851476
 20
-9663.736138366974
 30
0.0
 11
6319.758984909166
 21
-9656.670378435677
 31
0.0
  0
LINE
  5
20C1
330
20BB
100
AcDbEntity
  8
1
  6
Continuous
 62
     7
370
    18
100
AcDbLine
 10
6293.389209851476
 20
-9663.736138366974
 30
0.0
 11
6319.758984909166
 21
-9670.801898298272
 31
0.0
  0
LINE
  5
20C2
330
20BB
100
AcDbEntity
  8
1
  6
Continuous
 62
     7
370
    18
100
AcDbLine
 10
7093.389209851472
 20
-9663.736138366974
 30
0.0
 11
7067.019434793781
 21
-9670.801898298272
 31
0.0
  0
LINE
  5
20C3
330
20BB
100
AcDbEntity
  8
1
  6
Continuous
 62
     7
370
    18
100
AcDbLine
 10
7093.389209851472
 20
-9663.736138366974
 30
0.0
 11
7067.019434793781
 21
-9656.670378435677
 31
0.0
  0
TEXT
  5
20C4
330
20BB
100
AcDbEntity
  8
1
  6
Continuous
 62
     7
370
    18
100
AcDbText
 10
6652.439209851475
 20
-9645.944767808598
 30
0.0
 40
39.9
  1
800
 41
0.6842105263157895
 11
6652.439209851475
 21
-9653.236138366974
 31
0.0
100
AcDbText
 73
     1
  0
ENDBLK
  5
20C5
330
20BB
100
AcDbEntity
  8
1
  6
Continuous
 62
     7
370
    18
100
AcDbBlockEnd
  0
BLOCK
  5
20D3
330
20D2
100
AcDbEntity
  8
1
  6
Continuous
 62
     7
370
    18
100
AcDbBlockBegin
  2
*D96
 70
     0
 10
0.0
 20
0.0
 30
0.0
  3
*D96
  1

  0
LINE
  5
20D4
330
20D2
100
AcDbEntity
  8
1
  6
Continuous
 62
     7
370
    18
100
AcDbLine
 10
6708.389209851475
 20
-9429.794955268404
 30
0.0
 11
7053.389209851478
 21
-9429.794955268404
 31
0.0
  0
LINE
  5
20D5
330
20D2
100
AcDbEntity
  8
1
  6
Continuous
 62
     7
370
    18
100
AcDbLine
 10
6708.389209851475
 20
-9444.494955268405
 30
0.0
 11
6708.389209851475
 21
-9228.69217491633
 31
0.0
  0
LINE
  5
20D6
330
20D2
100
AcDbEntity
  8
1
  6
Continuous
 62
     7
370
    18
100
AcDbLine
 10
7053.389209851478
 20
-9444.494955268405
 30
0.0
 11
7053.389209851478
 21
-9228.69217491633
 31
0.0
  0
LINE
  5
20D7
330
20D2
100
AcDbEntity
  8
1
  6
Continuous
 62
     7
370
    18
100
AcDbLine
 10
6708.389209851475
 20
-9429.794955268404
 30
0.0
 11
6734.758984909166
 21
-9422.729195337106
 31
0.0
  0
LINE
  5
20D8
330
20D2
100
AcDbEntity
  8
1
  6
Continuous
 62
     7
370
    18
100
AcDbLine
 10
6708.389209851475
 20
-9429.794955268404
 30
0.0
 11
6734.758984909166
 21
-9436.860715199703
 31
0.0
  0
LINE
  5
20D9
330
20D2
100
AcDbEntity
  8
1
  6
Continuous
 62
     7
370
    18
100
AcDbLine
 10
7053.389209851478
 20
-9429.794955268404
 30
0.0
 11
7027.019434793787
 21
-9436.860715199703
 31
0.0
  0
LINE
  5
20DA
330
20D2
100
AcDbEntity
  8
1
  6
Continuous
 62
     7
370
    18
100
AcDbLine
 10
7053.389209851478
 20
-9429.794955268404
 30
0.0
 11
7027.019434793787
 21
-9422.729195337106
 31
0.0
  0
TEXT
  5
20DB
330
20D2
100
AcDbEntity
  8
1
  6
Continuous
 62
     7
370
    18
100
AcDbText
 10
6839.939209851479
 20
-9412.003584710028
 30
0.0
 40
39.9
  1
345
 41
0.6842105263157895
 11
6839.939209851479
 21
-9419.294955268403
 31
0.0
100
AcDbText
 73
     1
  0
ENDBLK
  5
20DC
330
20D2
100
AcDbEntity
  8
1
  6
Continuous
 62
     7
370
    18
100
AcDbBlockEnd
  0
BLOCK
  5
20DF
330
20DE
100
AcDbEntity
  8
1
  6
Continuous
 62
     7
370
    18
100
AcDbBlockBegin
  2
*D97
 70
     0
 10
0.0
 20
0.0
 30
0.0
  3
*D97
  1

  0
LINE
  5
20E0
330
20DE
100
AcDbEntity
  8
1
  6
Continuous
 62
     7
370
    18
100
AcDbLine
 10
6708.389209851475
 20
-9520.997659493747
 30
0.0
 11
7093.389209851479
 21
-9520.997659493747
 31
0.0
  0
LINE
  5
20E1
330
20DE
100
AcDbEntity
  8
1
  6
Continuous
 62
     7
370
    18
100
AcDbLine
 10
6708.389209851475
 20
-9535.697659493747
 30
0.0
 11
6708.389209851475
 21
-9249.692174916331
 31
0.0
  0
LINE
  5
20E2
330
20DE
100
AcDbEntity
  8
1
  6
Continuous
 62
     7
370
    18
100
AcDbLine
 10
7093.389209851479
 20
-9535.697659493747
 30
0.0
 11
7093.389209851479
 21
-9249.692174916331
 31
0.0
  0
LINE
  5
20E3
330
20DE
100
AcDbEntity
  8
1
  6
Continuous
 62
     7
370
    18
100
AcDbLine
 10
6708.389209851475
 20
-9520.997659493747
 30
0.0
 11
6734.758984909166
 21
-9513.931899562448
 31
0.0
  0
LINE
  5
20E4
330
20DE
100
AcDbEntity
  8
1
  6
Continuous
 62
     7
370
    18
100
AcDbLine
 10
6708.389209851475
 20
-9520.997659493747
 30
0.0
 11
6734.758984909166
 21
-9528.063419425045
 31
0.0
  0
LINE
  5
20E5
330
20DE
100
AcDbEntity
  8
1
  6
Continuous
 62
     7
370
    18
100
AcDbLine
 10
7093.389209851479
 20
-9520.997659493747
 30
0.0
 11
7067.019434793788
 21
-9528.063419425045
 31
0.0
  0
LINE
  5
20E6
330
20DE
100
AcDbEntity
  8
1
  6
Continuous
 62
     7
370
    18
100
AcDbLine
 10
7093.389209851479
 20
-9520.997659493747
 30
0.0
 11
7067.019434793788
 21
-9513.931899562448
 31
0.0
  0
TEXT
  5
20E7
330
20DE
100
AcDbEntity
  8
1
  6
Continuous
 62
     7
370
    18
100
AcDbText
 10
6859.939209851475
 20
-9503.206288935372
 30
0.0
 40
39.9
  1
385
 41
0.6842105263157895
 11
6859.939209851475
 21
-9510.497659493747
 31
0.0
100
AcDbText
 73
     1
  0
ENDBLK
  5
20E8
330
20DE
100
AcDbEntity
  8
1
  6
Continuous
 62
     7
370
    18
100
AcDbBlockEnd
  0
BLOCK
  5
20FB
330
20FA
100
AcDbEntity
  8
1
  6
Continuous
 62
     7
370
    18
100
AcDbBlockBegin
  2
*D98
 70
     0
 10
0.0
 20
0.0
 30
0.0
  3
*D98
  1

  0
LINE
  5
20FC
330
20FA
100
AcDbEntity
  8
1
  6
Continuous
 62
     7
370
    18
100
AcDbLine
 10
5395.182820434093
 20
3316.332518004225
 30
0.0
 11
5395.182820434093
 21
3071.332518004225
 31
0.0
  0
LINE
  5
20FD
330
20FA
100
AcDbEntity
  8
1
  6
Continuous
 62
     7
370
    18
100
AcDbLine
 10
5409.882820434092
 20
3316.332518004225
 30
0.0
 11
5270.44442965141
 21
3316.332518004227
 31
0.0
  0
LINE
  5
20FE
330
20FA
100
AcDbEntity
  8
1
  6
Continuous
 62
     7
370
    18
100
AcDbLine
 10
5409.882820434092
 20
3071.332518004225
 30
0.0
 11
5270.44442965141
 21
3071.332518004226
 31
0.0
  0
LINE
  5
20FF
330
20FA
100
AcDbEntity
  8
1
  6
Continuous
 62
     7
370
    18
100
AcDbLine
 10
5395.182820434093
 20
3316.332518004225
 30
0.0
 11
5402.248580365392
 21
3289.962742946534
 31
0.0
  0
LINE
  5
2100
330
20FA
100
AcDbEntity
  8
1
  6
Continuous
 62
     7
370
    18
100
AcDbLine
 10
5395.182820434093
 20
3316.332518004225
 30
0.0
 11
5388.117060502794
 21
3289.962742946534
 31
0.0
  0
LINE
  5
2101
330
20FA
100
AcDbEntity
  8
1
  6
Continuous
 62
     7
370
    18
100
AcDbLine
 10
5395.182820434093
 20
3071.332518004225
 30
0.0
 11
5388.117060502794
 21
3097.702293061916
 31
0.0
  0
LINE
  5
2102
330
20FA
100
AcDbEntity
  8
1
  6
Continuous
 62
     7
370
    18
100
AcDbLine
 10
5395.182820434093
 20
3071.332518004225
 30
0.0
 11
5402.248580365392
 21
3097.702293061916
 31
0.0
  0
TEXT
  5
2103
330
20FA
100
AcDbEntity
  8
1
  6
Continuous
 62
     7
370
    18
100
AcDbText
 10
5373.170130078762
 20
3130.832518004225
 30
0.0
 40
63.0
  1
245
 50
89.99999999999991
 41
0.6666666666666666
 11
5384.682820434093
 21
3130.832518004225
 31
0.0
100
AcDbText
 73
     1
  0
ENDBLK
  5
2104
330
20FA
100
AcDbEntity
  8
1
  6
Continuous
 62
     7
370
    18
100
AcDbBlockEnd
  0
BLOCK
  5
2107
330
2106
100
AcDbEntity
  8
1
  6
Continuous
 62
     7
370
    18
100
AcDbBlockBegin
  2
*D99
 70
     0
 10
0.0
 20
0.0
 30
0.0
  3
*D99
  1

  0
LINE
  5
2108
330
2106
100
AcDbEntity
  8
1
  6
Continuous
 62
     7
370
    18
100
AcDbLine
 10
4138.250124533834
 20
2739.703461315889
 30
0.0
 11
4316.444429651411
 21
2739.703461315889
 31
0.0
  0
LINE
  5
2109
330
2106
100
AcDbEntity
  8
1
  6
Continuous
 62
     7
370
    18
100
AcDbLine
 10
4249.444429651408
 20
2718.703461315889
 30
0.0
 11
4249.44442965141
 21
2895.332518004227
 31
0.0
  0
LINE
  5
210A
330
2106
100
AcDbEntity
  8
1
  6
Continuous
 62
     7
370
    18
100
AcDbLine
 10
4274.44442965141
 20
2718.703461315889
 30
0.0
 11
4274.444429651413
 21
2895.332518004227
 31
0.0
  0
LINE
  5
210B
330
2106
100
AcDbEntity
  8
1
  6
Continuous
 62
     7
370
    18
100
AcDbLine
 10
4249.444429651408
 20
2739.703461315889
 30
0.0
 11
4223.074654593717
 21
2732.63770138459
 31
0.0
  0
LINE
  5
210C
330
2106
100
AcDbEntity
  8
1
  6
Continuous
 62
     7
370
    18
100
AcDbLine
 10
4249.444429651408
 20
2739.703461315889
 30
0.0
 11
4223.074654593717
 21
2746.769221247188
 31
0.0
  0
LINE
  5
210D
330
2106
100
AcDbEntity
  8
1
  6
Continuous
 62
     7
370
    18
100
AcDbLine
 10
4274.44442965141
 20
2739.703461315889
 30
0.0
 11
4300.814204709101
 21
2746.769221247187
 31
0.0
  0
LINE
  5
210E
330
2106
100
AcDbEntity
  8
1
  6
Continuous
 62
     7
370
    18
100
AcDbLine
 10
4274.44442965141
 20
2739.703461315889
 30
0.0
 11
4300.814204709101
 21
2732.63770138459
 31
0.0
  0
TEXT
  5
210F
330
2106
100
AcDbEntity
  8
1
  6
Continuous
 62
     7
370
    18
100
AcDbText
 10
4138.250124533834
 20
2751.216151671219
 30
0.0
 40
63.0
  1
25
 41
0.6666666666666666
 11
4138.250124533834
 21
2739.703461315889
 31
0.0
100
AcDbText
 73
     1
  0
ENDBLK
  5
2110
330
2106
100
AcDbEntity
  8
1
  6
Continuous
 62
     7
370
    18
100
AcDbBlockEnd
  0
ENDSEC
  0
SECTION
  2
ENTITIES
  0
INSERT
  5
4B
330
A
100
AcDbEntity
  8
0
  6
Continuous
 62
     7
100
AcDbBlockReference
  2
*G0
 10
0.0
 20
0.0
 30
0.0
  0
TEXT
  5
11D8
330
A
100
AcDbEntity
  8
1
  6
Continuous
 62
     7
370
    18
100
AcDbText
 10
3499.976773531109
 20
5362.2619115272
 30
0.0
 40
80.0
  1
プレキャストガードレール基礎製品図(その１)PGⅡ
 11
3499.976773531109
 21
5347.642622187098
 31
0.0
100
AcDbText
 73
     1
  0
LINE
  5
11D9
330
A
100
AcDbEntity
  8
1
  6
Continuous
 62
     7
370
    18
100
AcDbLine
 10
3495.712226865686
 20
5332.9876991871
 30
0.0
 11
5919.205727826789
 21
5332.9876991871
 31
0.0
  0
LINE
  5
11DA
330
A
100
AcDbEntity
  8
1
  6
Continuous
 62
     7
370
    18
100
AcDbLine
 10
3495.712226865686
 20
5322.987699187101
 30
0.0
 11
5919.205727826789
 21
5322.987699187101
 31
0.0
  0
TEXT
  5
11DB
330
A
100
AcDbEntity
  8
1
  6
Continuous
 62
     7
370
    18
100
AcDbText
 10
5178.975162038153
 20
5257.420226757063
 30
0.0
 40
50.0
  1
S=1:20
 11
5178.975162038153
 21
5248.283170919499
 31
0.0
100
AcDbText
 73
     1
  0
DIMENSION
  5
11E7
330
A
100
AcDbEntity
  8
1
  6
Continuous
 62
     7
370
    18
100
AcDbDimension
  2
*D45
 10
2994.51958323942
 20
2696.332518004219
 30
0.0
 11
2963.01958323942
 21
2596.332517835295
 31
0.0
 70
    32
  1
200
 71
     5
 42
0.0
100
AcDbAlignedDimension
 13
2399.745634472842
 23
2696.332518004226
 33
0.0
 14
2777.5789678332
 24
2496.332517666373
 34
0.0
 50
89.99999999999991
100
AcDbRotatedDimension
  0
DIMENSION
  5
11F3
330
A
100
AcDbEntity
  8
1
  6
Continuous
 62
     7
370
    18
100
AcDbDimension
  2
*D46
 10
2994.51958323942
 20
2496.332517666371
 30
0.0
 11
2963.01958323942
 21
2396.332517835293
 31
0.0
 70
    32
  1
200
 71
     5
 42
0.0
100
AcDbAlignedDimension
 13
2777.5789678332
 23
2496.332517666373
 33
0.0
 14
2799.745634472842
 24
2296.332518004218
 34
0.0
 50
89.99999999999991
100
AcDbRotatedDimension
  0
DIMENSION
  5
11FF
330
A
100
AcDbEntity
  8
1
  6
Continuous
 62
     7
370
    18
100
AcDbDimension
  2
*D47
 10
2294.745634472846
 20
3141.985720139823
 30
0.0
 11
2494.745634472846
 21
3173.485720139823
 31
0.0
 70
    32
  1
400
 71
     5
 42
0.0
100
AcDbAlignedDimension
 13
2294.745634472842
 23
2801.332518004226
 33
0.0
 14
2694.745634472843
 24
2401.332518004227
 34
0.0
100
AcDbRotatedDimension
  0
DIMENSION
  5
120B
330
A
100
AcDbEntity
  8
1
  6
Continuous
 62
     7
370
    18
100
AcDbDimension
  2
*D48
 10
3187.187526900743
 20
2696.332518004218
 30
0.0
 11
3155.687526900744
 21
2456.33251800422
 31
0.0
 70
    32
  1
480
 71
     5
 42
0.0
100
AcDbAlignedDimension
 13
2399.745634472842
 23
2696.332518004226
 33
0.0
 14
2799.745634472842
 24
2216.332518004225
 34
0.0
 50
89.99999999999992
100
AcDbRotatedDimension
  0
DIMENSION
  5
1217
330
A
100
AcDbEntity
  8
1
  6
Continuous
 62
     7
370
    18
100
AcDbDimension
  2
*D49
 10
1894.745634472841
 20
3141.985720139823
 30
0.0
 11
2094.745634472841
 21
3173.485720139823
 31
0.0
 70
    32
  1
400
 71
     5
 42
0.0
100
AcDbAlignedDimension
 13
1894.745634472841
 23
2707.332518004227
 33
0.0
 14
2294.745634472842
 24
2717.332518004227
 34
0.0
100
AcDbRotatedDimension
  0
DIMENSION
  5
1223
330
A
100
AcDbEntity
  8
1
  6
Continuous
 62
     7
370
    18
100
AcDbDimension
  2
*D50
 10
2994.51958323942
 20
2296.332518004223
 30
0.0
 11
2963.01958323942
 21
2256.332518004223
 31
0.0
 70
    32
  1
80
 71
     5
 42
0.0
100
AcDbAlignedDimension
 13
2715.745634472842
 23
2296.332518004226
 33
0.0
 14
2715.745634472842
 24
2216.332518004226
 34
0.0
 50
89.99999999999991
100
AcDbRotatedDimension
  0
DIMENSION
  5
122F
330
A
100
AcDbEntity
  8
1
  6
Continuous
 62
     7
370
    18
100
AcDbDimension
  2
*D51
 10
1894.745634472838
 20
1820.983578943229
 30
0.0
 11
2294.745634472838
 21
1852.483578943229
 31
0.0
 70
    32
  1
800
 71
     5
 42
0.0
100
AcDbAlignedDimension
 13
1894.745634472841
 23
2195.332518004227
 33
0.0
 14
2694.745634472841
 24
2195.332518004227
 34
0.0
100
AcDbRotatedDimension
  0
DIMENSION
  5
123B
330
A
100
AcDbEntity
  8
1
  6
Continuous
 62
     7
370
    18
100
AcDbDimension
  2
*D52
 10
5249.444429651412
 20
3569.288254999565
 30
0.0
 11
4774.444429651413
 21
3600.788254999565
 31
0.0
 70
    32
  1
950
 71
     5
 42
0.0
100
AcDbAlignedDimension
 13
5249.444429651412
 23
3481.30429035138
 33
0.0
 14
4299.444429651412
 24
3358.332518004227
 34
0.0
100
AcDbRotatedDimension
  0
DIMENSION
  5
1247
330
A
100
AcDbEntity
  8
1
  6
Continuous
 62
     7
370
    18
100
AcDbDimension
  2
*D53
 10
5249.444429651412
 20
3569.288254999565
 30
0.0
 11
5724.444429651413
 21
3600.788254999565
 31
0.0
 70
    32
  1
950
 71
     5
 42
0.0
100
AcDbAlignedDimension
 13
5249.444429651412
 23
3466.966940953744
 33
0.0
 14
6199.444429651412
 24
3358.332518004227
 34
0.0
100
AcDbRotatedDimension
  0
DIMENSION
  5
1253
330
A
100
AcDbEntity
  8
1
  6
Continuous
 62
     7
370
    18
100
AcDbDimension
  2
*D54
 10
5132.027188866024
 20
3316.332518004227
 30
0.0
 11
5100.527188866024
 21
3116.332518004227
 31
0.0
 70
    32
  1
400
 71
     5
 42
0.0
100
AcDbAlignedDimension
 13
5112.720709992924
 23
3316.332518004227
 33
0.0
 14
5112.423245204189
 24
2916.332518004227
 34
0.0
 50
89.99999999999991
100
AcDbRotatedDimension
  0
DIMENSION
  5
125F
330
A
100
AcDbEntity
  8
1
  6
Continuous
 62
     7
370
    18
100
AcDbDimension
  2
*D55
 10
3814.444429651413
 20
2916.332518004228
 30
0.0
 11
3782.944429651412
 21
2716.332518004229
 31
0.0
 70
    32
  1
400
 71
     5
 42
0.0
100
AcDbAlignedDimension
 13
4253.444429651412
 23
2916.332518004227
 33
0.0
 14
4265.944429651412
 24
2516.332518004227
 34
0.0
 50
89.99999999999991
100
AcDbRotatedDimension
  0
DIMENSION
  5
126B
330
A
100
AcDbEntity
  8
1
  6
Continuous
 62
     7
370
    18
100
AcDbDimension
  2
*D56
 10
3969.136909107657
 20
2916.332518004228
 30
0.0
 11
3937.636909107658
 21
2716.332518004229
 31
0.0
 70
    32
  1
400
 71
     5
 42
0.0
100
AcDbAlignedDimension
 13
4253.444429651412
 23
2916.332518004227
 33
0.0
 14
4265.944429651412
 24
2516.332518004227
 34
0.0
 50
89.99999999999991
100
AcDbRotatedDimension
  0
DIMENSION
  5
1277
330
A
100
AcDbEntity
  8
1
  6
Continuous
 62
     7
370
    18
100
AcDbDimension
  2
*D57
 10
5049.444429651412
 20
3386.79360711224
 30
0.0
 11
5249.444429651412
 21
3418.293607112241
 31
0.0
 70
    32
  1
400
 71
     5
 42
0.0
100
AcDbAlignedDimension
 13
5049.444429651412
 23
3337.332518004227
 33
0.0
 14
5449.444429651412
 24
3337.332518004227
 34
0.0
100
AcDbRotatedDimension
  0
DIMENSION
  5
1283
330
A
100
AcDbEntity
  8
1
  6
Continuous
 62
     7
370
    18
100
AcDbDimension
  2
*D58
 10
4299.444429651414
 20
3724.564874717877
 30
0.0
 11
4173.84719495637
 21
3756.064874717877
 31
0.0
 70
    32
  1
50
 71
     5
 42
0.0
100
AcDbAlignedDimension
 13
4299.444429651412
 23
3337.332518004227
 33
0.0
 14
4249.444429651412
 24
2997.332518004227
 34
0.0
100
AcDbRotatedDimension
  0
DIMENSION
  5
128E
330
A
100
AcDbEntity
  8
1
  6
Continuous
 62
     7
370
    18
100
AcDbDimension
  2
*D59
 10
6199.444429651412
 20
3724.564874717877
 30
0.0
 11
6336.111532984546
 21
3756.064874717877
 31
0.0
 70
    32
  1
50
 71
     5
 42
0.0
100
AcDbAlignedDimension
 13
6199.444429651412
 23
3724.564874717877
 33
0.0
 14
6249.444429651412
 24
3635.159589855327
 34
0.0
100
AcDbRotatedDimension
  0
DIMENSION
  5
129A
330
A
100
AcDbEntity
  8
1
  6
Continuous
 62
     7
370
    18
100
AcDbDimension
  2
*D60
 10
4299.444429651412
 20
3724.564874717877
 30
0.0
 11
5249.444429651412
 21
3756.064874717877
 31
0.0
 70
    32
  1
1900
 71
     5
 42
0.0
100
AcDbAlignedDimension
 13
4299.444429651412
 23
3337.332518004227
 33
0.0
 14
6199.444429651412
 24
3337.332518004227
 34
0.0
100
AcDbRotatedDimension
  0
DIMENSION
  5
12A6
330
A
100
AcDbEntity
  8
1
  6
Continuous
 62
     7
370
    18
100
AcDbDimension
  2
*D61
 10
4249.444429651414
 20
3850.243747957314
 30
0.0
 11
5249.444429651414
 21
3881.743747957314
 31
0.0
 70
    32
  1
2000
 71
     5
 42
0.0
100
AcDbAlignedDimension
 13
4249.444429651412
 23
3021.895026475037
 33
0.0
 14
6249.444429651412
 24
3013.528829291938
 34
0.0
100
AcDbRotatedDimension
  0
DIMENSION
  5
12B2
330
A
100
AcDbEntity
  8
1
  6
Continuous
 62
     7
370
    18
100
AcDbDimension
  2
*D62
 10
6555.826781585048
 20
2916.332518004223
 30
0.0
 11
6524.326781585049
 21
2716.332518004223
 31
0.0
 70
    32
  1
400
 71
     5
 42
0.0
100
AcDbAlignedDimension
 13
6245.444429651412
 23
2916.332518004226
 33
0.0
 14
6232.944429651412
 24
2516.332518004227
 34
0.0
 50
89.99999999999991
100
AcDbRotatedDimension
  0
DIMENSION
  5
12BE
330
A
100
AcDbEntity
  8
1
  6
Continuous
 62
     7
370
    18
100
AcDbDimension
  2
*D63
 10
6555.826781585048
 20
3316.332518004223
 30
0.0
 11
6524.326781585049
 21
3116.332518004223
 31
0.0
 70
    32
  1
400
 71
     5
 42
0.0
100
AcDbAlignedDimension
 13
6220.444429651411
 23
3316.332518004227
 33
0.0
 14
6245.444429651412
 24
2916.332518004226
 34
0.0
 50
89.99999999999991
100
AcDbRotatedDimension
  0
DIMENSION
  5
12CA
330
A
100
AcDbEntity
  8
1
  6
Continuous
 62
     7
370
    18
100
AcDbDimension
  2
*D64
 10
6836.336077359696
 20
3316.332518004222
 30
0.0
 11
6804.836077359698
 21
2916.332518004221
 31
0.0
 70
    32
  1
800
 71
     5
 42
0.0
100
AcDbAlignedDimension
 13
6220.444429651411
 23
3316.332518004227
 33
0.0
 14
6232.944429651412
 24
2516.332518004227
 34
0.0
 50
89.99999999999994
100
AcDbRotatedDimension
  0
DIMENSION
  5
12D6
330
A
100
AcDbEntity
  8
1
  6
Continuous
 62
     7
370
    18
100
AcDbDimension
  2
*D65
 10
6248.44442965141
 20
2730.715305503494
 30
0.0
 11
6345.033862593195
 21
2762.215305503494
 31
0.0
 70
    32
  1
100
 71
     5
 42
0.0
100
AcDbAlignedDimension
 13
6248.444429651412
 23
2895.332518004227
 33
0.0
 14
6148.444429651412
 24
2746.823739238553
 34
0.0
100
AcDbRotatedDimension
  0
DIMENSION
  5
12E2
330
A
100
AcDbEntity
  8
1
  6
Continuous
 62
     7
370
    18
100
AcDbDimension
  2
*D66
 10
4349.444429651408
 20
2385.869212746047
 30
0.0
 11
4389.444429651408
 21
2417.369212746047
 31
0.0
 70
    32
  1
80
 71
     5
 42
0.0
100
AcDbAlignedDimension
 13
4349.44442965141
 23
2522.332518004227
 33
0.0
 14
4429.44442965141
 24
2522.332518004227
 34
0.0
100
AcDbRotatedDimension
  0
DIMENSION
  5
12EE
330
A
100
AcDbEntity
  8
1
  6
Continuous
 62
     7
370
    18
100
AcDbDimension
  2
*D67
 10
4329.444429651409
 20
2246.358226830555
 30
0.0
 11
4389.444429651408
 21
2277.858226830554
 31
0.0
 70
    32
  1
120
 71
     5
 42
0.0
100
AcDbAlignedDimension
 13
4329.444429651412
 23
2504.332518004227
 33
0.0
 14
4449.44442965141
 24
2504.332518004227
 34
0.0
100
AcDbRotatedDimension
  0
DIMENSION
  5
12FA
330
A
100
AcDbEntity
  8
1
  6
Continuous
 62
     7
370
    18
100
AcDbDimension
  2
*D68
 10
4286.944429651406
 20
1820.983578943229
 30
0.0
 11
5249.444429651407
 21
1852.483578943229
 31
0.0
 70
    32
  1
1925
 71
     5
 42
0.0
100
AcDbAlignedDimension
 13
4286.944429651412
 23
2495.332518004227
 33
0.0
 14
6211.944429651413
 24
2495.332518004225
 34
0.0
100
AcDbRotatedDimension
  0
DIMENSION
  5
1306
330
A
100
AcDbEntity
  8
1
  6
Continuous
 62
     7
370
    18
100
AcDbDimension
  2
*D69
 10
3969.136909107657
 20
2996.332518004227
 30
0.0
 11
3937.636909107658
 21
2956.332518004227
 31
0.0
 70
    32
  1
80
 71
     5
 42
0.0
100
AcDbAlignedDimension
 13
4253.444429651412
 23
2996.332518004227
 33
0.0
 14
4253.444429651412
 24
2916.332518004227
 34
0.0
 50
89.99999999999991
100
AcDbRotatedDimension
  0
DIMENSION
  5
1312
330
A
100
AcDbEntity
  8
1
  6
Continuous
 62
     7
370
    18
100
AcDbDimension
  2
*D70
 10
3969.136909107657
 20
3316.332518004227
 30
0.0
 11
3937.636909107658
 21
3156.332518004227
 31
0.0
 70
    32
  1
320
 71
     5
 42
0.0
100
AcDbAlignedDimension
 13
4278.444429651412
 23
3316.332518004227
 33
0.0
 14
4253.444429651412
 24
2996.332518004227
 34
0.0
 50
89.99999999999991
100
AcDbRotatedDimension
  0
DIMENSION
  5
131E
330
A
100
AcDbEntity
  8
1
  6
Continuous
 62
     7
370
    18
100
AcDbDimension
  2
*D71
 10
3814.444429651413
 20
3316.332518004227
 30
0.0
 11
3782.944429651412
 21
3116.332518004227
 31
0.0
 70
    32
  1
400
 71
     5
 42
0.0
100
AcDbAlignedDimension
 13
4278.444429651412
 23
3316.332518004227
 33
0.0
 14
4253.444429651412
 24
2916.332518004227
 34
0.0
 50
89.99999999999994
100
AcDbRotatedDimension
  0
DIMENSION
  5
132A
330
A
100
AcDbEntity
  8
1
  6
Continuous
 62
     7
370
    18
100
AcDbDimension
  2
*D72
 10
2294.745634472842
 20
2938.194810925896
 30
0.0
 11
2254.745634472842
 21
2969.694810925896
 31
0.0
 70
    32
  1
80
 71
     5
 42
0.0
100
AcDbAlignedDimension
 13
2294.745634472842
 23
2717.332518004227
 33
0.0
 14
2214.745634472842
 24
2717.332518004227
 34
0.0
100
AcDbRotatedDimension
  0
DIMENSION
  5
1336
330
A
100
AcDbEntity
  8
1
  6
Continuous
 62
     7
370
    18
100
AcDbDimension
  2
*D73
 10
1894.745634472841
 20
2938.194810925896
 30
0.0
 11
2054.745634472842
 21
2969.694810925896
 31
0.0
 70
    32
  1
320
 71
     5
 42
0.0
100
AcDbAlignedDimension
 13
1894.745634472841
 23
2707.332518004227
 33
0.0
 14
2214.745634472842
 24
2717.332518004227
 34
0.0
100
AcDbRotatedDimension
  0
DIMENSION
  5
1342
330
A
100
AcDbEntity
  8
1
  6
Continuous
 62
     7
370
    18
100
AcDbDimension
  2
*D74
 10
1754.135026579697
 20
2296.332518004227
 30
0.0
 11
1722.635026579697
 21
2256.332518004227
 31
0.0
 70
    32
  1
80
 71
     5
 42
0.0
100
AcDbAlignedDimension
 13
1873.745634472841
 23
2296.332518004227
 33
0.0
 14
1873.745634472841
 24
2216.332518004227
 34
0.0
 50
89.99999999999991
100
AcDbRotatedDimension
  0
DIMENSION
  5
134E
330
A
100
AcDbEntity
  8
1
  6
Continuous
 62
     7
370
    18
100
AcDbDimension
  2
*D75
 10
1526.424183206203
 20
2696.332518004229
 30
0.0
 11
1494.924183206203
 21
2456.332518004229
 31
0.0
 70
    32
  1
480
 71
     5
 42
0.0
100
AcDbAlignedDimension
 13
1883.745634472841
 23
2696.332518004227
 33
0.0
 14
1873.745634472841
 24
2216.332518004227
 34
0.0
 50
89.99999999999992
100
AcDbRotatedDimension
  0
DIMENSION
  5
135A
330
A
100
AcDbEntity
  8
1
  6
Continuous
 62
     7
370
    18
100
AcDbDimension
  2
*D76
 10
5156.944429651408
 20
2712.996165858718
 30
0.0
 11
5249.44442965141
 21
2754.996165858718
 31
0.0
 70
    35
  1
φ185
 71
     5
 42
0.0
100
AcDbDiametricDimension
 15
5341.94442965141
 25
2712.996165858718
 35
0.0
 40
0.0
  0
INSERT
  5
1362
330
A
100
AcDbEntity
  8
1
  6
Continuous
 62
     7
370
    18
100
AcDbBlockReference
  2
*G77
 10
0.0
 20
0.0
 30
0.0
  0
LINE
  5
1363
330
A
100
AcDbEntity
  8
1
  6
Continuous
 62
     7
370
    18
100
AcDbLine
 10
7874.331610484265
 20
170.0
 30
0.0
 11
7874.331610484265
 21
367.4711960081895
 31
0.0
  0
TEXT
  5
1364
330
A
100
AcDbEntity
  8
1
  6
Continuous
 62
     7
370
    18
100
AcDbText
 10
7345.749768731228
 20
223.237687786066
 30
0.0
 40
98.73559800409477
  1
製品番号
 11
7345.749768731228
 21
205.1946343436934
 31
0.0
100
AcDbText
 73
     1
  0
LINE
  5
1365
330
A
100
AcDbEntity
  8
1
  6
Continuous
 62
     7
370
    18
100
AcDbLine
 10
7312.644019959053
 20
367.4711960081895
 30
0.0
 11
7312.644019959053
 21
170.0
 31
0.0
  0
LINE
  5
1366
330
A
100
AcDbEntity
  8
1
  6
Continuous
 62
     7
370
    18
100
AcDbLine
 10
8300.0
 20
170.0
 30
0.0
 11
8300.0
 21
367.4711960081895
 31
0.0
  0
LINE
  5
1367
330
A
100
AcDbEntity
  8
1
  6
Continuous
 62
     7
370
    18
100
AcDbLine
 10
8300.0
 20
367.4711960081895
 30
0.0
 11
7312.644019959053
 21
367.4711960081895
 31
0.0
  0
LINE
  5
1368
330
A
100
AcDbEntity
  8
1
  6
Continuous
 62
     7
370
    18
100
AcDbLine
 10
8300.0
 20
170.0
 30
0.0
 11
7312.644019959053
 21
170.0
 31
0.0
  0
TEXT
  5
1369
330
A
100
AcDbEntity
  8
1
  6
Continuous
 62
     7
370
    18
100
AcDbText
 10
7914.670070286561
 20
235.5916983212505
 30
0.0
 40
98.73559800409477
  1
BC-20
 11
7914.670070286561
 21
217.5486448788779
 31
0.0
100
AcDbText
 73
     1
  0
DIMENSION
  5
2105
330
A
100
AcDbEntity
  8
1
  6
Continuous
 62
     7
370
    18
100
AcDbDimension
  2
*D98
 10
5395.182820434093
 20
3316.332518004225
 30
0.0
 11
5353.182820434092
 21
3193.832518004225
 31
0.0
 70
    32
  1
245
 71
     5
 42
0.0
100
AcDbAlignedDimension
 13
5270.44442965141
 23
3316.332518004227
 33
0.0
 14
5270.44442965141
 24
3071.332518004226
 34
0.0
 50
89.99999999999991
100
AcDbRotatedDimension
  0
DIMENSION
  5
2111
330
A
100
AcDbEntity
  8
1
  6
Continuous
 62
     7
370
    18
100
AcDbDimension
  2
*D99
 10
4249.444429651408
 20
2739.703461315889
 30
0.0
 11
4180.250124533833
 21
2771.203461315888
 31
0.0
 70
    32
  1
25
 71
     5
 42
0.0
100
AcDbAlignedDimension
 13
4249.44442965141
 23
2895.332518004227
 33
0.0
 14
4274.444429651413
 24
2895.332518004227
 34
0.0
100
AcDbRotatedDimension
  0
CIRCLE
  5
2117
330
A
100
AcDbEntity
  8
1
  6
Continuous
 62
     7
370
    18
100
AcDbCircle
 10
5749.444429651412
 20
3186.332518004227
 30
0.0
 40
8.0
  0
CIRCLE
  5
2118
330
A
100
AcDbEntity
  8
1
  6
Continuous
 62
     7
370
    18
100
AcDbCircle
 10
4749.444429651412
 20
3186.332518004227
 30
0.0
 40
8.0
  0
LINE
  5
2119
330
A
100
AcDbEntity
  8
1
  6
Continuous
 62
     7
370
    18
100
AcDbLine
 10
5149.444429651413
 20
2516.332518004227
 30
0.0
 11
5155.944429651412
 21
2522.332518004227
 31
0.0
  0
LINE
  5
211A
330
A
100
AcDbEntity
  8
1
  6
Continuous
 62
     7
370
    18
100
AcDbLine
 10
4286.944429651412
 20
2516.332518004227
 30
0.0
 11
5149.444429651413
 21
2516.332518004227
 31
0.0
  0
LINE
  5
211B
330
A
100
AcDbEntity
  8
1
  6
Continuous
 62
     7
370
    18
100
AcDbLine
 10
5342.94442965141
 20
2522.332518004227
 30
0.0
 11
5349.444429651413
 21
2516.332518004227
 31
0.0
  0
LINE
  5
211C
330
A
100
AcDbEntity
  8
1
  6
Continuous
 62
     7
370
    18
100
AcDbLine
 10
5349.444429651413
 20
2516.332518004227
 30
0.0
 11
6211.944429651413
 21
2516.332518004227
 31
0.0
  0
LINE
  5
211D
330
A
100
AcDbEntity
  8
1
  6
Continuous
 62
     7
370
    18
100
AcDbLine
 10
5155.944429651412
 20
2522.332518004227
 30
0.0
 11
5342.94442965141
 21
2522.332518004227
 31
0.0
  0
CIRCLE
  5
211E
330
A
100
AcDbEntity
  8
1
  6
Continuous
 62
     7
370
    18
100
AcDbCircle
 10
5751.944429651413
 20
2739.332518004227
 30
0.0
 40
8.0
  0
CIRCLE
  5
211F
330
A
100
AcDbEntity
  8
1
  6
Continuous
 62
     7
370
    18
100
AcDbCircle
 10
4746.944429651412
 20
2739.332518004227
 30
0.0
 40
8.0
  0
LINE
  5
2120
330
A
100
AcDbEntity
  8
1
  6
Continuous
 62
     7
370
    18
100
AcDbLine
 10
6224.444429651413
 20
2916.332518004227
 30
0.0
 11
6211.944429651413
 21
2516.332518004227
 31
0.0
  0
POLYLINE
  5
2121
330
A
100
AcDbEntity
  8
1
  6
Continuous
 62
     7
370
    18
100
AcDb2dPolyline
 66
     1
 10
0.0
 20
0.0
 30
0.0
 70
     2
  0
VERTEX
  5
2122
330
2121
100
AcDbEntity
  8
1
  6
Continuous
 62
     7
370
    18
100
AcDbVertex
100
AcDb2dVertex
 10
6048.444429651412
 20
2525.332518004227
 30
0.0
  0
VERTEX
  5
2123
330
2121
100
AcDbEntity
  8
1
  6
Continuous
 62
     7
370
    18
100
AcDbVertex
100
AcDb2dVertex
 10
6048.427378902238
 20
2525.310490132834
 30
0.0
  0
VERTEX
  5
2124
330
2121
100
AcDbEntity
  8
1
  6
Continuous
 62
     7
370
    18
100
AcDbVertex
100
AcDb2dVertex
 10
6048.376552077113
 20
2525.24499949867
 30
0.0
  0
VERTEX
  5
2125
330
2121
100
AcDbEntity
  8
1
  6
Continuous
 62
     7
370
    18
100
AcDbVertex
100
AcDb2dVertex
 10
6048.292130433741
 20
2525.13776450037
 30
0.0
  0
VERTEX
  5
2126
330
2121
100
AcDbEntity
  8
1
  6
Continuous
 62
     7
370
    18
100
AcDbVertex
100
AcDb2dVertex
 10
6048.172066060059
 20
2524.991464690709
 30
0.0
  0
VERTEX
  5
2127
330
2121
100
AcDbEntity
  8
1
  6
Continuous
 62
     7
370
    18
100
AcDbVertex
100
AcDb2dVertex
 10
6048.009522038872
 20
2524.809520064998
 30
0.0
  0
VERTEX
  5
2128
330
2121
100
AcDbEntity
  8
1
  6
Continuous
 62
     7
370
    18
100
AcDbVertex
100
AcDb2dVertex
 10
6047.790935227897
 20
2524.59587791791
 30
0.0
  0
VERTEX
  5
2129
330
2121
100
AcDbEntity
  8
1
  6
Continuous
 62
     7
370
    18
100
AcDbVertex
100
AcDb2dVertex
 10
6047.495760703599
 20
2524.354869869315
 30
0.0
  0
VERTEX
  5
212A
330
2121
100
AcDbEntity
  8
1
  6
Continuous
 62
     7
370
    18
100
AcDbVertex
100
AcDb2dVertex
 10
6047.098593520352
 20
2524.091181825712
 30
0.0
  0
VERTEX
  5
212B
330
2121
100
AcDbEntity
  8
1
  6
Continuous
 62
     7
370
    18
100
AcDbVertex
100
AcDb2dVertex
 10
6046.57375676654
 20
2523.80994598476
 30
0.0
  0
VERTEX
  5
212C
330
2121
100
AcDbEntity
  8
1
  6
Continuous
 62
     7
370
    18
100
AcDbVertex
100
AcDb2dVertex
 10
6045.901743702104
 20
2523.516924885043
 30
0.0
  0
VERTEX
  5
212D
330
2121
100
AcDbEntity
  8
1
  6
Continuous
 62
     7
370
    18
100
AcDbVertex
100
AcDb2dVertex
 10
6045.07628570774
 20
2523.218723078904
 30
0.0
  0
VERTEX
  5
212E
330
2121
100
AcDbEntity
  8
1
  6
Continuous
 62
     7
370
    18
100
AcDbVertex
100
AcDb2dVertex
 10
6044.110453019422
 20
2522.922941630509
 30
0.0
  0
VERTEX
  5
212F
330
2121
100
AcDbEntity
  8
1
  6
Continuous
 62
     7
370
    18
100
AcDbVertex
100
AcDb2dVertex
 10
6043.040192456763
 20
2522.638190555906
 30
0.0
  0
VERTEX
  5
2130
330
2121
100
AcDbEntity
  8
1
  6
Continuous
 62
     7
370
    18
100
AcDbVertex
100
AcDb2dVertex
 10
6041.924091673093
 20
2522.373895997207
 30
0.0
  0
VERTEX
  5
2131
330
2121
100
AcDbEntity
  8
1
  6
Continuous
 62
     7
370
    18
100
AcDbVertex
100
AcDb2dVertex
 10
6040.838865310181
 20
2522.139878549033
 30
0.0
  0
VERTEX
  5
2132
330
2121
100
AcDbEntity
  8
1
  6
Continuous
 62
     7
370
    18
100
AcDbVertex
100
AcDb2dVertex
 10
6039.870937174363
 20
2521.945728404361
 30
0.0
  0
VERTEX
  5
2133
330
2121
100
AcDbEntity
  8
1
  6
Continuous
 62
     7
370
    18
100
AcDbVertex
100
AcDb2dVertex
 10
6039.105349543034
 20
2521.800050884777
 30
0.0
  0
VERTEX
  5
2134
330
2121
100
AcDbEntity
  8
1
  6
Continuous
 62
     7
370
    18
100
AcDbVertex
100
AcDb2dVertex
 10
6038.613869408303
 20
2521.709691386735
 30
0.0
  0
VERTEX
  5
2135
330
2121
100
AcDbEntity
  8
1
  6
Continuous
 62
     7
370
    18
100
AcDbVertex
100
AcDb2dVertex
 10
6038.444429651412
 20
2521.67906323615
 30
0.0
  0
VERTEX
  5
2136
330
2121
100
AcDbEntity
  8
1
  6
Continuous
 62
     7
370
    18
100
AcDbVertex
100
AcDb2dVertex
 10
6038.272901993371
 20
2521.648317252047
 30
0.0
  0
VERTEX
  5
2137
330
2121
100
AcDbEntity
  8
1
  6
Continuous
 62
     7
370
    18
100
AcDbVertex
100
AcDb2dVertex
 10
6037.750780585549
 20
2521.55622847243
 30
0.0
  0
VERTEX
  5
2138
330
2121
100
AcDbEntity
  8
1
  6
Continuous
 62
     7
370
    18
100
AcDbVertex
100
AcDb2dVertex
 10
6036.857780954526
 20
2521.403360284791
 30
0.0
  0
VERTEX
  5
2139
330
2121
100
AcDbEntity
  8
1
  6
Continuous
 62
     7
370
    18
100
AcDbVertex
100
AcDb2dVertex
 10
6035.56737804509
 20
2521.191010841317
 30
0.0
  0
VERTEX
  5
213A
330
2121
100
AcDbEntity
  8
1
  6
Continuous
 62
     7
370
    18
100
AcDbVertex
100
AcDb2dVertex
 10
6033.856130963737
 20
2520.921663069524
 30
0.0
  0
VERTEX
  5
213B
330
2121
100
AcDbEntity
  8
1
  6
Continuous
 62
     7
370
    18
100
AcDbVertex
100
AcDb2dVertex
 10
6031.713896409824
 20
2520.599457267457
 30
0.0
  0
VERTEX
  5
213C
330
2121
100
AcDbEntity
  8
1
  6
Continuous
 62
     7
370
    18
100
AcDbVertex
100
AcDb2dVertex
 10
6029.152838635747
 20
2520.230571041448
 30
0.0
  0
VERTEX
  5
213D
330
2121
100
AcDbEntity
  8
1
  6
Continuous
 62
     7
370
    18
100
AcDbVertex
100
AcDb2dVertex
 10
6026.213422886261
 20
2519.823407771038
 30
0.0
  0
VERTEX
  5
213E
330
2121
100
AcDbEntity
  8
1
  6
Continuous
 62
     7
370
    18
100
AcDbVertex
100
AcDb2dVertex
 10
6022.966227338912
 20
2519.388531939668
 30
0.0
  0
VERTEX
  5
213F
330
2121
100
AcDbEntity
  8
1
  6
Continuous
 62
     7
370
    18
100
AcDbVertex
100
AcDb2dVertex
 10
6019.509273129732
 20
2518.938338930134
 30
0.0
  0
VERTEX
  5
2140
330
2121
100
AcDbEntity
  8
1
  6
Continuous
 62
     7
370
    18
100
AcDbVertex
100
AcDb2dVertex
 10
6015.961456341831
 20
2518.486497133578
 30
0.0
  0
VERTEX
  5
2141
330
2121
100
AcDbEntity
  8
1
  6
Continuous
 62
     7
370
    18
100
AcDbVertex
100
AcDb2dVertex
 10
6012.453375087275
 20
2518.047240458376
 30
0.0
  0
VERTEX
  5
2142
330
2121
100
AcDbEntity
  8
1
  6
Continuous
 62
     7
370
    18
100
AcDbVertex
100
AcDb2dVertex
 10
6009.117231274837
 20
2517.63461120636
 30
0.0
  0
VERTEX
  5
2143
330
2121
100
AcDbEntity
  8
1
  6
Continuous
 62
     7
370
    18
100
AcDbVertex
100
AcDb2dVertex
 10
6006.077482748228
 20
2517.261752992682
 30
0.0
  0
VERTEX
  5
2144
330
2121
100
AcDbEntity
  8
1
  6
Continuous
 62
     7
370
    18
100
AcDbVertex
100
AcDb2dVertex
 10
6003.44355332515
 20
2516.940332398425
 30
0.0
  0
VERTEX
  5
2145
330
2121
100
AcDbEntity
  8
1
  6
Continuous
 62
     7
370
    18
100
AcDbVertex
100
AcDb2dVertex
 10
6001.305286653579
 20
2516.680132619941
 30
0.0
  0
VERTEX
  5
2146
330
2121
100
AcDbEntity
  8
1
  6
Continuous
 62
     7
370
    18
100
AcDbVertex
100
AcDb2dVertex
 10
5999.731121034597
 20
2516.488821911017
 30
0.0
  0
VERTEX
  5
2147
330
2121
100
AcDbEntity
  8
1
  6
Continuous
 62
     7
370
    18
100
AcDbVertex
100
AcDb2dVertex
 10
5998.76834631717
 20
2516.371864267521
 30
0.0
  0
VERTEX
  5
2148
330
2121
100
AcDbEntity
  8
1
  6
Continuous
 62
     7
370
    18
100
AcDbVertex
100
AcDb2dVertex
 10
5998.444429651412
 20
2516.332518004227
 30
0.0
  0
SEQEND
  5
2149
330
2121
100
AcDbEntity
  8
1
  6
Continuous
 62
     7
370
    18
  0
POLYLINE
  5
214A
330
A
100
AcDbEntity
  8
1
  6
Continuous
 62
     7
370
    18
100
AcDb2dPolyline
 66
     1
 10
0.0
 20
0.0
 30
0.0
 70
     2
  0
VERTEX
  5
214B
330
214A
100
AcDbEntity
  8
1
  6
Continuous
 62
     7
370
    18
100
AcDbVertex
100
AcDb2dVertex
 10
4449.44442965141
 20
2525.332518004227
 30
0.0
  0
VERTEX
  5
214C
330
214A
100
AcDbEntity
  8
1
  6
Continuous
 62
     7
370
    18
100
AcDbVertex
100
AcDb2dVertex
 10
4449.461480400584
 20
2525.310490132834
 30
0.0
  0
VERTEX
  5
214D
330
214A
100
AcDbEntity
  8
1
  6
Continuous
 62
     7
370
    18
100
AcDbVertex
100
AcDb2dVertex
 10
4449.512307225709
 20
2525.24499949867
 30
0.0
  0
VERTEX
  5
214E
330
214A
100
AcDbEntity
  8
1
  6
Continuous
 62
     7
370
    18
100
AcDbVertex
100
AcDb2dVertex
 10
4449.596728869082
 20
2525.13776450037
 30
0.0
  0
VERTEX
  5
214F
330
214A
100
AcDbEntity
  8
1
  6
Continuous
 62
     7
370
    18
100
AcDbVertex
100
AcDb2dVertex
 10
4449.716793242763
 20
2524.991464690709
 30
0.0
  0
VERTEX
  5
2150
330
214A
100
AcDbEntity
  8
1
  6
Continuous
 62
     7
370
    18
100
AcDbVertex
100
AcDb2dVertex
 10
4449.87933726395
 20
2524.809520064998
 30
0.0
  0
VERTEX
  5
2151
330
214A
100
AcDbEntity
  8
1
  6
Continuous
 62
     7
370
    18
100
AcDbVertex
100
AcDb2dVertex
 10
4450.097924074924
 20
2524.59587791791
 30
0.0
  0
VERTEX
  5
2152
330
214A
100
AcDbEntity
  8
1
  6
Continuous
 62
     7
370
    18
100
AcDbVertex
100
AcDb2dVertex
 10
4450.393098599223
 20
2524.354869869315
 30
0.0
  0
VERTEX
  5
2153
330
214A
100
AcDbEntity
  8
1
  6
Continuous
 62
     7
370
    18
100
AcDbVertex
100
AcDb2dVertex
 10
4450.790265782471
 20
2524.091181825712
 30
0.0
  0
VERTEX
  5
2154
330
214A
100
AcDbEntity
  8
1
  6
Continuous
 62
     7
370
    18
100
AcDbVertex
100
AcDb2dVertex
 10
4451.315102536282
 20
2523.80994598476
 30
0.0
  0
VERTEX
  5
2155
330
214A
100
AcDbEntity
  8
1
  6
Continuous
 62
     7
370
    18
100
AcDbVertex
100
AcDb2dVertex
 10
4451.987115600718
 20
2523.516924885043
 30
0.0
  0
VERTEX
  5
2156
330
214A
100
AcDbEntity
  8
1
  6
Continuous
 62
     7
370
    18
100
AcDbVertex
100
AcDb2dVertex
 10
4452.812573595081
 20
2523.218723078904
 30
0.0
  0
VERTEX
  5
2157
330
214A
100
AcDbEntity
  8
1
  6
Continuous
 62
     7
370
    18
100
AcDbVertex
100
AcDb2dVertex
 10
4453.7784062834
 20
2522.922941630509
 30
0.0
  0
VERTEX
  5
2158
330
214A
100
AcDbEntity
  8
1
  6
Continuous
 62
     7
370
    18
100
AcDbVertex
100
AcDb2dVertex
 10
4454.848666846059
 20
2522.638190555906
 30
0.0
  0
VERTEX
  5
2159
330
214A
100
AcDbEntity
  8
1
  6
Continuous
 62
     7
370
    18
100
AcDbVertex
100
AcDb2dVertex
 10
4455.964767629729
 20
2522.373895997207
 30
0.0
  0
VERTEX
  5
215A
330
214A
100
AcDbEntity
  8
1
  6
Continuous
 62
     7
370
    18
100
AcDbVertex
100
AcDb2dVertex
 10
4457.049993992641
 20
2522.139878549033
 30
0.0
  0
VERTEX
  5
215B
330
214A
100
AcDbEntity
  8
1
  6
Continuous
 62
     7
370
    18
100
AcDbVertex
100
AcDb2dVertex
 10
4458.017922128458
 20
2521.945728404361
 30
0.0
  0
VERTEX
  5
215C
330
214A
100
AcDbEntity
  8
1
  6
Continuous
 62
     7
370
    18
100
AcDbVertex
100
AcDb2dVertex
 10
4458.783509759788
 20
2521.800050884777
 30
0.0
  0
VERTEX
  5
215D
330
214A
100
AcDbEntity
  8
1
  6
Continuous
 62
     7
370
    18
100
AcDbVertex
100
AcDb2dVertex
 10
4459.274989894519
 20
2521.709691386735
 30
0.0
  0
VERTEX
  5
215E
330
214A
100
AcDbEntity
  8
1
  6
Continuous
 62
     7
370
    18
100
AcDbVertex
100
AcDb2dVertex
 10
4459.44442965141
 20
2521.67906323615
 30
0.0
  0
VERTEX
  5
215F
330
214A
100
AcDbEntity
  8
1
  6
Continuous
 62
     7
370
    18
100
AcDbVertex
100
AcDb2dVertex
 10
4459.615957309451
 20
2521.648317252047
 30
0.0
  0
VERTEX
  5
2160
330
214A
100
AcDbEntity
  8
1
  6
Continuous
 62
     7
370
    18
100
AcDbVertex
100
AcDb2dVertex
 10
4460.138078717273
 20
2521.55622847243
 30
0.0
  0
VERTEX
  5
2161
330
214A
100
AcDbEntity
  8
1
  6
Continuous
 62
     7
370
    18
100
AcDbVertex
100
AcDb2dVertex
 10
4461.031078348296
 20
2521.403360284791
 30
0.0
  0
VERTEX
  5
2162
330
214A
100
AcDbEntity
  8
1
  6
Continuous
 62
     7
370
    18
100
AcDbVertex
100
AcDb2dVertex
 10
4462.321481257731
 20
2521.191010841317
 30
0.0
  0
VERTEX
  5
2163
330
214A
100
AcDbEntity
  8
1
  6
Continuous
 62
     7
370
    18
100
AcDbVertex
100
AcDb2dVertex
 10
4464.032728339085
 20
2520.921663069524
 30
0.0
  0
VERTEX
  5
2164
330
214A
100
AcDbEntity
  8
1
  6
Continuous
 62
     7
370
    18
100
AcDbVertex
100
AcDb2dVertex
 10
4466.174962892998
 20
2520.599457267457
 30
0.0
  0
VERTEX
  5
2165
330
214A
100
AcDbEntity
  8
1
  6
Continuous
 62
     7
370
    18
100
AcDbVertex
100
AcDb2dVertex
 10
4468.736020667075
 20
2520.230571041448
 30
0.0
  0
VERTEX
  5
2166
330
214A
100
AcDbEntity
  8
1
  6
Continuous
 62
     7
370
    18
100
AcDbVertex
100
AcDb2dVertex
 10
4471.675436416561
 20
2519.823407771038
 30
0.0
  0
VERTEX
  5
2167
330
214A
100
AcDbEntity
  8
1
  6
Continuous
 62
     7
370
    18
100
AcDbVertex
100
AcDb2dVertex
 10
4474.922631963909
 20
2519.388531939668
 30
0.0
  0
VERTEX
  5
2168
330
214A
100
AcDbEntity
  8
1
  6
Continuous
 62
     7
370
    18
100
AcDbVertex
100
AcDb2dVertex
 10
4478.37958617309
 20
2518.938338930134
 30
0.0
  0
VERTEX
  5
2169
330
214A
100
AcDbEntity
  8
1
  6
Continuous
 62
     7
370
    18
100
AcDbVertex
100
AcDb2dVertex
 10
4481.92740296099
 20
2518.486497133578
 30
0.0
  0
VERTEX
  5
216A
330
214A
100
AcDbEntity
  8
1
  6
Continuous
 62
     7
370
    18
100
AcDbVertex
100
AcDb2dVertex
 10
4485.435484215547
 20
2518.047240458376
 30
0.0
  0
VERTEX
  5
216B
330
214A
100
AcDbEntity
  8
1
  6
Continuous
 62
     7
370
    18
100
AcDbVertex
100
AcDb2dVertex
 10
4488.771628027985
 20
2517.63461120636
 30
0.0
  0
VERTEX
  5
216C
330
214A
100
AcDbEntity
  8
1
  6
Continuous
 62
     7
370
    18
100
AcDbVertex
100
AcDb2dVertex
 10
4491.811376554593
 20
2517.261752992682
 30
0.0
  0
VERTEX
  5
216D
330
214A
100
AcDbEntity
  8
1
  6
Continuous
 62
     7
370
    18
100
AcDbVertex
100
AcDb2dVertex
 10
4494.445305977673
 20
2516.940332398425
 30
0.0
  0
VERTEX
  5
216E
330
214A
100
AcDbEntity
  8
1
  6
Continuous
 62
     7
370
    18
100
AcDbVertex
100
AcDb2dVertex
 10
4496.583572649243
 20
2516.680132619941
 30
0.0
  0
VERTEX
  5
216F
330
214A
100
AcDbEntity
  8
1
  6
Continuous
 62
     7
370
    18
100
AcDbVertex
100
AcDb2dVertex
 10
4498.157738268225
 20
2516.488821911017
 30
0.0
  0
VERTEX
  5
2170
330
214A
100
AcDbEntity
  8
1
  6
Continuous
 62
     7
370
    18
100
AcDbVertex
100
AcDb2dVertex
 10
4499.120512985652
 20
2516.371864267521
 30
0.0
  0
VERTEX
  5
2171
330
214A
100
AcDbEntity
  8
1
  6
Continuous
 62
     7
370
    18
100
AcDbVertex
100
AcDb2dVertex
 10
4499.44442965141
 20
2516.332518004227
 30
0.0
  0
SEQEND
  5
2172
330
214A
100
AcDbEntity
  8
1
  6
Continuous
 62
     7
370
    18
  0
POLYLINE
  5
2173
330
A
100
AcDbEntity
  8
1
  6
Continuous
 62
     7
370
    18
100
AcDb2dPolyline
 66
     1
 10
0.0
 20
0.0
 30
0.0
 70
     2
  0
VERTEX
  5
2174
330
2173
100
AcDbEntity
  8
1
  6
Continuous
 62
     7
370
    18
100
AcDbVertex
100
AcDb2dVertex
 10
6047.453747813722
 20
2908.821754906819
 30
0.0
  0
VERTEX
  5
2175
330
2173
100
AcDbEntity
  8
1
  6
Continuous
 62
     7
370
    18
100
AcDbVertex
100
AcDb2dVertex
 10
6047.422020864384
 20
2908.351793080236
 30
0.0
  0
VERTEX
  5
2176
330
2173
100
AcDbEntity
  8
1
  6
Continuous
 62
     7
370
    18
100
AcDbVertex
100
AcDb2dVertex
 10
6047.327710159917
 20
2906.954878015626
 30
0.0
  0
VERTEX
  5
2177
330
2173
100
AcDbEntity
  8
1
  6
Continuous
 62
     7
370
    18
100
AcDbVertex
100
AcDb2dVertex
 10
6047.173428933069
 20
2904.670417476158
 30
0.0
  0
VERTEX
  5
2178
330
2173
100
AcDbEntity
  8
1
  6
Continuous
 62
     7
370
    18
100
AcDbVertex
100
AcDb2dVertex
 10
6046.963532439892
 20
2901.565431519998
 30
0.0
  0
VERTEX
  5
2179
330
2173
100
AcDbEntity
  8
1
  6
Continuous
 62
     7
370
    18
100
AcDbVertex
100
AcDb2dVertex
 10
6046.704087457379
 20
2897.735553624262
 30
0.0
  0
VERTEX
  5
217A
330
2173
100
AcDbEntity
  8
1
  6
Continuous
 62
     7
370
    18
100
AcDbVertex
100
AcDb2dVertex
 10
6046.402778487436
 20
2893.304719157485
 30
0.0
  0
VERTEX
  5
217B
330
2173
100
AcDbEntity
  8
1
  6
Continuous
 62
     7
370
    18
100
AcDbVertex
100
AcDb2dVertex
 10
6046.068719259412
 20
2888.42246134022
 30
0.0
  0
VERTEX
  5
217C
330
2173
100
AcDbEntity
  8
1
  6
Continuous
 62
     7
370
    18
100
AcDbVertex
100
AcDb2dVertex
 10
6045.71215142515
 20
2883.258143544714
 30
0.0
  0
VERTEX
  5
217D
330
2173
100
AcDbEntity
  8
1
  6
Continuous
 62
     7
370
    18
100
AcDbVertex
100
AcDb2dVertex
 10
6045.344033708009
 20
2877.992126413621
 30
0.0
  0
VERTEX
  5
217E
330
2173
100
AcDbEntity
  8
1
  6
Continuous
 62
     7
370
    18
100
AcDbVertex
100
AcDb2dVertex
 10
6044.975549154514
 20
2872.804637567571
 30
0.0
  0
VERTEX
  5
217F
330
2173
100
AcDbEntity
  8
1
  6
Continuous
 62
     7
370
    18
100
AcDbVertex
100
AcDb2dVertex
 10
6044.617579460155
 20
2867.863785987399
 30
0.0
  0
VERTEX
  5
2180
330
2173
100
AcDbEntity
  8
1
  6
Continuous
 62
     7
370
    18
100
AcDbVertex
100
AcDb2dVertex
 10
6044.280207975726
 20
2863.314562560832
 30
0.0
  0
VERTEX
  5
2181
330
2173
100
AcDbEntity
  8
1
  6
Continuous
 62
     7
370
    18
100
AcDbVertex
100
AcDb2dVertex
 10
6043.972313202218
 20
2859.270672911474
 30
0.0
  0
VERTEX
  5
2182
330
2173
100
AcDbEntity
  8
1
  6
Continuous
 62
     7
370
    18
100
AcDbVertex
100
AcDb2dVertex
 10
6043.701301466847
 20
2855.810630211959
 30
0.0
  0
VERTEX
  5
2183
330
2173
100
AcDbEntity
  8
1
  6
Continuous
 62
     7
370
    18
100
AcDbVertex
100
AcDb2dVertex
 10
6043.473003323483
 20
2852.978767331469
 30
0.0
  0
VERTEX
  5
2184
330
2173
100
AcDbEntity
  8
1
  6
Continuous
 62
     7
370
    18
100
AcDbVertex
100
AcDb2dVertex
 10
6043.29172803072
 20
2850.79086922584
 30
0.0
  0
VERTEX
  5
2185
330
2173
100
AcDbEntity
  8
1
  6
Continuous
 62
     7
370
    18
100
AcDbVertex
100
AcDb2dVertex
 10
6043.160440814379
 20
2849.243188673498
 30
0.0
  0
VERTEX
  5
2186
330
2173
100
AcDbEntity
  8
1
  6
Continuous
 62
     7
370
    18
100
AcDbVertex
100
AcDb2dVertex
 10
6043.081005172686
 20
2848.322904188686
 30
0.0
  0
VERTEX
  5
2187
330
2173
100
AcDbEntity
  8
1
  6
Continuous
 62
     7
370
    18
100
AcDbVertex
100
AcDb2dVertex
 10
6043.054422394529
 20
2848.017773215563
 30
0.0
  0
VERTEX
  5
2188
330
2173
100
AcDbEntity
  8
1
  6
Continuous
 62
     7
370
    18
100
AcDbVertex
100
AcDb2dVertex
 10
6043.027908084112
 20
2847.714901081915
 30
0.0
  0
VERTEX
  5
2189
330
2173
100
AcDbEntity
  8
1
  6
Continuous
 62
     7
370
    18
100
AcDbVertex
100
AcDb2dVertex
 10
6042.949382581144
 20
2846.827788647511
 30
0.0
  0
VERTEX
  5
218A
330
2173
100
AcDbEntity
  8
1
  6
Continuous
 62
     7
370
    18
100
AcDbVertex
100
AcDb2dVertex
 10
6042.821133261188
 20
2845.418218211606
 30
0.0
  0
VERTEX
  5
218B
330
2173
100
AcDbEntity
  8
1
  6
Continuous
 62
     7
370
    18
100
AcDbVertex
100
AcDb2dVertex
 10
6042.644693475024
 20
2843.580538958985
 30
0.0
  0
VERTEX
  5
218C
330
2173
100
AcDbEntity
  8
1
  6
Continuous
 62
     7
370
    18
100
AcDbVertex
100
AcDb2dVertex
 10
6042.418296335108
 20
2841.430307906718
 30
0.0
  0
VERTEX
  5
218D
330
2173
100
AcDbEntity
  8
1
  6
Continuous
 62
     7
370
    18
100
AcDbVertex
100
AcDb2dVertex
 10
6042.134802120963
 20
2839.091202684306
 30
0.0
  0
VERTEX
  5
218E
330
2173
100
AcDbEntity
  8
1
  6
Continuous
 62
     7
370
    18
100
AcDbVertex
100
AcDb2dVertex
 10
6041.781068754537
 20
2836.682325498523
 30
0.0
  0
VERTEX
  5
218F
330
2173
100
AcDbEntity
  8
1
  6
Continuous
 62
     7
370
    18
100
AcDbVertex
100
AcDb2dVertex
 10
6041.33941835264
 20
2834.307803456477
 30
0.0
  0
VERTEX
  5
2190
330
2173
100
AcDbEntity
  8
1
  6
Continuous
 62
     7
370
    18
100
AcDbVertex
100
AcDb2dVertex
 10
6040.791317966544
 20
2832.050023099545
 30
0.0
  0
VERTEX
  5
2191
330
2173
100
AcDbEntity
  8
1
  6
Continuous
 62
     7
370
    18
100
AcDbVertex
100
AcDb2dVertex
 10
6040.122770307513
 20
2829.967051632349
 30
0.0
  0
VERTEX
  5
2192
330
2173
100
AcDbEntity
  8
1
  6
Continuous
 62
     7
370
    18
100
AcDbVertex
100
AcDb2dVertex
 10
6039.330359242709
 20
2828.093970859062
 30
0.0
  0
VERTEX
  5
2193
330
2173
100
AcDbEntity
  8
1
  6
Continuous
 62
     7
370
    18
100
AcDbVertex
100
AcDb2dVertex
 10
6038.426562336306
 20
2826.44715981519
 30
0.0
  0
VERTEX
  5
2194
330
2173
100
AcDbEntity
  8
1
  6
Continuous
 62
     7
370
    18
100
AcDbVertex
100
AcDb2dVertex
 10
6037.44292738428
 20
2825.030146263858
 30
0.0
  0
VERTEX
  5
2195
330
2173
100
AcDbEntity
  8
1
  6
Continuous
 62
     7
370
    18
100
AcDbVertex
100
AcDb2dVertex
 10
6036.430036114173
 20
2823.83957349703
 30
0.0
  0
VERTEX
  5
2196
330
2173
100
AcDbEntity
  8
1
  6
Continuous
 62
     7
370
    18
100
AcDbVertex
100
AcDb2dVertex
 10
6035.453787936707
 20
2822.870082408602
 30
0.0
  0
VERTEX
  5
2197
330
2173
100
AcDbEntity
  8
1
  6
Continuous
 62
     7
370
    18
100
AcDbVertex
100
AcDb2dVertex
 10
6034.588301126459
 20
2822.117399131924
 30
0.0
  0
VERTEX
  5
2198
330
2173
100
AcDbEntity
  8
1
  6
Continuous
 62
     7
370
    18
100
AcDbVertex
100
AcDb2dVertex
 10
6033.906477732612
 20
2821.579504534625
 30
0.0
  0
VERTEX
  5
2199
330
2173
100
AcDbEntity
  8
1
  6
Continuous
 62
     7
370
    18
100
AcDbVertex
100
AcDb2dVertex
 10
6033.46983944644
 20
2821.256288198934
 30
0.0
  0
VERTEX
  5
219A
330
2173
100
AcDbEntity
  8
1
  6
Continuous
 62
     7
370
    18
100
AcDbVertex
100
AcDb2dVertex
 10
6033.319480720258
 20
2821.148425532059
 30
0.0
  0
VERTEX
  5
219B
330
2173
100
AcDbEntity
  8
1
  6
Continuous
 62
     7
370
    18
100
AcDbVertex
100
AcDb2dVertex
 10
6033.167354785351
 20
2821.040978918814
 30
0.0
  0
VERTEX
  5
219C
330
2173
100
AcDbEntity
  8
1
  6
Continuous
 62
     7
370
    18
100
AcDbVertex
100
AcDb2dVertex
 10
6032.704785366215
 20
2820.723989408429
 30
0.0
  0
VERTEX
  5
219D
330
2173
100
AcDbEntity
  8
1
  6
Continuous
 62
     7
370
    18
100
AcDbVertex
100
AcDb2dVertex
 10
6031.915165370097
 20
2820.21294117859
 30
0.0
  0
VERTEX
  5
219E
330
2173
100
AcDbEntity
  8
1
  6
Continuous
 62
     7
370
    18
100
AcDbVertex
100
AcDb2dVertex
 10
6030.77696337927
 20
2819.531851143211
 30
0.0
  0
VERTEX
  5
219F
330
2173
100
AcDbEntity
  8
1
  6
Continuous
 62
     7
370
    18
100
AcDbVertex
100
AcDb2dVertex
 10
6029.271591404
 20
2818.710910478722
 30
0.0
  0
VERTEX
  5
21A0
330
2173
100
AcDbEntity
  8
1
  6
Continuous
 62
     7
370
    18
100
AcDbVertex
100
AcDb2dVertex
 10
6027.392015779267
 20
2817.783765079397
 30
0.0
  0
VERTEX
  5
21A1
330
2173
100
AcDbEntity
  8
1
  6
Continuous
 62
     7
370
    18
100
AcDbVertex
100
AcDb2dVertex
 10
6025.150341245043
 20
2816.784868275813
 30
0.0
  0
VERTEX
  5
21A2
330
2173
100
AcDbEntity
  8
1
  6
Continuous
 62
     7
370
    18
100
AcDbVertex
100
AcDb2dVertex
 10
6022.582834721883
 20
2815.747288406592
 30
0.0
  0
VERTEX
  5
21A3
330
2173
100
AcDbEntity
  8
1
  6
Continuous
 62
     7
370
    18
100
AcDbVertex
100
AcDb2dVertex
 10
6019.751404040015
 20
2814.701229379466
 30
0.0
  0
VERTEX
  5
21A4
330
2173
100
AcDbEntity
  8
1
  6
Continuous
 62
     7
370
    18
100
AcDbVertex
100
AcDb2dVertex
 10
6016.741278836652
 20
2813.673354282282
 30
0.0
  0
VERTEX
  5
21A5
330
2173
100
AcDbEntity
  8
1
  6
Continuous
 62
     7
370
    18
100
AcDbVertex
100
AcDb2dVertex
 10
6013.655389453295
 20
2812.68682928788
 30
0.0
  0
VERTEX
  5
21A6
330
2173
100
AcDbEntity
  8
1
  6
Continuous
 62
     7
370
    18
100
AcDbVertex
100
AcDb2dVertex
 10
6010.606540075797
 20
2811.761866047894
 30
0.0
  0
VERTEX
  5
21A7
330
2173
100
AcDbEntity
  8
1
  6
Continuous
 62
     7
370
    18
100
AcDbVertex
100
AcDb2dVertex
 10
6007.708799501457
 20
2810.916464710853
 30
0.0
  0
VERTEX
  5
21A8
330
2173
100
AcDbEntity
  8
1
  6
Continuous
 62
     7
370
    18
100
AcDbVertex
100
AcDb2dVertex
 10
6005.06952958619
 20
2810.167059999852
 30
0.0
  0
VERTEX
  5
21A9
330
2173
100
AcDbEntity
  8
1
  6
Continuous
 62
     7
370
    18
100
AcDbVertex
100
AcDb2dVertex
 10
6002.78315973422
 20
2809.528844283955
 30
0.0
  0
VERTEX
  5
21AA
330
2173
100
AcDbEntity
  8
1
  6
Continuous
 62
     7
370
    18
100
AcDbVertex
100
AcDb2dVertex
 10
6000.927289518897
 20
2809.015662373989
 30
0.0
  0
VERTEX
  5
21AB
330
2173
100
AcDbEntity
  8
1
  6
Continuous
 62
     7
370
    18
100
AcDbVertex
100
AcDb2dVertex
 10
5999.561101438381
 20
2808.63950999563
 30
0.0
  0
VERTEX
  5
21AC
330
2173
100
AcDbEntity
  8
1
  6
Continuous
 62
     7
370
    18
100
AcDbVertex
100
AcDb2dVertex
 10
5998.725544173265
 20
2808.40978600416
 30
0.0
  0
VERTEX
  5
21AD
330
2173
100
AcDbEntity
  8
1
  6
Continuous
 62
     7
370
    18
100
AcDbVertex
100
AcDb2dVertex
 10
5998.444429651412
 20
2808.332518004227
 30
0.0
  0
SEQEND
  5
21AE
330
2173
100
AcDbEntity
  8
1
  6
Continuous
 62
     7
370
    18
  0
LINE
  5
21AF
330
A
100
AcDbEntity
  8
1
  6
Continuous
 62
     7
370
    18
100
AcDbLine
 10
5998.444429651412
 20
2808.332518004227
 30
0.0
 11
5998.444429651412
 21
2516.332518004227
 31
0.0
  0
LINE
  5
21B0
330
A
100
AcDbEntity
  8
1
  6
Continuous
 62
     7
370
    18
100
AcDbLine
 10
4499.44442965141
 20
2808.332518004227
 30
0.0
 11
5998.444429651412
 21
2808.332518004227
 31
0.0
  0
LINE
  5
21B1
330
A
100
AcDbEntity
  8
1
  6
Continuous
 62
     7
370
    18
100
AcDbLine
 10
6168.444429651412
 20
2516.332518004227
 30
0.0
 11
5998.444429651412
 21
2516.332518004227
 31
0.0
  0
POLYLINE
  5
21B2
330
A
100
AcDbEntity
  8
1
  6
Continuous
 62
     7
370
    18
100
AcDb2dPolyline
 66
     1
 10
0.0
 20
0.0
 30
0.0
 70
     2
  0
VERTEX
  5
21B3
330
21B2
100
AcDbEntity
  8
1
  6
Continuous
 62
     7
370
    18
100
AcDbVertex
100
AcDb2dVertex
 10
4449.44442965141
 20
2908.332518004227
 30
0.0
  0
VERTEX
  5
21B4
330
21B2
100
AcDbEntity
  8
1
  6
Continuous
 62
     7
370
    18
100
AcDbVertex
100
AcDb2dVertex
 10
4449.480799403295
 20
2907.862892665358
 30
0.0
  0
VERTEX
  5
21B5
330
21B2
100
AcDbEntity
  8
1
  6
Continuous
 62
     7
370
    18
100
AcDbVertex
100
AcDb2dVertex
 10
4449.588910379033
 20
2906.466977831409
 30
0.0
  0
VERTEX
  5
21B6
330
21B2
100
AcDbEntity
  8
1
  6
Continuous
 62
     7
370
    18
100
AcDbVertex
100
AcDb2dVertex
 10
4449.765760030118
 20
2904.184153516169
 30
0.0
  0
VERTEX
  5
21B7
330
21B2
100
AcDbEntity
  8
1
  6
Continuous
 62
     7
370
    18
100
AcDbVertex
100
AcDb2dVertex
 10
4450.006330993993
 20
2901.081393464675
 30
0.0
  0
VERTEX
  5
21B8
330
21B2
100
AcDbEntity
  8
1
  6
Continuous
 62
     7
370
    18
100
AcDbVertex
100
AcDb2dVertex
 10
4450.303611701428
 20
2897.25426652973
 30
0.0
  0
VERTEX
  5
21B9
330
21B2
100
AcDbEntity
  8
1
  6
Continuous
 62
     7
370
    18
100
AcDbVertex
100
AcDb2dVertex
 10
4450.648693246587
 20
2892.826626086499
 30
0.0
  0
VERTEX
  5
21BA
330
21B2
100
AcDbEntity
  8
1
  6
Continuous
 62
     7
370
    18
100
AcDbVertex
100
AcDb2dVertex
 10
4451.030984597729
 20
2887.947907987969
 30
0.0
  0
VERTEX
  5
21BB
330
21B2
100
AcDbEntity
  8
1
  6
Continuous
 62
     7
370
    18
100
AcDbVertex
100
AcDb2dVertex
 10
4451.438570886146
 20
2882.787366123891
 30
0.0
  0
VERTEX
  5
21BC
330
21B2
100
AcDbEntity
  8
1
  6
Continuous
 62
     7
370
    18
100
AcDbVertex
100
AcDb2dVertex
 10
4451.858711527186
 20
2877.52524403101
 30
0.0
  0
VERTEX
  5
21BD
330
21B2
100
AcDbEntity
  8
1
  6
Continuous
 62
     7
370
    18
100
AcDbVertex
100
AcDb2dVertex
 10
4452.27844293856
 20
2872.341650013693
 30
0.0
  0
VERTEX
  5
21BE
330
21B2
100
AcDbEntity
  8
1
  6
Continuous
 62
     7
370
    18
100
AcDbVertex
100
AcDb2dVertex
 10
4452.685222635575
 20
2867.404577306363
 30
0.0
  0
VERTEX
  5
21BF
330
21B2
100
AcDbEntity
  8
1
  6
Continuous
 62
     7
370
    18
100
AcDbVertex
100
AcDb2dVertex
 10
4453.067534901544
 20
2862.858910068803
 30
0.0
  0
VERTEX
  5
21C0
330
21B2
100
AcDbEntity
  8
1
  6
Continuous
 62
     7
370
    18
100
AcDbVertex
100
AcDb2dVertex
 10
4453.415377984314
 20
2858.818260631212
 30
0.0
  0
VERTEX
  5
21C1
330
21B2
100
AcDbEntity
  8
1
  6
Continuous
 62
     7
370
    18
100
AcDbVertex
100
AcDb2dVertex
 10
4453.720570019577
 20
2855.361065139952
 30
0.0
  0
VERTEX
  5
21C2
330
21B2
100
AcDbEntity
  8
1
  6
Continuous
 62
     7
370
    18
100
AcDbVertex
100
AcDb2dVertex
 10
4453.976842622934
 20
2852.531596679459
 30
0.0
  0
VERTEX
  5
21C3
330
21B2
100
AcDbEntity
  8
1
  6
Continuous
 62
     7
370
    18
100
AcDbVertex
100
AcDb2dVertex
 10
4454.179730752937
 20
2850.345596848926
 30
0.0
  0
VERTEX
  5
21C4
330
21B2
100
AcDbEntity
  8
1
  6
Continuous
 62
     7
370
    18
100
AcDbVertex
100
AcDb2dVertex
 10
4454.326306360111
 20
2848.799289306212
 30
0.0
  0
VERTEX
  5
21C5
330
21B2
100
AcDbEntity
  8
1
  6
Continuous
 62
     7
370
    18
100
AcDbVertex
100
AcDb2dVertex
 10
4454.414832744312
 20
2847.879834775821
 30
0.0
  0
VERTEX
  5
21C6
330
21B2
100
AcDbEntity
  8
1
  6
Continuous
 62
     7
370
    18
100
AcDbVertex
100
AcDb2dVertex
 10
4454.44442965141
 20
2847.574981404601
 30
0.0
  0
VERTEX
  5
21C7
330
21B2
100
AcDbEntity
  8
1
  6
Continuous
 62
     7
370
    18
100
AcDbVertex
100
AcDb2dVertex
 10
4454.473935771351
 20
2847.272386085928
 30
0.0
  0
VERTEX
  5
21C8
330
21B2
100
AcDbEntity
  8
1
  6
Continuous
 62
     7
370
    18
100
AcDbVertex
100
AcDb2dVertex
 10
4454.561224241723
 20
2846.386092991725
 30
0.0
  0
VERTEX
  5
21C9
330
21B2
100
AcDbEntity
  8
1
  6
Continuous
 62
     7
370
    18
100
AcDbVertex
100
AcDb2dVertex
 10
4454.703397241126
 20
2844.977858799523
 30
0.0
  0
VERTEX
  5
21CA
330
21B2
100
AcDbEntity
  8
1
  6
Continuous
 62
     7
370
    18
100
AcDbVertex
100
AcDb2dVertex
 10
4454.897989097054
 20
2843.142012933645
 30
0.0
  0
VERTEX
  5
21CB
330
21B2
100
AcDbEntity
  8
1
  6
Continuous
 62
     7
370
    18
100
AcDbVertex
100
AcDb2dVertex
 10
4455.145624629838
 20
2840.994124229359
 30
0.0
  0
VERTEX
  5
21CC
330
21B2
100
AcDbEntity
  8
1
  6
Continuous
 62
     7
370
    18
100
AcDbVertex
100
AcDb2dVertex
 10
4455.452220979214
 20
2838.657934834314
 30
0.0
  0
VERTEX
  5
21CD
330
21B2
100
AcDbEntity
  8
1
  6
Continuous
 62
     7
370
    18
100
AcDbVertex
100
AcDb2dVertex
 10
4455.829742565557
 20
2836.252671014574
 30
0.0
  0
VERTEX
  5
21CE
330
21B2
100
AcDbEntity
  8
1
  6
Continuous
 62
     7
370
    18
100
AcDbVertex
100
AcDb2dVertex
 10
4456.294837382841
 20
2833.88262949245
 30
0.0
  0
VERTEX
  5
21CF
330
21B2
100
AcDbEntity
  8
1
  6
Continuous
 62
     7
370
    18
100
AcDbVertex
100
AcDb2dVertex
 10
4456.865223297849
 20
2831.630375936265
 30
0.0
  0
VERTEX
  5
21D0
330
21B2
100
AcDbEntity
  8
1
  6
Continuous
 62
     7
370
    18
100
AcDbVertex
100
AcDb2dVertex
 10
4457.554323072316
 20
2829.554113041933
 30
0.0
  0
VERTEX
  5
21D1
330
21B2
100
AcDbEntity
  8
1
  6
Continuous
 62
     7
370
    18
100
AcDbVertex
100
AcDb2dVertex
 10
4458.365205979764
 20
2827.688954660109
 30
0.0
  0
VERTEX
  5
21D2
330
21B2
100
AcDbEntity
  8
1
  6
Continuous
 62
     7
370
    18
100
AcDbVertex
100
AcDb2dVertex
 10
4459.285233201106
 20
2826.051155718165
 30
0.0
  0
VERTEX
  5
21D3
330
21B2
100
AcDbEntity
  8
1
  6
Continuous
 62
     7
370
    18
100
AcDbVertex
100
AcDb2dVertex
 10
4460.282823618136
 20
2824.643932038947
 30
0.0
  0
VERTEX
  5
21D4
330
21B2
100
AcDbEntity
  8
1
  6
Continuous
 62
     7
370
    18
100
AcDbVertex
100
AcDb2dVertex
 10
4461.307431145669
 20
2823.463427209353
 30
0.0
  0
VERTEX
  5
21D5
330
21B2
100
AcDbEntity
  8
1
  6
Continuous
 62
     7
370
    18
100
AcDbVertex
100
AcDb2dVertex
 10
4462.293212551831
 20
2822.503631140486
 30
0.0
  0
VERTEX
  5
21D6
330
21B2
100
AcDbEntity
  8
1
  6
Continuous
 62
     7
370
    18
100
AcDbVertex
100
AcDb2dVertex
 10
4463.166095417469
 20
2821.75953770779
 30
0.0
  0
VERTEX
  5
21D7
330
21B2
100
AcDbEntity
  8
1
  6
Continuous
 62
     7
370
    18
100
AcDbVertex
100
AcDb2dVertex
 10
4463.853201207239
 20
2821.228407430114
 30
0.0
  0
VERTEX
  5
21D8
330
21B2
100
AcDbEntity
  8
1
  6
Continuous
 62
     7
370
    18
100
AcDbVertex
100
AcDb2dVertex
 10
4464.293012325296
 20
2820.909521912973
 30
0.0
  0
VERTEX
  5
21D9
330
21B2
100
AcDbEntity
  8
1
  6
Continuous
 62
     7
370
    18
100
AcDbVertex
100
AcDb2dVertex
 10
4464.44442965141
 20
2820.803150418686
 30
0.0
  0
VERTEX
  5
21DA
330
21B2
100
AcDbEntity
  8
1
  6
Continuous
 62
     7
370
    18
100
AcDbVertex
100
AcDb2dVertex
 10
4464.597609988344
 20
2820.697212421979
 30
0.0
  0
VERTEX
  5
21DB
330
21B2
100
AcDbEntity
  8
1
  6
Continuous
 62
     7
370
    18
100
AcDbVertex
100
AcDb2dVertex
 10
4465.063289437099
 20
2820.384809687963
 30
0.0
  0
VERTEX
  5
21DC
330
21B2
100
AcDbEntity
  8
1
  6
Continuous
 62
     7
370
    18
100
AcDbVertex
100
AcDb2dVertex
 10
4465.857921258598
 20
2819.881589756173
 30
0.0
  0
VERTEX
  5
21DD
330
21B2
100
AcDbEntity
  8
1
  6
Continuous
 62
     7
370
    18
100
AcDbVertex
100
AcDb2dVertex
 10
4467.002798474339
 20
2819.211781149857
 30
0.0
  0
VERTEX
  5
21DE
330
21B2
100
AcDbEntity
  8
1
  6
Continuous
 62
     7
370
    18
100
AcDbVertex
100
AcDb2dVertex
 10
4468.516209805009
 20
2818.405757265137
 30
0.0
  0
VERTEX
  5
21DF
330
21B2
100
AcDbEntity
  8
1
  6
Continuous
 62
     7
370
    18
100
AcDbVertex
100
AcDb2dVertex
 10
4470.404856069898
 20
2817.497231862797
 30
0.0
  0
VERTEX
  5
21E0
330
21B2
100
AcDbEntity
  8
1
  6
Continuous
 62
     7
370
    18
100
AcDbVertex
100
AcDb2dVertex
 10
4472.656292638462
 20
2816.520536967071
 30
0.0
  0
VERTEX
  5
21E1
330
21B2
100
AcDbEntity
  8
1
  6
Continuous
 62
     7
370
    18
100
AcDbVertex
100
AcDb2dVertex
 10
4475.233927566508
 20
2815.508380897485
 30
0.0
  0
VERTEX
  5
21E2
330
21B2
100
AcDbEntity
  8
1
  6
Continuous
 62
     7
370
    18
100
AcDbVertex
100
AcDb2dVertex
 10
4478.075557559733
 20
2814.490354288766
 30
0.0
  0
VERTEX
  5
21E3
330
21B2
100
AcDbEntity
  8
1
  6
Continuous
 62
     7
370
    18
100
AcDbVertex
100
AcDb2dVertex
 10
4481.095693647506
 20
2813.492276653182
 30
0.0
  0
VERTEX
  5
21E4
330
21B2
100
AcDbEntity
  8
1
  6
Continuous
 62
     7
370
    18
100
AcDbVertex
100
AcDb2dVertex
 10
4484.191181577197
 20
2812.536295833273
 30
0.0
  0
VERTEX
  5
21E5
330
21B2
100
AcDbEntity
  8
1
  6
Continuous
 62
     7
370
    18
100
AcDbVertex
100
AcDb2dVertex
 10
4487.249022931747
 20
2811.641507717349
 30
0.0
  0
VERTEX
  5
21E6
330
21B2
100
AcDbEntity
  8
1
  6
Continuous
 62
     7
370
    18
100
AcDbVertex
100
AcDb2dVertex
 10
4490.15497659937
 20
2810.824784301207
 30
0.0
  0
VERTEX
  5
21E7
330
21B2
100
AcDbEntity
  8
1
  6
Continuous
 62
     7
370
    18
100
AcDbVertex
100
AcDb2dVertex
 10
4492.801523552315
 20
2810.101498512347
 30
0.0
  0
VERTEX
  5
21E8
330
21B2
100
AcDbEntity
  8
1
  6
Continuous
 62
     7
370
    18
100
AcDbVertex
100
AcDb2dVertex
 10
4495.09408886044
 20
2809.485908788594
 30
0.0
  0
VERTEX
  5
21E9
330
21B2
100
AcDbEntity
  8
1
  6
Continuous
 62
     7
370
    18
100
AcDbVertex
100
AcDb2dVertex
 10
4496.954939919763
 20
2808.991092394499
 30
0.0
  0
VERTEX
  5
21EA
330
21B2
100
AcDbEntity
  8
1
  6
Continuous
 62
     7
370
    18
100
AcDbVertex
100
AcDb2dVertex
 10
4498.324778575537
 20
2808.628459604707
 30
0.0
  0
VERTEX
  5
21EB
330
21B2
100
AcDbEntity
  8
1
  6
Continuous
 62
     7
370
    18
100
AcDbVertex
100
AcDb2dVertex
 10
4499.162565263516
 20
2808.407004144198
 30
0.0
  0
VERTEX
  5
21EC
330
21B2
100
AcDbEntity
  8
1
  6
Continuous
 62
     7
370
    18
100
AcDbVertex
100
AcDb2dVertex
 10
4499.44442965141
 20
2808.332518004227
 30
0.0
  0
SEQEND
  5
21ED
330
21B2
100
AcDbEntity
  8
1
  6
Continuous
 62
     7
370
    18
  0
LINE
  5
21EE
330
A
100
AcDbEntity
  8
1
  6
Continuous
 62
     7
370
    18
100
AcDbLine
 10
4499.44442965141
 20
2808.332518004227
 30
0.0
 11
4499.44442965141
 21
2516.332518004227
 31
0.0
  0
LINE
  5
21EF
330
A
100
AcDbEntity
  8
1
  6
Continuous
 62
     7
370
    18
100
AcDbLine
 10
4329.44442965141
 20
2516.332518004227
 30
0.0
 11
4499.44442965141
 21
2516.332518004227
 31
0.0
  0
LINE
  5
21F0
330
A
100
AcDbEntity
  8
1
  6
Continuous
 62
     7
370
    18
100
AcDbLine
 10
6068.444429651412
 20
2916.332807393843
 30
0.0
 11
6068.444429651412
 21
2543.332518004227
 31
0.0
  0
LINE
  5
21F1
330
A
100
AcDbEntity
  8
1
  6
Continuous
 62
     7
370
    18
100
AcDbLine
 10
4429.44442965141
 20
2916.332770442708
 30
0.0
 11
4429.44442965141
 21
2543.332518004227
 31
0.0
  0
LINE
  5
21F2
330
A
100
AcDbEntity
  8
1
  6
Continuous
 62
     7
370
    18
100
AcDbLine
 10
5559.444429651412
 20
3066.332518004227
 30
0.0
 11
5543.276412400002
 21
3025.569192922891
 31
0.0
  0
LINE
  5
21F3
330
A
100
AcDbEntity
  8
1
  6
Continuous
 62
     7
370
    18
100
AcDbLine
 10
5519.444429651412
 20
3106.332518004227
 30
0.0
 11
5479.259093221681
 21
3088.801563502273
 31
0.0
  0
LINE
  5
21F4
330
A
100
AcDbEntity
  8
1
  6
Continuous
 62
     7
370
    18
100
AcDbLine
 10
4939.444429651413
 20
3066.332518004227
 30
0.0
 11
4955.612446902822
 21
3025.569192922891
 31
0.0
  0
LINE
  5
21F5
330
A
100
AcDbEntity
  8
1
  6
Continuous
 62
     7
370
    18
100
AcDbLine
 10
4979.444429651412
 20
3106.332518004227
 30
0.0
 11
5019.629766081145
 21
3088.801563502273
 31
0.0
  0
LINE
  5
21F6
330
A
100
AcDbEntity
  8
1
  6
Continuous
 62
     7
370
    18
100
AcDbLine
 10
4979.444429651412
 20
3106.332518004227
 30
0.0
 11
4939.444429651413
 21
3066.332518004227
 31
0.0
  0
LINE
  5
21F7
330
A
100
AcDbEntity
  8
1
  6
Continuous
 62
     7
370
    18
100
AcDbLine
 10
4979.444429651412
 20
3316.332518004227
 30
0.0
 11
4979.444429651412
 21
3106.332518004227
 31
0.0
  0
LINE
  5
21F8
330
A
100
AcDbEntity
  8
1
  6
Continuous
 62
     7
370
    18
100
AcDbLine
 10
5519.444429651412
 20
3106.332518004227
 30
0.0
 11
5559.444429651412
 21
3066.332518004227
 31
0.0
  0
LINE
  5
21F9
330
A
100
AcDbEntity
  8
1
  6
Continuous
 62
     7
370
    18
100
AcDbLine
 10
6218.975679651412
 20
3066.332518004227
 30
0.0
 11
5559.444429651412
 21
3066.332518004227
 31
0.0
  0
LINE
  5
21FA
330
A
100
AcDbEntity
  8
1
  6
Continuous
 62
     7
370
    18
100
AcDbLine
 10
5519.444429651412
 20
3316.332518004227
 30
0.0
 11
5519.444429651412
 21
3106.332518004227
 31
0.0
  0
LINE
  5
21FB
330
A
100
AcDbEntity
  8
1
  6
Continuous
 62
     7
370
    18
100
AcDbLine
 10
5449.444429651412
 20
3136.332518004227
 30
0.0
 11
5469.444429651412
 21
3136.332518004227
 31
0.0
  0
LINE
  5
21FC
330
A
100
AcDbEntity
  8
1
  6
Continuous
 62
     7
370
    18
100
AcDbLine
 10
5029.444429651412
 20
3136.332518004227
 30
0.0
 11
5049.444429651412
 21
3136.332518004227
 31
0.0
  0
LINE
  5
21FD
330
A
100
AcDbEntity
  8
1
  6
Continuous
 62
     7
370
    18
100
AcDbLine
 10
5449.444429651412
 20
3286.332518004227
 30
0.0
 11
5469.251066269183
 21
3280.260835860602
 31
0.0
  0
LINE
  5
21FE
330
A
100
AcDbEntity
  8
1
  6
Continuous
 62
     7
370
    18
100
AcDbLine
 10
5029.795826713737
 20
3281.62291355565
 30
0.0
 11
5049.444429651412
 21
3286.332518004227
 31
0.0
  0
LINE
  5
21FF
330
A
100
AcDbEntity
  8
1
  6
Continuous
 62
     7
370
    18
100
AcDbLine
 10
6199.444429651412
 20
3316.332518004227
 30
0.0
 11
6224.444429651413
 21
2996.332518004227
 31
0.0
  0
ARC
  5
2200
330
A
100
AcDbEntity
  8
1
  6
Continuous
 62
     7
370
    18
100
AcDbCircle
 10
5429.444429651412
 20
3276.332518004227
 30
0.0
 40
40.0
100
AcDbArc
 50
0.0
 51
89.99999999999991
  0
LINE
  5
2201
330
A
100
AcDbEntity
  8
1
  6
Continuous
 62
     7
370
    18
100
AcDbLine
 10
5469.444429651412
 20
3276.332518004227
 30
0.0
 11
5469.444429651412
 21
3136.332518004227
 31
0.0
  0
ARC
  5
2202
330
A
100
AcDbEntity
  8
1
  6
Continuous
 62
     7
370
    18
100
AcDbCircle
 10
5069.444429651412
 20
3276.332518004227
 30
0.0
 40
40.0
100
AcDbArc
 50
89.99999999999991
 51
179.9999999999998
  0
LINE
  5
2203
330
A
100
AcDbEntity
  8
1
  6
Continuous
 62
     7
370
    18
100
AcDbLine
 10
5029.444429651412
 20
3276.332518004227
 30
0.0
 11
5029.444429651412
 21
3136.332518004227
 31
0.0
  0
ARC
  5
2204
330
A
100
AcDbEntity
  8
1
  6
Continuous
 62
     7
370
    18
100
AcDbCircle
 10
5589.444429651412
 20
3136.332518004227
 30
0.0
 40
120.0
100
AcDbArc
 50
179.9999999999998
 51
-89.99999999999991
  0
ARC
  5
2205
330
A
100
AcDbEntity
  8
1
  6
Continuous
 62
     7
370
    18
100
AcDbCircle
 10
4909.444429651411
 20
3136.332518004227
 30
0.0
 40
120.0
100
AcDbArc
 50
-89.99999999999991
 51
0.0
  0
LINE
  5
2206
330
A
100
AcDbEntity
  8
1
  6
Continuous
 62
     7
370
    18
100
AcDbLine
 10
6168.444429651412
 20
2916.332518004227
 30
0.0
 11
6168.444429651412
 21
2516.332518004227
 31
0.0
  0
LINE
  5
2207
330
A
100
AcDbEntity
  8
1
  6
Continuous
 62
     7
370
    18
100
AcDbLine
 10
6148.444429651412
 20
2543.332518004227
 30
0.0
 11
6168.444429651412
 21
2525.332518004227
 31
0.0
  0
LINE
  5
2208
330
A
100
AcDbEntity
  8
1
  6
Continuous
 62
     7
370
    18
100
AcDbLine
 10
6068.444429651412
 20
2543.332518004227
 30
0.0
 11
6048.444429651412
 21
2525.332518004227
 31
0.0
  0
LINE
  5
2209
330
A
100
AcDbEntity
  8
1
  6
Continuous
 62
     7
370
    18
100
AcDbLine
 10
4429.44442965141
 20
2543.332518004227
 30
0.0
 11
4449.44442965141
 21
2525.332518004227
 31
0.0
  0
LINE
  5
220A
330
A
100
AcDbEntity
  8
1
  6
Continuous
 62
     7
370
    18
100
AcDbLine
 10
4349.44442965141
 20
2543.332518004227
 30
0.0
 11
4329.44442965141
 21
2525.332518004227
 31
0.0
  0
LINE
  5
220B
330
A
100
AcDbEntity
  8
1
  6
Continuous
 62
     7
370
    18
100
AcDbLine
 10
4349.44442965141
 20
2543.332518004227
 30
0.0
 11
4429.44442965141
 21
2543.332518004227
 31
0.0
  0
LINE
  5
220C
330
A
100
AcDbEntity
  8
1
  6
Continuous
 62
     7
370
    18
100
AcDbLine
 10
6148.444429651412
 20
2916.234883816063
 30
0.0
 11
6148.444429651412
 21
2543.332518004227
 31
0.0
  0
LINE
  5
220D
330
A
100
AcDbEntity
  8
1
  6
Continuous
 62
     7
370
    18
100
AcDbLine
 10
6068.444429651412
 20
2543.332518004227
 30
0.0
 11
6148.444429651412
 21
2543.332518004227
 31
0.0
  0
LINE
  5
220E
330
A
100
AcDbEntity
  8
1
  6
Continuous
 62
     7
370
    18
100
AcDbLine
 10
5449.444429651412
 20
3286.332518004227
 30
0.0
 11
5449.444429651412
 21
3136.332518004227
 31
0.0
  0
ARC
  5
220F
330
A
100
AcDbEntity
  8
1
  6
Continuous
 62
     7
370
    18
100
AcDbCircle
 10
5419.444429651412
 20
3286.332518004227
 30
0.0
 40
30.0
100
AcDbArc
 50
0.0
 51
89.99999999999991
  0
ARC
  5
2210
330
A
100
AcDbEntity
  8
1
  6
Continuous
 62
     7
370
    18
100
AcDbCircle
 10
5079.444429651412
 20
3286.332518004227
 30
0.0
 40
30.0
100
AcDbArc
 50
89.99999999999991
 51
179.9999999999998
  0
LINE
  5
2211
330
A
100
AcDbEntity
  8
1
  6
Continuous
 62
     7
370
    18
100
AcDbLine
 10
5049.444429651412
 20
3286.332518004227
 30
0.0
 11
5049.444429651412
 21
3136.332518004227
 31
0.0
  0
POLYLINE
  5
2212
330
A
100
AcDbEntity
  8
1
  6
Continuous
 62
     7
370
    18
100
AcDb2dPolyline
 66
     1
 10
0.0
 20
0.0
 30
0.0
  0
VERTEX
  5
2213
330
2212
100
AcDbEntity
  8
1
  6
Continuous
 62
     7
370
    18
100
AcDbVertex
100
AcDb2dVertex
 10
6224.444429651413
 20
2916.332518004227
 30
0.0
  0
VERTEX
  5
2214
330
2212
100
AcDbEntity
  8
1
  6
Continuous
 62
     7
370
    18
100
AcDbVertex
100
AcDb2dVertex
 10
6224.971503651412
 20
2916.341409004227
 30
0.0
  0
VERTEX
  5
2215
330
2212
100
AcDbEntity
  8
1
  6
Continuous
 62
     7
370
    18
100
AcDbVertex
100
AcDb2dVertex
 10
6225.498342651412
 20
2916.368077004227
 30
0.0
  0
VERTEX
  5
2216
330
2212
100
AcDbEntity
  8
1
  6
Continuous
 62
     7
370
    18
100
AcDbVertex
100
AcDb2dVertex
 10
6226.024713651412
 20
2916.412512004227
 30
0.0
  0
VERTEX
  5
2217
330
2212
100
AcDbEntity
  8
1
  6
Continuous
 62
     7
370
    18
100
AcDbVertex
100
AcDb2dVertex
 10
6226.550382651413
 20
2916.474692004225
 30
0.0
  0
VERTEX
  5
2218
330
2212
100
AcDbEntity
  8
1
  6
Continuous
 62
     7
370
    18
100
AcDbVertex
100
AcDb2dVertex
 10
6227.075114651412
 20
2916.554591004226
 30
0.0
  0
VERTEX
  5
2219
330
2212
100
AcDbEntity
  8
1
  6
Continuous
 62
     7
370
    18
100
AcDbVertex
100
AcDb2dVertex
 10
6227.59867765141
 20
2916.652172004225
 30
0.0
  0
VERTEX
  5
221A
330
2212
100
AcDbEntity
  8
1
  6
Continuous
 62
     7
370
    18
100
AcDbVertex
100
AcDb2dVertex
 10
6228.120838651411
 20
2916.767393004226
 30
0.0
  0
VERTEX
  5
221B
330
2212
100
AcDbEntity
  8
1
  6
Continuous
 62
     7
370
    18
100
AcDbVertex
100
AcDb2dVertex
 10
6228.641364651412
 20
2916.900203004227
 30
0.0
  0
VERTEX
  5
221C
330
2212
100
AcDbEntity
  8
1
  6
Continuous
 62
     7
370
    18
100
AcDbVertex
100
AcDb2dVertex
 10
6229.160025651412
 20
2917.050541004226
 30
0.0
  0
VERTEX
  5
221D
330
2212
100
AcDbEntity
  8
1
  6
Continuous
 62
     7
370
    18
100
AcDbVertex
100
AcDb2dVertex
 10
6229.676589651411
 20
2917.218343004226
 30
0.0
  0
VERTEX
  5
221E
330
2212
100
AcDbEntity
  8
1
  6
Continuous
 62
     7
370
    18
100
AcDbVertex
100
AcDb2dVertex
 10
6230.190828651412
 20
2917.403531004226
 30
0.0
  0
VERTEX
  5
221F
330
2212
100
AcDbEntity
  8
1
  6
Continuous
 62
     7
370
    18
100
AcDbVertex
100
AcDb2dVertex
 10
6230.702512651412
 20
2917.606026004227
 30
0.0
  0
VERTEX
  5
2220
330
2212
100
AcDbEntity
  8
1
  6
Continuous
 62
     7
370
    18
100
AcDbVertex
100
AcDb2dVertex
 10
6231.211414651412
 20
2917.825736004227
 30
0.0
  0
VERTEX
  5
2221
330
2212
100
AcDbEntity
  8
1
  6
Continuous
 62
     7
370
    18
100
AcDbVertex
100
AcDb2dVertex
 10
6231.717307651411
 20
2918.062564004225
 30
0.0
  0
VERTEX
  5
2222
330
2212
100
AcDbEntity
  8
1
  6
Continuous
 62
     7
370
    18
100
AcDbVertex
100
AcDb2dVertex
 10
6232.219968651413
 20
2918.316404004227
 30
0.0
  0
VERTEX
  5
2223
330
2212
100
AcDbEntity
  8
1
  6
Continuous
 62
     7
370
    18
100
AcDbVertex
100
AcDb2dVertex
 10
6232.719172651412
 20
2918.587144004227
 30
0.0
  0
VERTEX
  5
2224
330
2212
100
AcDbEntity
  8
1
  6
Continuous
 62
     7
370
    18
100
AcDbVertex
100
AcDb2dVertex
 10
6233.214698651412
 20
2918.874663004226
 30
0.0
  0
VERTEX
  5
2225
330
2212
100
AcDbEntity
  8
1
  6
Continuous
 62
     7
370
    18
100
AcDbVertex
100
AcDb2dVertex
 10
6233.706325651412
 20
2919.178834004226
 30
0.0
  0
VERTEX
  5
2226
330
2212
100
AcDbEntity
  8
1
  6
Continuous
 62
     7
370
    18
100
AcDbVertex
100
AcDb2dVertex
 10
6234.193835651411
 20
2919.499521004226
 30
0.0
  0
VERTEX
  5
2227
330
2212
100
AcDbEntity
  8
1
  6
Continuous
 62
     7
370
    18
100
AcDbVertex
100
AcDb2dVertex
 10
6234.677010651412
 20
2919.836582004226
 30
0.0
  0
VERTEX
  5
2228
330
2212
100
AcDbEntity
  8
1
  6
Continuous
 62
     7
370
    18
100
AcDbVertex
100
AcDb2dVertex
 10
6235.155637651413
 20
2920.189867004227
 30
0.0
  0
VERTEX
  5
2229
330
2212
100
AcDbEntity
  8
1
  6
Continuous
 62
     7
370
    18
100
AcDbVertex
100
AcDb2dVertex
 10
6235.629503651411
 20
2920.559218004226
 30
0.0
  0
VERTEX
  5
222A
330
2212
100
AcDbEntity
  8
1
  6
Continuous
 62
     7
370
    18
100
AcDbVertex
100
AcDb2dVertex
 10
6236.098396651413
 20
2920.944473004227
 30
0.0
  0
VERTEX
  5
222B
330
2212
100
AcDbEntity
  8
1
  6
Continuous
 62
     7
370
    18
100
AcDbVertex
100
AcDb2dVertex
 10
6236.562108651411
 20
2921.345458004225
 30
0.0
  0
VERTEX
  5
222C
330
2212
100
AcDbEntity
  8
1
  6
Continuous
 62
     7
370
    18
100
AcDbVertex
100
AcDb2dVertex
 10
6237.020434651411
 20
2921.761997004227
 30
0.0
  0
VERTEX
  5
222D
330
2212
100
AcDbEntity
  8
1
  6
Continuous
 62
     7
370
    18
100
AcDbVertex
100
AcDb2dVertex
 10
6237.473169651412
 20
2922.193904004226
 30
0.0
  0
VERTEX
  5
222E
330
2212
100
AcDbEntity
  8
1
  6
Continuous
 62
     7
370
    18
100
AcDbVertex
100
AcDb2dVertex
 10
6237.920112651412
 20
2922.640987004226
 30
0.0
  0
VERTEX
  5
222F
330
2212
100
AcDbEntity
  8
1
  6
Continuous
 62
     7
370
    18
100
AcDbVertex
100
AcDb2dVertex
 10
6238.361065651412
 20
2923.103047004226
 30
0.0
  0
VERTEX
  5
2230
330
2212
100
AcDbEntity
  8
1
  6
Continuous
 62
     7
370
    18
100
AcDbVertex
100
AcDb2dVertex
 10
6238.795831651412
 20
2923.579879004226
 30
0.0
  0
VERTEX
  5
2231
330
2212
100
AcDbEntity
  8
1
  6
Continuous
 62
     7
370
    18
100
AcDbVertex
100
AcDb2dVertex
 10
6239.224218651412
 20
2924.071271004227
 30
0.0
  0
VERTEX
  5
2232
330
2212
100
AcDbEntity
  8
1
  6
Continuous
 62
     7
370
    18
100
AcDbVertex
100
AcDb2dVertex
 10
6239.646034651412
 20
2924.577004004227
 30
0.0
  0
VERTEX
  5
2233
330
2212
100
AcDbEntity
  8
1
  6
Continuous
 62
     7
370
    18
100
AcDbVertex
100
AcDb2dVertex
 10
6240.061093651411
 20
2925.096854004227
 30
0.0
  0
VERTEX
  5
2234
330
2212
100
AcDbEntity
  8
1
  6
Continuous
 62
     7
370
    18
100
AcDbVertex
100
AcDb2dVertex
 10
6240.469209651411
 20
2925.630589004226
 30
0.0
  0
VERTEX
  5
2235
330
2212
100
AcDbEntity
  8
1
  6
Continuous
 62
     7
370
    18
100
AcDbVertex
100
AcDb2dVertex
 10
6240.870202651411
 20
2926.177973004226
 30
0.0
  0
VERTEX
  5
2236
330
2212
100
AcDbEntity
  8
1
  6
Continuous
 62
     7
370
    18
100
AcDbVertex
100
AcDb2dVertex
 10
6241.263893651412
 20
2926.738762004227
 30
0.0
  0
VERTEX
  5
2237
330
2212
100
AcDbEntity
  8
1
  6
Continuous
 62
     7
370
    18
100
AcDbVertex
100
AcDb2dVertex
 10
6241.650107651413
 20
2927.312706004226
 30
0.0
  0
VERTEX
  5
2238
330
2212
100
AcDbEntity
  8
1
  6
Continuous
 62
     7
370
    18
100
AcDbVertex
100
AcDb2dVertex
 10
6242.028672651411
 20
2927.899550004226
 30
0.0
  0
VERTEX
  5
2239
330
2212
100
AcDbEntity
  8
1
  6
Continuous
 62
     7
370
    18
100
AcDbVertex
100
AcDb2dVertex
 10
6242.399420651413
 20
2928.499035004227
 30
0.0
  0
VERTEX
  5
223A
330
2212
100
AcDbEntity
  8
1
  6
Continuous
 62
     7
370
    18
100
AcDbVertex
100
AcDb2dVertex
 10
6242.762187651411
 20
2929.110892004226
 30
0.0
  0
VERTEX
  5
223B
330
2212
100
AcDbEntity
  8
1
  6
Continuous
 62
     7
370
    18
100
AcDbVertex
100
AcDb2dVertex
 10
6243.116811651413
 20
2929.734850004226
 30
0.0
  0
VERTEX
  5
223C
330
2212
100
AcDbEntity
  8
1
  6
Continuous
 62
     7
370
    18
100
AcDbVertex
100
AcDb2dVertex
 10
6243.463134651412
 20
2930.370632004226
 30
0.0
  0
VERTEX
  5
223D
330
2212
100
AcDbEntity
  8
1
  6
Continuous
 62
     7
370
    18
100
AcDbVertex
100
AcDb2dVertex
 10
6243.801002651411
 20
2931.017956004227
 30
0.0
  0
VERTEX
  5
223E
330
2212
100
AcDbEntity
  8
1
  6
Continuous
 62
     7
370
    18
100
AcDbVertex
100
AcDb2dVertex
 10
6244.130266651411
 20
2931.676532004227
 30
0.0
  0
VERTEX
  5
223F
330
2212
100
AcDbEntity
  8
1
  6
Continuous
 62
     7
370
    18
100
AcDbVertex
100
AcDb2dVertex
 10
6244.450778651412
 20
2932.346070004227
 30
0.0
  0
VERTEX
  5
2240
330
2212
100
AcDbEntity
  8
1
  6
Continuous
 62
     7
370
    18
100
AcDbVertex
100
AcDb2dVertex
 10
6244.762397651411
 20
2933.026270004226
 30
0.0
  0
VERTEX
  5
2241
330
2212
100
AcDbEntity
  8
1
  6
Continuous
 62
     7
370
    18
100
AcDbVertex
100
AcDb2dVertex
 10
6245.064984651412
 20
2933.716830004227
 30
0.0
  0
VERTEX
  5
2242
330
2212
100
AcDbEntity
  8
1
  6
Continuous
 62
     7
370
    18
100
AcDbVertex
100
AcDb2dVertex
 10
6245.358404651412
 20
2934.417445004227
 30
0.0
  0
VERTEX
  5
2243
330
2212
100
AcDbEntity
  8
1
  6
Continuous
 62
     7
370
    18
100
AcDbVertex
100
AcDb2dVertex
 10
6245.642527651411
 20
2935.127801004226
 30
0.0
  0
VERTEX
  5
2244
330
2212
100
AcDbEntity
  8
1
  6
Continuous
 62
     7
370
    18
100
AcDbVertex
100
AcDb2dVertex
 10
6245.91722765141
 20
2935.847584004227
 30
0.0
  0
VERTEX
  5
2245
330
2212
100
AcDbEntity
  8
1
  6
Continuous
 62
     7
370
    18
100
AcDbVertex
100
AcDb2dVertex
 10
6246.182381651411
 20
2936.576473004226
 30
0.0
  0
VERTEX
  5
2246
330
2212
100
AcDbEntity
  8
1
  6
Continuous
 62
     7
370
    18
100
AcDbVertex
100
AcDb2dVertex
 10
6246.437871651411
 20
2937.314144004226
 30
0.0
  0
VERTEX
  5
2247
330
2212
100
AcDbEntity
  8
1
  6
Continuous
 62
     7
370
    18
100
AcDbVertex
100
AcDb2dVertex
 10
6246.683585651411
 20
2938.060270004226
 30
0.0
  0
VERTEX
  5
2248
330
2212
100
AcDbEntity
  8
1
  6
Continuous
 62
     7
370
    18
100
AcDbVertex
100
AcDb2dVertex
 10
6246.919413651412
 20
2938.814519004227
 30
0.0
  0
VERTEX
  5
2249
330
2212
100
AcDbEntity
  8
1
  6
Continuous
 62
     7
370
    18
100
AcDbVertex
100
AcDb2dVertex
 10
6247.145249651413
 20
2939.576555004227
 30
0.0
  0
VERTEX
  5
224A
330
2212
100
AcDbEntity
  8
1
  6
Continuous
 62
     7
370
    18
100
AcDbVertex
100
AcDb2dVertex
 10
6247.360994651412
 20
2940.346040004226
 30
0.0
  0
VERTEX
  5
224B
330
2212
100
AcDbEntity
  8
1
  6
Continuous
 62
     7
370
    18
100
AcDbVertex
100
AcDb2dVertex
 10
6247.566552651411
 20
2941.122632004226
 30
0.0
  0
VERTEX
  5
224C
330
2212
100
AcDbEntity
  8
1
  6
Continuous
 62
     7
370
    18
100
AcDbVertex
100
AcDb2dVertex
 10
6247.761831651413
 20
2941.905984004227
 30
0.0
  0
VERTEX
  5
224D
330
2212
100
AcDbEntity
  8
1
  6
Continuous
 62
     7
370
    18
100
AcDbVertex
100
AcDb2dVertex
 10
6247.946744651412
 20
2942.695750004226
 30
0.0
  0
VERTEX
  5
224E
330
2212
100
AcDbEntity
  8
1
  6
Continuous
 62
     7
370
    18
100
AcDbVertex
100
AcDb2dVertex
 10
6248.121210651412
 20
2943.491579004227
 30
0.0
  0
VERTEX
  5
224F
330
2212
100
AcDbEntity
  8
1
  6
Continuous
 62
     7
370
    18
100
AcDbVertex
100
AcDb2dVertex
 10
6248.285150651413
 20
2944.293115004226
 30
0.0
  0
VERTEX
  5
2250
330
2212
100
AcDbEntity
  8
1
  6
Continuous
 62
     7
370
    18
100
AcDbVertex
100
AcDb2dVertex
 10
6248.438493651413
 20
2945.100004004226
 30
0.0
  0
VERTEX
  5
2251
330
2212
100
AcDbEntity
  8
1
  6
Continuous
 62
     7
370
    18
100
AcDbVertex
100
AcDb2dVertex
 10
6248.581168651412
 20
2945.911885004227
 30
0.0
  0
VERTEX
  5
2252
330
2212
100
AcDbEntity
  8
1
  6
Continuous
 62
     7
370
    18
100
AcDbVertex
100
AcDb2dVertex
 10
6248.713115651412
 20
2946.728399004227
 30
0.0
  0
VERTEX
  5
2253
330
2212
100
AcDbEntity
  8
1
  6
Continuous
 62
     7
370
    18
100
AcDbVertex
100
AcDb2dVertex
 10
6248.834272651411
 20
2947.549183004227
 30
0.0
  0
VERTEX
  5
2254
330
2212
100
AcDbEntity
  8
1
  6
Continuous
 62
     7
370
    18
100
AcDbVertex
100
AcDb2dVertex
 10
6248.944588651411
 20
2948.373871004225
 30
0.0
  0
VERTEX
  5
2255
330
2212
100
AcDbEntity
  8
1
  6
Continuous
 62
     7
370
    18
100
AcDbVertex
100
AcDb2dVertex
 10
6249.044012651411
 20
2949.202097004227
 30
0.0
  0
VERTEX
  5
2256
330
2212
100
AcDbEntity
  8
1
  6
Continuous
 62
     7
370
    18
100
AcDbVertex
100
AcDb2dVertex
 10
6249.132501651411
 20
2950.033493004227
 30
0.0
  0
VERTEX
  5
2257
330
2212
100
AcDbEntity
  8
1
  6
Continuous
 62
     7
370
    18
100
AcDbVertex
100
AcDb2dVertex
 10
6249.210015651412
 20
2950.867689004227
 30
0.0
  0
VERTEX
  5
2258
330
2212
100
AcDbEntity
  8
1
  6
Continuous
 62
     7
370
    18
100
AcDbVertex
100
AcDb2dVertex
 10
6249.276519651412
 20
2951.704314004226
 30
0.0
  0
VERTEX
  5
2259
330
2212
100
AcDbEntity
  8
1
  6
Continuous
 62
     7
370
    18
100
AcDbVertex
100
AcDb2dVertex
 10
6249.331985651412
 20
2952.542997004226
 30
0.0
  0
VERTEX
  5
225A
330
2212
100
AcDbEntity
  8
1
  6
Continuous
 62
     7
370
    18
100
AcDbVertex
100
AcDb2dVertex
 10
6249.376387651412
 20
2953.383364004227
 30
0.0
  0
VERTEX
  5
225B
330
2212
100
AcDbEntity
  8
1
  6
Continuous
 62
     7
370
    18
100
AcDbVertex
100
AcDb2dVertex
 10
6249.409706651412
 20
2954.225043004226
 30
0.0
  0
VERTEX
  5
225C
330
2212
100
AcDbEntity
  8
1
  6
Continuous
 62
     7
370
    18
100
AcDbVertex
100
AcDb2dVertex
 10
6249.431927651412
 20
2955.067658004225
 30
0.0
  0
VERTEX
  5
225D
330
2212
100
AcDbEntity
  8
1
  6
Continuous
 62
     7
370
    18
100
AcDbVertex
100
AcDb2dVertex
 10
6249.443040651411
 20
2955.910836004227
 30
0.0
  0
VERTEX
  5
225E
330
2212
100
AcDbEntity
  8
1
  6
Continuous
 62
     7
370
    18
100
AcDbVertex
100
AcDb2dVertex
 10
6249.443040651411
 20
2956.754200004226
 30
0.0
  0
VERTEX
  5
225F
330
2212
100
AcDbEntity
  8
1
  6
Continuous
 62
     7
370
    18
100
AcDbVertex
100
AcDb2dVertex
 10
6249.431927651412
 20
2957.597378004226
 30
0.0
  0
VERTEX
  5
2260
330
2212
100
AcDbEntity
  8
1
  6
Continuous
 62
     7
370
    18
100
AcDbVertex
100
AcDb2dVertex
 10
6249.409706651412
 20
2958.439993004226
 30
0.0
  0
VERTEX
  5
2261
330
2212
100
AcDbEntity
  8
1
  6
Continuous
 62
     7
370
    18
100
AcDbVertex
100
AcDb2dVertex
 10
6249.376387651412
 20
2959.281672004227
 30
0.0
  0
VERTEX
  5
2262
330
2212
100
AcDbEntity
  8
1
  6
Continuous
 62
     7
370
    18
100
AcDbVertex
100
AcDb2dVertex
 10
6249.331985651412
 20
2960.122039004226
 30
0.0
  0
VERTEX
  5
2263
330
2212
100
AcDbEntity
  8
1
  6
Continuous
 62
     7
370
    18
100
AcDbVertex
100
AcDb2dVertex
 10
6249.276519651412
 20
2960.960722004225
 30
0.0
  0
VERTEX
  5
2264
330
2212
100
AcDbEntity
  8
1
  6
Continuous
 62
     7
370
    18
100
AcDbVertex
100
AcDb2dVertex
 10
6249.210015651412
 20
2961.797347004225
 30
0.0
  0
VERTEX
  5
2265
330
2212
100
AcDbEntity
  8
1
  6
Continuous
 62
     7
370
    18
100
AcDbVertex
100
AcDb2dVertex
 10
6249.132501651411
 20
2962.631543004227
 30
0.0
  0
VERTEX
  5
2266
330
2212
100
AcDbEntity
  8
1
  6
Continuous
 62
     7
370
    18
100
AcDbVertex
100
AcDb2dVertex
 10
6249.044012651411
 20
2963.462939004227
 30
0.0
  0
VERTEX
  5
2267
330
2212
100
AcDbEntity
  8
1
  6
Continuous
 62
     7
370
    18
100
AcDbVertex
100
AcDb2dVertex
 10
6248.944588651411
 20
2964.291165004226
 30
0.0
  0
VERTEX
  5
2268
330
2212
100
AcDbEntity
  8
1
  6
Continuous
 62
     7
370
    18
100
AcDbVertex
100
AcDb2dVertex
 10
6248.834272651411
 20
2965.115853004227
 30
0.0
  0
VERTEX
  5
2269
330
2212
100
AcDbEntity
  8
1
  6
Continuous
 62
     7
370
    18
100
AcDbVertex
100
AcDb2dVertex
 10
6248.713115651412
 20
2965.936637004226
 30
0.0
  0
VERTEX
  5
226A
330
2212
100
AcDbEntity
  8
1
  6
Continuous
 62
     7
370
    18
100
AcDbVertex
100
AcDb2dVertex
 10
6248.581168651412
 20
2966.753151004227
 30
0.0
  0
VERTEX
  5
226B
330
2212
100
AcDbEntity
  8
1
  6
Continuous
 62
     7
370
    18
100
AcDbVertex
100
AcDb2dVertex
 10
6248.438493651413
 20
2967.565032004226
 30
0.0
  0
VERTEX
  5
226C
330
2212
100
AcDbEntity
  8
1
  6
Continuous
 62
     7
370
    18
100
AcDbVertex
100
AcDb2dVertex
 10
6248.285150651413
 20
2968.371921004226
 30
0.0
  0
VERTEX
  5
226D
330
2212
100
AcDbEntity
  8
1
  6
Continuous
 62
     7
370
    18
100
AcDbVertex
100
AcDb2dVertex
 10
6248.121210651412
 20
2969.173457004226
 30
0.0
  0
VERTEX
  5
226E
330
2212
100
AcDbEntity
  8
1
  6
Continuous
 62
     7
370
    18
100
AcDbVertex
100
AcDb2dVertex
 10
6247.946744651412
 20
2969.969286004227
 30
0.0
  0
VERTEX
  5
226F
330
2212
100
AcDbEntity
  8
1
  6
Continuous
 62
     7
370
    18
100
AcDbVertex
100
AcDb2dVertex
 10
6247.761831651413
 20
2970.759052004227
 30
0.0
  0
VERTEX
  5
2270
330
2212
100
AcDbEntity
  8
1
  6
Continuous
 62
     7
370
    18
100
AcDbVertex
100
AcDb2dVertex
 10
6247.566552651411
 20
2971.542404004225
 30
0.0
  0
VERTEX
  5
2271
330
2212
100
AcDbEntity
  8
1
  6
Continuous
 62
     7
370
    18
100
AcDbVertex
100
AcDb2dVertex
 10
6247.360994651412
 20
2972.318996004226
 30
0.0
  0
VERTEX
  5
2272
330
2212
100
AcDbEntity
  8
1
  6
Continuous
 62
     7
370
    18
100
AcDbVertex
100
AcDb2dVertex
 10
6247.145249651413
 20
2973.088481004226
 30
0.0
  0
VERTEX
  5
2273
330
2212
100
AcDbEntity
  8
1
  6
Continuous
 62
     7
370
    18
100
AcDbVertex
100
AcDb2dVertex
 10
6246.919413651412
 20
2973.850517004227
 30
0.0
  0
VERTEX
  5
2274
330
2212
100
AcDbEntity
  8
1
  6
Continuous
 62
     7
370
    18
100
AcDbVertex
100
AcDb2dVertex
 10
6246.683585651411
 20
2974.604766004226
 30
0.0
  0
VERTEX
  5
2275
330
2212
100
AcDbEntity
  8
1
  6
Continuous
 62
     7
370
    18
100
AcDbVertex
100
AcDb2dVertex
 10
6246.437871651411
 20
2975.350892004226
 30
0.0
  0
VERTEX
  5
2276
330
2212
100
AcDbEntity
  8
1
  6
Continuous
 62
     7
370
    18
100
AcDbVertex
100
AcDb2dVertex
 10
6246.182381651411
 20
2976.088563004227
 30
0.0
  0
VERTEX
  5
2277
330
2212
100
AcDbEntity
  8
1
  6
Continuous
 62
     7
370
    18
100
AcDbVertex
100
AcDb2dVertex
 10
6245.91722765141
 20
2976.817452004226
 30
0.0
  0
VERTEX
  5
2278
330
2212
100
AcDbEntity
  8
1
  6
Continuous
 62
     7
370
    18
100
AcDbVertex
100
AcDb2dVertex
 10
6245.642527651411
 20
2977.537235004226
 30
0.0
  0
VERTEX
  5
2279
330
2212
100
AcDbEntity
  8
1
  6
Continuous
 62
     7
370
    18
100
AcDbVertex
100
AcDb2dVertex
 10
6245.358404651412
 20
2978.247591004227
 30
0.0
  0
VERTEX
  5
227A
330
2212
100
AcDbEntity
  8
1
  6
Continuous
 62
     7
370
    18
100
AcDbVertex
100
AcDb2dVertex
 10
6245.064984651412
 20
2978.948206004226
 30
0.0
  0
VERTEX
  5
227B
330
2212
100
AcDbEntity
  8
1
  6
Continuous
 62
     7
370
    18
100
AcDbVertex
100
AcDb2dVertex
 10
6244.762397651411
 20
2979.638766004226
 30
0.0
  0
VERTEX
  5
227C
330
2212
100
AcDbEntity
  8
1
  6
Continuous
 62
     7
370
    18
100
AcDbVertex
100
AcDb2dVertex
 10
6244.450778651412
 20
2980.318966004226
 30
0.0
  0
VERTEX
  5
227D
330
2212
100
AcDbEntity
  8
1
  6
Continuous
 62
     7
370
    18
100
AcDbVertex
100
AcDb2dVertex
 10
6244.130266651411
 20
2980.988504004227
 30
0.0
  0
VERTEX
  5
227E
330
2212
100
AcDbEntity
  8
1
  6
Continuous
 62
     7
370
    18
100
AcDbVertex
100
AcDb2dVertex
 10
6243.801002651411
 20
2981.647080004226
 30
0.0
  0
VERTEX
  5
227F
330
2212
100
AcDbEntity
  8
1
  6
Continuous
 62
     7
370
    18
100
AcDbVertex
100
AcDb2dVertex
 10
6243.463134651412
 20
2982.294404004226
 30
0.0
  0
VERTEX
  5
2280
330
2212
100
AcDbEntity
  8
1
  6
Continuous
 62
     7
370
    18
100
AcDbVertex
100
AcDb2dVertex
 10
6243.116811651413
 20
2982.930186004227
 30
0.0
  0
VERTEX
  5
2281
330
2212
100
AcDbEntity
  8
1
  6
Continuous
 62
     7
370
    18
100
AcDbVertex
100
AcDb2dVertex
 10
6242.762187651411
 20
2983.554144004225
 30
0.0
  0
VERTEX
  5
2282
330
2212
100
AcDbEntity
  8
1
  6
Continuous
 62
     7
370
    18
100
AcDbVertex
100
AcDb2dVertex
 10
6242.399420651413
 20
2984.166001004227
 30
0.0
  0
VERTEX
  5
2283
330
2212
100
AcDbEntity
  8
1
  6
Continuous
 62
     7
370
    18
100
AcDbVertex
100
AcDb2dVertex
 10
6242.028672651411
 20
2984.765486004226
 30
0.0
  0
VERTEX
  5
2284
330
2212
100
AcDbEntity
  8
1
  6
Continuous
 62
     7
370
    18
100
AcDbVertex
100
AcDb2dVertex
 10
6241.650107651413
 20
2985.352330004225
 30
0.0
  0
VERTEX
  5
2285
330
2212
100
AcDbEntity
  8
1
  6
Continuous
 62
     7
370
    18
100
AcDbVertex
100
AcDb2dVertex
 10
6241.263893651412
 20
2985.926274004227
 30
0.0
  0
VERTEX
  5
2286
330
2212
100
AcDbEntity
  8
1
  6
Continuous
 62
     7
370
    18
100
AcDbVertex
100
AcDb2dVertex
 10
6240.870202651411
 20
2986.487063004226
 30
0.0
  0
VERTEX
  5
2287
330
2212
100
AcDbEntity
  8
1
  6
Continuous
 62
     7
370
    18
100
AcDbVertex
100
AcDb2dVertex
 10
6240.469209651411
 20
2987.034447004226
 30
0.0
  0
VERTEX
  5
2288
330
2212
100
AcDbEntity
  8
1
  6
Continuous
 62
     7
370
    18
100
AcDbVertex
100
AcDb2dVertex
 10
6240.061093651411
 20
2987.568182004226
 30
0.0
  0
VERTEX
  5
2289
330
2212
100
AcDbEntity
  8
1
  6
Continuous
 62
     7
370
    18
100
AcDbVertex
100
AcDb2dVertex
 10
6239.646034651412
 20
2988.088032004227
 30
0.0
  0
VERTEX
  5
228A
330
2212
100
AcDbEntity
  8
1
  6
Continuous
 62
     7
370
    18
100
AcDbVertex
100
AcDb2dVertex
 10
6239.224218651412
 20
2988.593765004227
 30
0.0
  0
VERTEX
  5
228B
330
2212
100
AcDbEntity
  8
1
  6
Continuous
 62
     7
370
    18
100
AcDbVertex
100
AcDb2dVertex
 10
6238.795831651412
 20
2989.085157004227
 30
0.0
  0
VERTEX
  5
228C
330
2212
100
AcDbEntity
  8
1
  6
Continuous
 62
     7
370
    18
100
AcDbVertex
100
AcDb2dVertex
 10
6238.361065651412
 20
2989.561989004226
 30
0.0
  0
VERTEX
  5
228D
330
2212
100
AcDbEntity
  8
1
  6
Continuous
 62
     7
370
    18
100
AcDbVertex
100
AcDb2dVertex
 10
6237.920112651412
 20
2990.024049004227
 30
0.0
  0
VERTEX
  5
228E
330
2212
100
AcDbEntity
  8
1
  6
Continuous
 62
     7
370
    18
100
AcDbVertex
100
AcDb2dVertex
 10
6237.473169651412
 20
2990.471132004226
 30
0.0
  0
VERTEX
  5
228F
330
2212
100
AcDbEntity
  8
1
  6
Continuous
 62
     7
370
    18
100
AcDbVertex
100
AcDb2dVertex
 10
6237.020434651411
 20
2990.903039004226
 30
0.0
  0
VERTEX
  5
2290
330
2212
100
AcDbEntity
  8
1
  6
Continuous
 62
     7
370
    18
100
AcDbVertex
100
AcDb2dVertex
 10
6236.562108651411
 20
2991.319578004226
 30
0.0
  0
VERTEX
  5
2291
330
2212
100
AcDbEntity
  8
1
  6
Continuous
 62
     7
370
    18
100
AcDbVertex
100
AcDb2dVertex
 10
6236.098396651413
 20
2991.720563004227
 30
0.0
  0
VERTEX
  5
2292
330
2212
100
AcDbEntity
  8
1
  6
Continuous
 62
     7
370
    18
100
AcDbVertex
100
AcDb2dVertex
 10
6235.629503651411
 20
2992.105818004226
 30
0.0
  0
VERTEX
  5
2293
330
2212
100
AcDbEntity
  8
1
  6
Continuous
 62
     7
370
    18
100
AcDbVertex
100
AcDb2dVertex
 10
6235.155637651413
 20
2992.475169004227
 30
0.0
  0
VERTEX
  5
2294
330
2212
100
AcDbEntity
  8
1
  6
Continuous
 62
     7
370
    18
100
AcDbVertex
100
AcDb2dVertex
 10
6234.677010651412
 20
2992.828454004226
 30
0.0
  0
VERTEX
  5
2295
330
2212
100
AcDbEntity
  8
1
  6
Continuous
 62
     7
370
    18
100
AcDbVertex
100
AcDb2dVertex
 10
6234.193835651411
 20
2993.165515004226
 30
0.0
  0
VERTEX
  5
2296
330
2212
100
AcDbEntity
  8
1
  6
Continuous
 62
     7
370
    18
100
AcDbVertex
100
AcDb2dVertex
 10
6233.706325651412
 20
2993.486202004226
 30
0.0
  0
VERTEX
  5
2297
330
2212
100
AcDbEntity
  8
1
  6
Continuous
 62
     7
370
    18
100
AcDbVertex
100
AcDb2dVertex
 10
6233.214698651412
 20
2993.790373004225
 30
0.0
  0
VERTEX
  5
2298
330
2212
100
AcDbEntity
  8
1
  6
Continuous
 62
     7
370
    18
100
AcDbVertex
100
AcDb2dVertex
 10
6232.719172651412
 20
2994.077892004227
 30
0.0
  0
VERTEX
  5
2299
330
2212
100
AcDbEntity
  8
1
  6
Continuous
 62
     7
370
    18
100
AcDbVertex
100
AcDb2dVertex
 10
6232.219968651413
 20
2994.348632004227
 30
0.0
  0
VERTEX
  5
229A
330
2212
100
AcDbEntity
  8
1
  6
Continuous
 62
     7
370
    18
100
AcDbVertex
100
AcDb2dVertex
 10
6231.717307651411
 20
2994.602472004226
 30
0.0
  0
VERTEX
  5
229B
330
2212
100
AcDbEntity
  8
1
  6
Continuous
 62
     7
370
    18
100
AcDbVertex
100
AcDb2dVertex
 10
6231.211414651412
 20
2994.839300004227
 30
0.0
  0
VERTEX
  5
229C
330
2212
100
AcDbEntity
  8
1
  6
Continuous
 62
     7
370
    18
100
AcDbVertex
100
AcDb2dVertex
 10
6230.702512651412
 20
2995.059010004226
 30
0.0
  0
VERTEX
  5
229D
330
2212
100
AcDbEntity
  8
1
  6
Continuous
 62
     7
370
    18
100
AcDbVertex
100
AcDb2dVertex
 10
6230.190828651412
 20
2995.261505004226
 30
0.0
  0
VERTEX
  5
229E
330
2212
100
AcDbEntity
  8
1
  6
Continuous
 62
     7
370
    18
100
AcDbVertex
100
AcDb2dVertex
 10
6229.676589651411
 20
2995.446693004226
 30
0.0
  0
VERTEX
  5
229F
330
2212
100
AcDbEntity
  8
1
  6
Continuous
 62
     7
370
    18
100
AcDbVertex
100
AcDb2dVertex
 10
6229.160025651412
 20
2995.614495004226
 30
0.0
  0
VERTEX
  5
22A0
330
2212
100
AcDbEntity
  8
1
  6
Continuous
 62
     7
370
    18
100
AcDbVertex
100
AcDb2dVertex
 10
6228.641364651412
 20
2995.764833004227
 30
0.0
  0
VERTEX
  5
22A1
330
2212
100
AcDbEntity
  8
1
  6
Continuous
 62
     7
370
    18
100
AcDbVertex
100
AcDb2dVertex
 10
6228.120838651411
 20
2995.897643004226
 30
0.0
  0
VERTEX
  5
22A2
330
2212
100
AcDbEntity
  8
1
  6
Continuous
 62
     7
370
    18
100
AcDbVertex
100
AcDb2dVertex
 10
6227.59867765141
 20
2996.012864004226
 30
0.0
  0
VERTEX
  5
22A3
330
2212
100
AcDbEntity
  8
1
  6
Continuous
 62
     7
370
    18
100
AcDbVertex
100
AcDb2dVertex
 10
6227.075114651412
 20
2996.110445004226
 30
0.0
  0
VERTEX
  5
22A4
330
2212
100
AcDbEntity
  8
1
  6
Continuous
 62
     7
370
    18
100
AcDbVertex
100
AcDb2dVertex
 10
6226.550382651413
 20
2996.190344004226
 30
0.0
  0
VERTEX
  5
22A5
330
2212
100
AcDbEntity
  8
1
  6
Continuous
 62
     7
370
    18
100
AcDbVertex
100
AcDb2dVertex
 10
6226.024713651412
 20
2996.252524004227
 30
0.0
  0
VERTEX
  5
22A6
330
2212
100
AcDbEntity
  8
1
  6
Continuous
 62
     7
370
    18
100
AcDbVertex
100
AcDb2dVertex
 10
6225.498342651412
 20
2996.296959004227
 30
0.0
  0
VERTEX
  5
22A7
330
2212
100
AcDbEntity
  8
1
  6
Continuous
 62
     7
370
    18
100
AcDbVertex
100
AcDb2dVertex
 10
6224.971503651412
 20
2996.323627004225
 30
0.0
  0
VERTEX
  5
22A8
330
2212
100
AcDbEntity
  8
1
  6
Continuous
 62
     7
370
    18
100
AcDbVertex
100
AcDb2dVertex
 10
6224.444429651413
 20
2996.332518004227
 30
0.0
  0
SEQEND
  5
22A9
330
2212
100
AcDbEntity
  8
1
  6
Continuous
 62
     7
370
    18
  0
LINE
  5
22AA
330
A
100
AcDbEntity
  8
1
  6
Continuous
 62
     7
370
    18
100
AcDbLine
 10
5589.444429651412
 20
2996.332518004227
 30
0.0
 11
6224.444429651413
 21
2996.332518004227
 31
0.0
  0
ARC
  5
22AB
330
A
100
AcDbEntity
  8
1
  6
Continuous
 62
     7
370
    18
100
AcDbCircle
 10
5589.444429651412
 20
3136.332518004227
 30
0.0
 40
140.0
100
AcDbArc
 50
179.9999999999998
 51
-89.99999999999991
  0
ARC
  5
22AC
330
A
100
AcDbEntity
  8
1
  6
Continuous
 62
     7
370
    18
100
AcDbCircle
 10
4909.444429651411
 20
3136.332518004227
 30
0.0
 40
140.0
100
AcDbArc
 50
-89.99999999999991
 51
0.0
  0
CIRCLE
  5
22AD
330
A
100
AcDbEntity
  8
1
  6
Continuous
 62
     7
370
    18
100
AcDbCircle
 10
5249.44442965141
 20
3071.332518004227
 30
0.0
 40
92.5
  0
CIRCLE
  5
22AE
330
A
100
AcDbEntity
  8
1
  6
Continuous
 62
     7
370
    18
100
AcDbCircle
 10
5249.44442965141
 20
3071.332518004227
 30
0.0
 40
87.5
  0
LINE
  5
22AF
330
A
100
AcDbEntity
  8
1
  6
Continuous
 62
     7
370
    18
100
AcDbLine
 10
5249.44442965141
 20
3071.332518004227
 30
0.0
 11
5249.44442965141
 21
3051.332518004227
 31
0.0
  0
LINE
  5
22B0
330
A
100
AcDbEntity
  8
1
  6
Continuous
 62
     7
370
    18
100
AcDbLine
 10
5249.44442965141
 20
3071.332518004227
 30
0.0
 11
5249.44442965141
 21
3091.332518004227
 31
0.0
  0
LINE
  5
22B1
330
A
100
AcDbEntity
  8
1
  6
Continuous
 62
     7
370
    18
100
AcDbLine
 10
5249.444429651412
 20
3071.332518004227
 30
0.0
 11
5269.444429651412
 21
3071.332518004227
 31
0.0
  0
LINE
  5
22B2
330
A
100
AcDbEntity
  8
1
  6
Continuous
 62
     7
370
    18
100
AcDbLine
 10
5249.44442965141
 20
3071.332518004227
 30
0.0
 11
5229.44442965141
 21
3071.332518004227
 31
0.0
  0
LINE
  5
22B3
330
A
100
AcDbEntity
  8
1
  6
Continuous
 62
     7
370
    18
100
AcDbLine
 10
2214.745634472842
 20
2696.332518004236
 30
0.0
 11
2214.745634472842
 21
2216.332518004227
 31
0.0
  0
LINE
  5
22B4
330
A
100
AcDbEntity
  8
1
  6
Continuous
 62
     7
370
    18
100
AcDbLine
 10
2294.745634472842
 20
2696.332518004221
 30
0.0
 11
2294.745634472842
 21
2216.332518004227
 31
0.0
  0
LINE
  5
22B5
330
A
100
AcDbEntity
  8
1
  6
Continuous
 62
     7
370
    18
100
AcDbLine
 10
2214.745634472842
 20
2696.332518004227
 30
0.0
 11
2195.64081449117
 21
2343.628149111802
 31
0.0
  0
LINE
  5
22B6
330
A
100
AcDbEntity
  8
1
  6
Continuous
 62
     7
370
    18
100
AcDbLine
 10
2294.745634472842
 20
2696.332518004227
 30
0.0
 11
2308.299194462241
 21
2446.112948969167
 31
0.0
  0
LINE
  5
22B7
330
A
100
AcDbEntity
  8
1
  6
Continuous
 62
     7
370
    18
100
AcDbLine
 10
4274.444429651413
 20
2916.332518004227
 30
0.0
 11
6224.444429651413
 21
2916.332518004227
 31
0.0
  0
LINE
  5
22B8
330
A
100
AcDbEntity
  8
1
  6
Continuous
 62
     7
370
    18
100
AcDbLine
 10
4274.444429651413
 20
2996.332518004227
 30
0.0
 11
4909.444429651411
 21
2996.332518004227
 31
0.0
  0
LINE
  5
22B9
330
A
100
AcDbEntity
  8
1
  6
Continuous
 62
     7
370
    18
100
AcDbLine
 10
4349.44442965141
 20
2916.34030550281
 30
0.0
 11
4349.44442965141
 21
2543.332518004227
 31
0.0
  0
LINE
  5
22BA
330
A
100
AcDbEntity
  8
1
  6
Continuous
 62
     7
370
    18
100
AcDbLine
 10
4329.44442965141
 20
2916.332518004227
 30
0.0
 11
4329.44442965141
 21
2516.332518004227
 31
0.0
  0
LINE
  5
22BB
330
A
100
AcDbEntity
  8
1
  6
Continuous
 62
     7
370
    18
100
AcDbLine
 10
4274.444429651413
 20
3016.332518004227
 30
0.0
 11
4909.444429651411
 21
3016.332518004227
 31
0.0
  0
LINE
  5
22BC
330
A
100
AcDbEntity
  8
1
  6
Continuous
 62
     7
370
    18
100
AcDbLine
 10
4299.444429651412
 20
3316.332518004227
 30
0.0
 11
6199.444429651412
 21
3316.332518004227
 31
0.0
  0
LINE
  5
22BD
330
A
100
AcDbEntity
  8
1
  6
Continuous
 62
     7
370
    18
100
AcDbLine
 10
4279.913179651412
 20
3066.332518004227
 30
0.0
 11
4939.444429651413
 21
3066.332518004227
 31
0.0
  0
LINE
  5
22BE
330
A
100
AcDbEntity
  8
1
  6
Continuous
 62
     7
370
    18
100
AcDbLine
 10
1894.745634472841
 20
2216.332518004227
 30
0.0
 11
2694.745634472841
 21
2216.332518004227
 31
0.0
  0
LINE
  5
22BF
330
A
100
AcDbEntity
  8
1
  6
Continuous
 62
     7
370
    18
100
AcDbLine
 10
2694.745634472841
 20
2216.332518004227
 30
0.0
 11
2694.745634472841
 21
2296.332518004227
 31
0.0
  0
LINE
  5
22C0
330
A
100
AcDbEntity
  8
1
  6
Continuous
 62
     7
370
    18
100
AcDbLine
 10
2694.745634472841
 20
2296.332518004227
 30
0.0
 11
2466.412301139506
 21
2296.332518004227
 31
0.0
  0
LINE
  5
22C1
330
A
100
AcDbEntity
  8
1
  6
Continuous
 62
     7
370
    18
100
AcDbLine
 10
4274.444429651413
 20
2916.332518004227
 30
0.0
 11
4286.944429651412
 21
2516.332518004227
 31
0.0
  0
CIRCLE
  5
22C2
330
A
100
AcDbEntity
  8
1
  6
Continuous
 62
     7
370
    18
100
AcDbCircle
 10
2394.745634472842
 20
2401.290315517084
 30
0.0
 40
25.0
  0
CIRCLE
  5
22C3
330
A
100
AcDbEntity
  8
1
  6
Continuous
 62
     7
370
    18
100
AcDbCircle
 10
2394.745634472842
 20
2401.290315517084
 30
0.0
 40
15.0
  0
CIRCLE
  5
22C4
330
A
100
AcDbEntity
  8
1
  6
Continuous
 62
     7
370
    18
100
AcDbCircle
 10
2594.745634472842
 20
2401.290315517084
 30
0.0
 40
25.0
  0
CIRCLE
  5
22C5
330
A
100
AcDbEntity
  8
1
  6
Continuous
 62
     7
370
    18
100
AcDbCircle
 10
2594.745634472842
 20
2401.290315517084
 30
0.0
 40
15.0
  0
LINE
  5
22C6
330
A
100
AcDbEntity
  8
1
  6
Continuous
 62
     7
370
    18
100
AcDbLine
 10
2672.5789678332
 20
2496.332517666373
 30
0.0
 11
2683.186178652917
 21
2486.350969939673
 31
0.0
  0
LINE
  5
22C7
330
A
100
AcDbEntity
  8
1
  6
Continuous
 62
     7
370
    18
100
AcDbLine
 10
2694.745634472841
 20
2296.332518004227
 30
0.0
 11
2683.186178652917
 21
2486.350969939673
 31
0.0
  0
LINE
  5
22C8
330
A
100
AcDbEntity
  8
1
  6
Continuous
 62
     7
370
    18
100
AcDbLine
 10
2305.578967806174
 20
2496.332517666373
 30
0.0
 11
2672.5789678332
 21
2496.332517666373
 31
0.0
  0
LINE
  5
22C9
330
A
100
AcDbEntity
  8
1
  6
Continuous
 62
     7
370
    18
100
AcDbLine
 10
4299.444429651412
 20
3316.332518004227
 30
0.0
 11
4274.444429651413
 21
2996.332518004227
 31
0.0
  0
POLYLINE
  5
22CA
330
A
100
AcDbEntity
  8
1
  6
Continuous
 62
     7
370
    18
100
AcDb2dPolyline
 66
     1
 10
0.0
 20
0.0
 30
0.0
  0
VERTEX
  5
22CB
330
22CA
100
AcDbEntity
  8
1
  6
Continuous
 62
     7
370
    18
100
AcDbVertex
100
AcDb2dVertex
 10
4274.444429651413
 20
2996.332518004227
 30
0.0
  0
VERTEX
  5
22CC
330
22CA
100
AcDbEntity
  8
1
  6
Continuous
 62
     7
370
    18
100
AcDbVertex
100
AcDb2dVertex
 10
4273.917355651412
 20
2996.323627004225
 30
0.0
  0
VERTEX
  5
22CD
330
22CA
100
AcDbEntity
  8
1
  6
Continuous
 62
     7
370
    18
100
AcDbVertex
100
AcDb2dVertex
 10
4273.390516651413
 20
2996.296959004227
 30
0.0
  0
VERTEX
  5
22CE
330
22CA
100
AcDbEntity
  8
1
  6
Continuous
 62
     7
370
    18
100
AcDbVertex
100
AcDb2dVertex
 10
4272.864145651412
 20
2996.252524004227
 30
0.0
  0
VERTEX
  5
22CF
330
22CA
100
AcDbEntity
  8
1
  6
Continuous
 62
     7
370
    18
100
AcDbVertex
100
AcDb2dVertex
 10
4272.338476651412
 20
2996.190344004226
 30
0.0
  0
VERTEX
  5
22D0
330
22CA
100
AcDbEntity
  8
1
  6
Continuous
 62
     7
370
    18
100
AcDbVertex
100
AcDb2dVertex
 10
4271.813744651412
 20
2996.110445004226
 30
0.0
  0
VERTEX
  5
22D1
330
22CA
100
AcDbEntity
  8
1
  6
Continuous
 62
     7
370
    18
100
AcDbVertex
100
AcDb2dVertex
 10
4271.290181651411
 20
2996.012864004226
 30
0.0
  0
VERTEX
  5
22D2
330
22CA
100
AcDbEntity
  8
1
  6
Continuous
 62
     7
370
    18
100
AcDbVertex
100
AcDb2dVertex
 10
4270.768020651412
 20
2995.897643004226
 30
0.0
  0
VERTEX
  5
22D3
330
22CA
100
AcDbEntity
  8
1
  6
Continuous
 62
     7
370
    18
100
AcDbVertex
100
AcDb2dVertex
 10
4270.247494651412
 20
2995.764833004227
 30
0.0
  0
VERTEX
  5
22D4
330
22CA
100
AcDbEntity
  8
1
  6
Continuous
 62
     7
370
    18
100
AcDbVertex
100
AcDb2dVertex
 10
4269.728833651412
 20
2995.614495004226
 30
0.0
  0
VERTEX
  5
22D5
330
22CA
100
AcDbEntity
  8
1
  6
Continuous
 62
     7
370
    18
100
AcDbVertex
100
AcDb2dVertex
 10
4269.212269651412
 20
2995.446693004226
 30
0.0
  0
VERTEX
  5
22D6
330
22CA
100
AcDbEntity
  8
1
  6
Continuous
 62
     7
370
    18
100
AcDbVertex
100
AcDb2dVertex
 10
4268.698030651412
 20
2995.261505004226
 30
0.0
  0
VERTEX
  5
22D7
330
22CA
100
AcDbEntity
  8
1
  6
Continuous
 62
     7
370
    18
100
AcDbVertex
100
AcDb2dVertex
 10
4268.186346651411
 20
2995.059010004226
 30
0.0
  0
VERTEX
  5
22D8
330
22CA
100
AcDbEntity
  8
1
  6
Continuous
 62
     7
370
    18
100
AcDbVertex
100
AcDb2dVertex
 10
4267.677444651411
 20
2994.839300004227
 30
0.0
  0
VERTEX
  5
22D9
330
22CA
100
AcDbEntity
  8
1
  6
Continuous
 62
     7
370
    18
100
AcDbVertex
100
AcDb2dVertex
 10
4267.171551651412
 20
2994.602472004226
 30
0.0
  0
VERTEX
  5
22DA
330
22CA
100
AcDbEntity
  8
1
  6
Continuous
 62
     7
370
    18
100
AcDbVertex
100
AcDb2dVertex
 10
4266.668890651412
 20
2994.348632004227
 30
0.0
  0
VERTEX
  5
22DB
330
22CA
100
AcDbEntity
  8
1
  6
Continuous
 62
     7
370
    18
100
AcDbVertex
100
AcDb2dVertex
 10
4266.169686651411
 20
2994.077892004227
 30
0.0
  0
VERTEX
  5
22DC
330
22CA
100
AcDbEntity
  8
1
  6
Continuous
 62
     7
370
    18
100
AcDbVertex
100
AcDb2dVertex
 10
4265.674160651411
 20
2993.790373004225
 30
0.0
  0
VERTEX
  5
22DD
330
22CA
100
AcDbEntity
  8
1
  6
Continuous
 62
     7
370
    18
100
AcDbVertex
100
AcDb2dVertex
 10
4265.182533651412
 20
2993.486202004226
 30
0.0
  0
VERTEX
  5
22DE
330
22CA
100
AcDbEntity
  8
1
  6
Continuous
 62
     7
370
    18
100
AcDbVertex
100
AcDb2dVertex
 10
4264.695023651412
 20
2993.165515004226
 30
0.0
  0
VERTEX
  5
22DF
330
22CA
100
AcDbEntity
  8
1
  6
Continuous
 62
     7
370
    18
100
AcDbVertex
100
AcDb2dVertex
 10
4264.211848651412
 20
2992.828454004226
 30
0.0
  0
VERTEX
  5
22E0
330
22CA
100
AcDbEntity
  8
1
  6
Continuous
 62
     7
370
    18
100
AcDbVertex
100
AcDb2dVertex
 10
4263.733221651412
 20
2992.475169004227
 30
0.0
  0
VERTEX
  5
22E1
330
22CA
100
AcDbEntity
  8
1
  6
Continuous
 62
     7
370
    18
100
AcDbVertex
100
AcDb2dVertex
 10
4263.259355651411
 20
2992.105818004226
 30
0.0
  0
VERTEX
  5
22E2
330
22CA
100
AcDbEntity
  8
1
  6
Continuous
 62
     7
370
    18
100
AcDbVertex
100
AcDb2dVertex
 10
4262.790462651412
 20
2991.720563004227
 30
0.0
  0
VERTEX
  5
22E3
330
22CA
100
AcDbEntity
  8
1
  6
Continuous
 62
     7
370
    18
100
AcDbVertex
100
AcDb2dVertex
 10
4262.326750651411
 20
2991.319578004226
 30
0.0
  0
VERTEX
  5
22E4
330
22CA
100
AcDbEntity
  8
1
  6
Continuous
 62
     7
370
    18
100
AcDbVertex
100
AcDb2dVertex
 10
4261.868424651411
 20
2990.903039004226
 30
0.0
  0
VERTEX
  5
22E5
330
22CA
100
AcDbEntity
  8
1
  6
Continuous
 62
     7
370
    18
100
AcDbVertex
100
AcDb2dVertex
 10
4261.415689651412
 20
2990.471132004226
 30
0.0
  0
VERTEX
  5
22E6
330
22CA
100
AcDbEntity
  8
1
  6
Continuous
 62
     7
370
    18
100
AcDbVertex
100
AcDb2dVertex
 10
4260.968746651411
 20
2990.024049004227
 30
0.0
  0
VERTEX
  5
22E7
330
22CA
100
AcDbEntity
  8
1
  6
Continuous
 62
     7
370
    18
100
AcDbVertex
100
AcDb2dVertex
 10
4260.527793651411
 20
2989.561989004226
 30
0.0
  0
VERTEX
  5
22E8
330
22CA
100
AcDbEntity
  8
1
  6
Continuous
 62
     7
370
    18
100
AcDbVertex
100
AcDb2dVertex
 10
4260.093027651412
 20
2989.085157004227
 30
0.0
  0
VERTEX
  5
22E9
330
22CA
100
AcDbEntity
  8
1
  6
Continuous
 62
     7
370
    18
100
AcDbVertex
100
AcDb2dVertex
 10
4259.664640651411
 20
2988.593765004227
 30
0.0
  0
VERTEX
  5
22EA
330
22CA
100
AcDbEntity
  8
1
  6
Continuous
 62
     7
370
    18
100
AcDbVertex
100
AcDb2dVertex
 10
4259.242824651411
 20
2988.088032004227
 30
0.0
  0
VERTEX
  5
22EB
330
22CA
100
AcDbEntity
  8
1
  6
Continuous
 62
     7
370
    18
100
AcDbVertex
100
AcDb2dVertex
 10
4258.82776565141
 20
2987.568182004226
 30
0.0
  0
VERTEX
  5
22EC
330
22CA
100
AcDbEntity
  8
1
  6
Continuous
 62
     7
370
    18
100
AcDbVertex
100
AcDb2dVertex
 10
4258.419649651412
 20
2987.034447004226
 30
0.0
  0
VERTEX
  5
22ED
330
22CA
100
AcDbEntity
  8
1
  6
Continuous
 62
     7
370
    18
100
AcDbVertex
100
AcDb2dVertex
 10
4258.018656651411
 20
2986.487063004226
 30
0.0
  0
VERTEX
  5
22EE
330
22CA
100
AcDbEntity
  8
1
  6
Continuous
 62
     7
370
    18
100
AcDbVertex
100
AcDb2dVertex
 10
4257.624965651412
 20
2985.926274004227
 30
0.0
  0
VERTEX
  5
22EF
330
22CA
100
AcDbEntity
  8
1
  6
Continuous
 62
     7
370
    18
100
AcDbVertex
100
AcDb2dVertex
 10
4257.238751651412
 20
2985.352330004225
 30
0.0
  0
VERTEX
  5
22F0
330
22CA
100
AcDbEntity
  8
1
  6
Continuous
 62
     7
370
    18
100
AcDbVertex
100
AcDb2dVertex
 10
4256.860186651411
 20
2984.765486004226
 30
0.0
  0
VERTEX
  5
22F1
330
22CA
100
AcDbEntity
  8
1
  6
Continuous
 62
     7
370
    18
100
AcDbVertex
100
AcDb2dVertex
 10
4256.489438651412
 20
2984.166001004227
 30
0.0
  0
VERTEX
  5
22F2
330
22CA
100
AcDbEntity
  8
1
  6
Continuous
 62
     7
370
    18
100
AcDbVertex
100
AcDb2dVertex
 10
4256.126671651411
 20
2983.554144004225
 30
0.0
  0
VERTEX
  5
22F3
330
22CA
100
AcDbEntity
  8
1
  6
Continuous
 62
     7
370
    18
100
AcDbVertex
100
AcDb2dVertex
 10
4255.772047651411
 20
2982.930186004227
 30
0.0
  0
VERTEX
  5
22F4
330
22CA
100
AcDbEntity
  8
1
  6
Continuous
 62
     7
370
    18
100
AcDbVertex
100
AcDb2dVertex
 10
4255.425724651412
 20
2982.294404004226
 30
0.0
  0
VERTEX
  5
22F5
330
22CA
100
AcDbEntity
  8
1
  6
Continuous
 62
     7
370
    18
100
AcDbVertex
100
AcDb2dVertex
 10
4255.087856651411
 20
2981.647080004226
 30
0.0
  0
VERTEX
  5
22F6
330
22CA
100
AcDbEntity
  8
1
  6
Continuous
 62
     7
370
    18
100
AcDbVertex
100
AcDb2dVertex
 10
4254.758592651411
 20
2980.988504004227
 30
0.0
  0
VERTEX
  5
22F7
330
22CA
100
AcDbEntity
  8
1
  6
Continuous
 62
     7
370
    18
100
AcDbVertex
100
AcDb2dVertex
 10
4254.438080651411
 20
2980.318966004226
 30
0.0
  0
VERTEX
  5
22F8
330
22CA
100
AcDbEntity
  8
1
  6
Continuous
 62
     7
370
    18
100
AcDbVertex
100
AcDb2dVertex
 10
4254.126461651411
 20
2979.638766004226
 30
0.0
  0
VERTEX
  5
22F9
330
22CA
100
AcDbEntity
  8
1
  6
Continuous
 62
     7
370
    18
100
AcDbVertex
100
AcDb2dVertex
 10
4253.823874651412
 20
2978.948206004226
 30
0.0
  0
VERTEX
  5
22FA
330
22CA
100
AcDbEntity
  8
1
  6
Continuous
 62
     7
370
    18
100
AcDbVertex
100
AcDb2dVertex
 10
4253.530454651412
 20
2978.247591004227
 30
0.0
  0
VERTEX
  5
22FB
330
22CA
100
AcDbEntity
  8
1
  6
Continuous
 62
     7
370
    18
100
AcDbVertex
100
AcDb2dVertex
 10
4253.246331651411
 20
2977.537235004226
 30
0.0
  0
VERTEX
  5
22FC
330
22CA
100
AcDbEntity
  8
1
  6
Continuous
 62
     7
370
    18
100
AcDbVertex
100
AcDb2dVertex
 10
4252.971631651411
 20
2976.817452004226
 30
0.0
  0
VERTEX
  5
22FD
330
22CA
100
AcDbEntity
  8
1
  6
Continuous
 62
     7
370
    18
100
AcDbVertex
100
AcDb2dVertex
 10
4252.706477651412
 20
2976.088563004227
 30
0.0
  0
VERTEX
  5
22FE
330
22CA
100
AcDbEntity
  8
1
  6
Continuous
 62
     7
370
    18
100
AcDbVertex
100
AcDb2dVertex
 10
4252.45098765141
 20
2975.350892004226
 30
0.0
  0
VERTEX
  5
22FF
330
22CA
100
AcDbEntity
  8
1
  6
Continuous
 62
     7
370
    18
100
AcDbVertex
100
AcDb2dVertex
 10
4252.205273651412
 20
2974.604766004226
 30
0.0
  0
VERTEX
  5
2300
330
22CA
100
AcDbEntity
  8
1
  6
Continuous
 62
     7
370
    18
100
AcDbVertex
100
AcDb2dVertex
 10
4251.969445651411
 20
2973.850517004227
 30
0.0
  0
VERTEX
  5
2301
330
22CA
100
AcDbEntity
  8
1
  6
Continuous
 62
     7
370
    18
100
AcDbVertex
100
AcDb2dVertex
 10
4251.743609651412
 20
2973.088481004226
 30
0.0
  0
VERTEX
  5
2302
330
22CA
100
AcDbEntity
  8
1
  6
Continuous
 62
     7
370
    18
100
AcDbVertex
100
AcDb2dVertex
 10
4251.527864651412
 20
2972.318996004226
 30
0.0
  0
VERTEX
  5
2303
330
22CA
100
AcDbEntity
  8
1
  6
Continuous
 62
     7
370
    18
100
AcDbVertex
100
AcDb2dVertex
 10
4251.32230665141
 20
2971.542404004225
 30
0.0
  0
VERTEX
  5
2304
330
22CA
100
AcDbEntity
  8
1
  6
Continuous
 62
     7
370
    18
100
AcDbVertex
100
AcDb2dVertex
 10
4251.127027651412
 20
2970.759052004227
 30
0.0
  0
VERTEX
  5
2305
330
22CA
100
AcDbEntity
  8
1
  6
Continuous
 62
     7
370
    18
100
AcDbVertex
100
AcDb2dVertex
 10
4250.942114651412
 20
2969.969286004227
 30
0.0
  0
VERTEX
  5
2306
330
22CA
100
AcDbEntity
  8
1
  6
Continuous
 62
     7
370
    18
100
AcDbVertex
100
AcDb2dVertex
 10
4250.767648651412
 20
2969.173457004226
 30
0.0
  0
VERTEX
  5
2307
330
22CA
100
AcDbEntity
  8
1
  6
Continuous
 62
     7
370
    18
100
AcDbVertex
100
AcDb2dVertex
 10
4250.603708651412
 20
2968.371921004226
 30
0.0
  0
VERTEX
  5
2308
330
22CA
100
AcDbEntity
  8
1
  6
Continuous
 62
     7
370
    18
100
AcDbVertex
100
AcDb2dVertex
 10
4250.450365651412
 20
2967.565032004226
 30
0.0
  0
VERTEX
  5
2309
330
22CA
100
AcDbEntity
  8
1
  6
Continuous
 62
     7
370
    18
100
AcDbVertex
100
AcDb2dVertex
 10
4250.307690651412
 20
2966.753151004227
 30
0.0
  0
VERTEX
  5
230A
330
22CA
100
AcDbEntity
  8
1
  6
Continuous
 62
     7
370
    18
100
AcDbVertex
100
AcDb2dVertex
 10
4250.175743651412
 20
2965.936637004226
 30
0.0
  0
VERTEX
  5
230B
330
22CA
100
AcDbEntity
  8
1
  6
Continuous
 62
     7
370
    18
100
AcDbVertex
100
AcDb2dVertex
 10
4250.054586651411
 20
2965.115853004227
 30
0.0
  0
VERTEX
  5
230C
330
22CA
100
AcDbEntity
  8
1
  6
Continuous
 62
     7
370
    18
100
AcDbVertex
100
AcDb2dVertex
 10
4249.94427065141
 20
2964.291165004226
 30
0.0
  0
VERTEX
  5
230D
330
22CA
100
AcDbEntity
  8
1
  6
Continuous
 62
     7
370
    18
100
AcDbVertex
100
AcDb2dVertex
 10
4249.844846651411
 20
2963.462939004227
 30
0.0
  0
VERTEX
  5
230E
330
22CA
100
AcDbEntity
  8
1
  6
Continuous
 62
     7
370
    18
100
AcDbVertex
100
AcDb2dVertex
 10
4249.756357651411
 20
2962.631543004227
 30
0.0
  0
VERTEX
  5
230F
330
22CA
100
AcDbEntity
  8
1
  6
Continuous
 62
     7
370
    18
100
AcDbVertex
100
AcDb2dVertex
 10
4249.678843651412
 20
2961.797347004225
 30
0.0
  0
VERTEX
  5
2310
330
22CA
100
AcDbEntity
  8
1
  6
Continuous
 62
     7
370
    18
100
AcDbVertex
100
AcDb2dVertex
 10
4249.612339651412
 20
2960.960722004225
 30
0.0
  0
VERTEX
  5
2311
330
22CA
100
AcDbEntity
  8
1
  6
Continuous
 62
     7
370
    18
100
AcDbVertex
100
AcDb2dVertex
 10
4249.556873651412
 20
2960.122039004226
 30
0.0
  0
VERTEX
  5
2312
330
22CA
100
AcDbEntity
  8
1
  6
Continuous
 62
     7
370
    18
100
AcDbVertex
100
AcDb2dVertex
 10
4249.512471651411
 20
2959.281672004227
 30
0.0
  0
VERTEX
  5
2313
330
22CA
100
AcDbEntity
  8
1
  6
Continuous
 62
     7
370
    18
100
AcDbVertex
100
AcDb2dVertex
 10
4249.479152651411
 20
2958.439993004226
 30
0.0
  0
VERTEX
  5
2314
330
22CA
100
AcDbEntity
  8
1
  6
Continuous
 62
     7
370
    18
100
AcDbVertex
100
AcDb2dVertex
 10
4249.456931651411
 20
2957.597378004226
 30
0.0
  0
VERTEX
  5
2315
330
22CA
100
AcDbEntity
  8
1
  6
Continuous
 62
     7
370
    18
100
AcDbVertex
100
AcDb2dVertex
 10
4249.445818651412
 20
2956.754200004226
 30
0.0
  0
VERTEX
  5
2316
330
22CA
100
AcDbEntity
  8
1
  6
Continuous
 62
     7
370
    18
100
AcDbVertex
100
AcDb2dVertex
 10
4249.444429651412
 20
2956.332518004227
 30
0.0
  0
VERTEX
  5
2317
330
22CA
100
AcDbEntity
  8
1
  6
Continuous
 62
     7
370
    18
100
AcDbVertex
100
AcDb2dVertex
 10
4249.456931651411
 20
2955.067658004225
 30
0.0
  0
VERTEX
  5
2318
330
22CA
100
AcDbEntity
  8
1
  6
Continuous
 62
     7
370
    18
100
AcDbVertex
100
AcDb2dVertex
 10
4249.479152651411
 20
2954.225043004226
 30
0.0
  0
VERTEX
  5
2319
330
22CA
100
AcDbEntity
  8
1
  6
Continuous
 62
     7
370
    18
100
AcDbVertex
100
AcDb2dVertex
 10
4249.512471651411
 20
2953.383364004227
 30
0.0
  0
VERTEX
  5
231A
330
22CA
100
AcDbEntity
  8
1
  6
Continuous
 62
     7
370
    18
100
AcDbVertex
100
AcDb2dVertex
 10
4249.556873651412
 20
2952.542997004226
 30
0.0
  0
VERTEX
  5
231B
330
22CA
100
AcDbEntity
  8
1
  6
Continuous
 62
     7
370
    18
100
AcDbVertex
100
AcDb2dVertex
 10
4249.612339651412
 20
2951.704314004226
 30
0.0
  0
VERTEX
  5
231C
330
22CA
100
AcDbEntity
  8
1
  6
Continuous
 62
     7
370
    18
100
AcDbVertex
100
AcDb2dVertex
 10
4249.678843651412
 20
2950.867689004227
 30
0.0
  0
VERTEX
  5
231D
330
22CA
100
AcDbEntity
  8
1
  6
Continuous
 62
     7
370
    18
100
AcDbVertex
100
AcDb2dVertex
 10
4249.756357651411
 20
2950.033493004227
 30
0.0
  0
VERTEX
  5
231E
330
22CA
100
AcDbEntity
  8
1
  6
Continuous
 62
     7
370
    18
100
AcDbVertex
100
AcDb2dVertex
 10
4249.844846651411
 20
2949.202097004227
 30
0.0
  0
VERTEX
  5
231F
330
22CA
100
AcDbEntity
  8
1
  6
Continuous
 62
     7
370
    18
100
AcDbVertex
100
AcDb2dVertex
 10
4249.94427065141
 20
2948.373871004225
 30
0.0
  0
VERTEX
  5
2320
330
22CA
100
AcDbEntity
  8
1
  6
Continuous
 62
     7
370
    18
100
AcDbVertex
100
AcDb2dVertex
 10
4250.054586651411
 20
2947.549183004227
 30
0.0
  0
VERTEX
  5
2321
330
22CA
100
AcDbEntity
  8
1
  6
Continuous
 62
     7
370
    18
100
AcDbVertex
100
AcDb2dVertex
 10
4250.175743651412
 20
2946.728399004227
 30
0.0
  0
VERTEX
  5
2322
330
22CA
100
AcDbEntity
  8
1
  6
Continuous
 62
     7
370
    18
100
AcDbVertex
100
AcDb2dVertex
 10
4250.307690651412
 20
2945.911885004227
 30
0.0
  0
VERTEX
  5
2323
330
22CA
100
AcDbEntity
  8
1
  6
Continuous
 62
     7
370
    18
100
AcDbVertex
100
AcDb2dVertex
 10
4250.450365651412
 20
2945.100004004226
 30
0.0
  0
VERTEX
  5
2324
330
22CA
100
AcDbEntity
  8
1
  6
Continuous
 62
     7
370
    18
100
AcDbVertex
100
AcDb2dVertex
 10
4250.603708651412
 20
2944.293115004226
 30
0.0
  0
VERTEX
  5
2325
330
22CA
100
AcDbEntity
  8
1
  6
Continuous
 62
     7
370
    18
100
AcDbVertex
100
AcDb2dVertex
 10
4250.767648651412
 20
2943.491579004227
 30
0.0
  0
VERTEX
  5
2326
330
22CA
100
AcDbEntity
  8
1
  6
Continuous
 62
     7
370
    18
100
AcDbVertex
100
AcDb2dVertex
 10
4250.942114651412
 20
2942.695750004226
 30
0.0
  0
VERTEX
  5
2327
330
22CA
100
AcDbEntity
  8
1
  6
Continuous
 62
     7
370
    18
100
AcDbVertex
100
AcDb2dVertex
 10
4251.127027651412
 20
2941.905984004227
 30
0.0
  0
VERTEX
  5
2328
330
22CA
100
AcDbEntity
  8
1
  6
Continuous
 62
     7
370
    18
100
AcDbVertex
100
AcDb2dVertex
 10
4251.32230665141
 20
2941.122632004226
 30
0.0
  0
VERTEX
  5
2329
330
22CA
100
AcDbEntity
  8
1
  6
Continuous
 62
     7
370
    18
100
AcDbVertex
100
AcDb2dVertex
 10
4251.527864651412
 20
2940.346040004226
 30
0.0
  0
VERTEX
  5
232A
330
22CA
100
AcDbEntity
  8
1
  6
Continuous
 62
     7
370
    18
100
AcDbVertex
100
AcDb2dVertex
 10
4251.743609651412
 20
2939.576555004227
 30
0.0
  0
VERTEX
  5
232B
330
22CA
100
AcDbEntity
  8
1
  6
Continuous
 62
     7
370
    18
100
AcDbVertex
100
AcDb2dVertex
 10
4251.969445651411
 20
2938.814519004227
 30
0.0
  0
VERTEX
  5
232C
330
22CA
100
AcDbEntity
  8
1
  6
Continuous
 62
     7
370
    18
100
AcDbVertex
100
AcDb2dVertex
 10
4252.205273651412
 20
2938.060270004226
 30
0.0
  0
VERTEX
  5
232D
330
22CA
100
AcDbEntity
  8
1
  6
Continuous
 62
     7
370
    18
100
AcDbVertex
100
AcDb2dVertex
 10
4252.45098765141
 20
2937.314144004226
 30
0.0
  0
VERTEX
  5
232E
330
22CA
100
AcDbEntity
  8
1
  6
Continuous
 62
     7
370
    18
100
AcDbVertex
100
AcDb2dVertex
 10
4252.706477651412
 20
2936.576473004226
 30
0.0
  0
VERTEX
  5
232F
330
22CA
100
AcDbEntity
  8
1
  6
Continuous
 62
     7
370
    18
100
AcDbVertex
100
AcDb2dVertex
 10
4252.971631651411
 20
2935.847584004227
 30
0.0
  0
VERTEX
  5
2330
330
22CA
100
AcDbEntity
  8
1
  6
Continuous
 62
     7
370
    18
100
AcDbVertex
100
AcDb2dVertex
 10
4253.246331651411
 20
2935.127801004226
 30
0.0
  0
VERTEX
  5
2331
330
22CA
100
AcDbEntity
  8
1
  6
Continuous
 62
     7
370
    18
100
AcDbVertex
100
AcDb2dVertex
 10
4253.530454651412
 20
2934.417445004227
 30
0.0
  0
VERTEX
  5
2332
330
22CA
100
AcDbEntity
  8
1
  6
Continuous
 62
     7
370
    18
100
AcDbVertex
100
AcDb2dVertex
 10
4253.823874651412
 20
2933.716830004227
 30
0.0
  0
VERTEX
  5
2333
330
22CA
100
AcDbEntity
  8
1
  6
Continuous
 62
     7
370
    18
100
AcDbVertex
100
AcDb2dVertex
 10
4254.126461651411
 20
2933.026270004226
 30
0.0
  0
VERTEX
  5
2334
330
22CA
100
AcDbEntity
  8
1
  6
Continuous
 62
     7
370
    18
100
AcDbVertex
100
AcDb2dVertex
 10
4254.438080651411
 20
2932.346070004227
 30
0.0
  0
VERTEX
  5
2335
330
22CA
100
AcDbEntity
  8
1
  6
Continuous
 62
     7
370
    18
100
AcDbVertex
100
AcDb2dVertex
 10
4254.758592651411
 20
2931.676532004227
 30
0.0
  0
VERTEX
  5
2336
330
22CA
100
AcDbEntity
  8
1
  6
Continuous
 62
     7
370
    18
100
AcDbVertex
100
AcDb2dVertex
 10
4255.087856651411
 20
2931.017956004227
 30
0.0
  0
VERTEX
  5
2337
330
22CA
100
AcDbEntity
  8
1
  6
Continuous
 62
     7
370
    18
100
AcDbVertex
100
AcDb2dVertex
 10
4255.425724651412
 20
2930.370632004226
 30
0.0
  0
VERTEX
  5
2338
330
22CA
100
AcDbEntity
  8
1
  6
Continuous
 62
     7
370
    18
100
AcDbVertex
100
AcDb2dVertex
 10
4255.772047651411
 20
2929.734850004226
 30
0.0
  0
VERTEX
  5
2339
330
22CA
100
AcDbEntity
  8
1
  6
Continuous
 62
     7
370
    18
100
AcDbVertex
100
AcDb2dVertex
 10
4256.126671651411
 20
2929.110892004226
 30
0.0
  0
VERTEX
  5
233A
330
22CA
100
AcDbEntity
  8
1
  6
Continuous
 62
     7
370
    18
100
AcDbVertex
100
AcDb2dVertex
 10
4256.489438651412
 20
2928.499035004227
 30
0.0
  0
VERTEX
  5
233B
330
22CA
100
AcDbEntity
  8
1
  6
Continuous
 62
     7
370
    18
100
AcDbVertex
100
AcDb2dVertex
 10
4256.860186651411
 20
2927.899550004226
 30
0.0
  0
VERTEX
  5
233C
330
22CA
100
AcDbEntity
  8
1
  6
Continuous
 62
     7
370
    18
100
AcDbVertex
100
AcDb2dVertex
 10
4257.238751651412
 20
2927.312706004226
 30
0.0
  0
VERTEX
  5
233D
330
22CA
100
AcDbEntity
  8
1
  6
Continuous
 62
     7
370
    18
100
AcDbVertex
100
AcDb2dVertex
 10
4257.624965651412
 20
2926.738762004227
 30
0.0
  0
VERTEX
  5
233E
330
22CA
100
AcDbEntity
  8
1
  6
Continuous
 62
     7
370
    18
100
AcDbVertex
100
AcDb2dVertex
 10
4258.018656651411
 20
2926.177973004226
 30
0.0
  0
VERTEX
  5
233F
330
22CA
100
AcDbEntity
  8
1
  6
Continuous
 62
     7
370
    18
100
AcDbVertex
100
AcDb2dVertex
 10
4258.419649651412
 20
2925.630589004226
 30
0.0
  0
VERTEX
  5
2340
330
22CA
100
AcDbEntity
  8
1
  6
Continuous
 62
     7
370
    18
100
AcDbVertex
100
AcDb2dVertex
 10
4258.82776565141
 20
2925.096854004227
 30
0.0
  0
VERTEX
  5
2341
330
22CA
100
AcDbEntity
  8
1
  6
Continuous
 62
     7
370
    18
100
AcDbVertex
100
AcDb2dVertex
 10
4259.242824651411
 20
2924.577004004227
 30
0.0
  0
VERTEX
  5
2342
330
22CA
100
AcDbEntity
  8
1
  6
Continuous
 62
     7
370
    18
100
AcDbVertex
100
AcDb2dVertex
 10
4259.664640651411
 20
2924.071271004227
 30
0.0
  0
VERTEX
  5
2343
330
22CA
100
AcDbEntity
  8
1
  6
Continuous
 62
     7
370
    18
100
AcDbVertex
100
AcDb2dVertex
 10
4260.093027651412
 20
2923.579879004226
 30
0.0
  0
VERTEX
  5
2344
330
22CA
100
AcDbEntity
  8
1
  6
Continuous
 62
     7
370
    18
100
AcDbVertex
100
AcDb2dVertex
 10
4260.527793651411
 20
2923.103047004226
 30
0.0
  0
VERTEX
  5
2345
330
22CA
100
AcDbEntity
  8
1
  6
Continuous
 62
     7
370
    18
100
AcDbVertex
100
AcDb2dVertex
 10
4260.968746651411
 20
2922.640987004226
 30
0.0
  0
VERTEX
  5
2346
330
22CA
100
AcDbEntity
  8
1
  6
Continuous
 62
     7
370
    18
100
AcDbVertex
100
AcDb2dVertex
 10
4261.415689651412
 20
2922.193904004226
 30
0.0
  0
VERTEX
  5
2347
330
22CA
100
AcDbEntity
  8
1
  6
Continuous
 62
     7
370
    18
100
AcDbVertex
100
AcDb2dVertex
 10
4261.868424651411
 20
2921.761997004227
 30
0.0
  0
VERTEX
  5
2348
330
22CA
100
AcDbEntity
  8
1
  6
Continuous
 62
     7
370
    18
100
AcDbVertex
100
AcDb2dVertex
 10
4262.326750651411
 20
2921.345458004225
 30
0.0
  0
VERTEX
  5
2349
330
22CA
100
AcDbEntity
  8
1
  6
Continuous
 62
     7
370
    18
100
AcDbVertex
100
AcDb2dVertex
 10
4262.790462651412
 20
2920.944473004227
 30
0.0
  0
VERTEX
  5
234A
330
22CA
100
AcDbEntity
  8
1
  6
Continuous
 62
     7
370
    18
100
AcDbVertex
100
AcDb2dVertex
 10
4263.259355651411
 20
2920.559218004226
 30
0.0
  0
VERTEX
  5
234B
330
22CA
100
AcDbEntity
  8
1
  6
Continuous
 62
     7
370
    18
100
AcDbVertex
100
AcDb2dVertex
 10
4263.733221651412
 20
2920.189867004227
 30
0.0
  0
VERTEX
  5
234C
330
22CA
100
AcDbEntity
  8
1
  6
Continuous
 62
     7
370
    18
100
AcDbVertex
100
AcDb2dVertex
 10
4264.211848651412
 20
2919.836582004226
 30
0.0
  0
VERTEX
  5
234D
330
22CA
100
AcDbEntity
  8
1
  6
Continuous
 62
     7
370
    18
100
AcDbVertex
100
AcDb2dVertex
 10
4264.695023651412
 20
2919.499521004226
 30
0.0
  0
VERTEX
  5
234E
330
22CA
100
AcDbEntity
  8
1
  6
Continuous
 62
     7
370
    18
100
AcDbVertex
100
AcDb2dVertex
 10
4265.182533651412
 20
2919.178834004226
 30
0.0
  0
VERTEX
  5
234F
330
22CA
100
AcDbEntity
  8
1
  6
Continuous
 62
     7
370
    18
100
AcDbVertex
100
AcDb2dVertex
 10
4265.674160651411
 20
2918.874663004226
 30
0.0
  0
VERTEX
  5
2350
330
22CA
100
AcDbEntity
  8
1
  6
Continuous
 62
     7
370
    18
100
AcDbVertex
100
AcDb2dVertex
 10
4266.169686651411
 20
2918.587144004227
 30
0.0
  0
VERTEX
  5
2351
330
22CA
100
AcDbEntity
  8
1
  6
Continuous
 62
     7
370
    18
100
AcDbVertex
100
AcDb2dVertex
 10
4266.668890651412
 20
2918.316404004227
 30
0.0
  0
VERTEX
  5
2352
330
22CA
100
AcDbEntity
  8
1
  6
Continuous
 62
     7
370
    18
100
AcDbVertex
100
AcDb2dVertex
 10
4267.171551651412
 20
2918.062564004225
 30
0.0
  0
VERTEX
  5
2353
330
22CA
100
AcDbEntity
  8
1
  6
Continuous
 62
     7
370
    18
100
AcDbVertex
100
AcDb2dVertex
 10
4267.677444651411
 20
2917.825736004227
 30
0.0
  0
VERTEX
  5
2354
330
22CA
100
AcDbEntity
  8
1
  6
Continuous
 62
     7
370
    18
100
AcDbVertex
100
AcDb2dVertex
 10
4268.186346651411
 20
2917.606026004227
 30
0.0
  0
VERTEX
  5
2355
330
22CA
100
AcDbEntity
  8
1
  6
Continuous
 62
     7
370
    18
100
AcDbVertex
100
AcDb2dVertex
 10
4268.698030651412
 20
2917.403531004226
 30
0.0
  0
VERTEX
  5
2356
330
22CA
100
AcDbEntity
  8
1
  6
Continuous
 62
     7
370
    18
100
AcDbVertex
100
AcDb2dVertex
 10
4269.212269651412
 20
2917.218343004226
 30
0.0
  0
VERTEX
  5
2357
330
22CA
100
AcDbEntity
  8
1
  6
Continuous
 62
     7
370
    18
100
AcDbVertex
100
AcDb2dVertex
 10
4269.728833651412
 20
2917.050541004226
 30
0.0
  0
VERTEX
  5
2358
330
22CA
100
AcDbEntity
  8
1
  6
Continuous
 62
     7
370
    18
100
AcDbVertex
100
AcDb2dVertex
 10
4270.247494651412
 20
2916.900203004227
 30
0.0
  0
VERTEX
  5
2359
330
22CA
100
AcDbEntity
  8
1
  6
Continuous
 62
     7
370
    18
100
AcDbVertex
100
AcDb2dVertex
 10
4270.768020651412
 20
2916.767393004226
 30
0.0
  0
VERTEX
  5
235A
330
22CA
100
AcDbEntity
  8
1
  6
Continuous
 62
     7
370
    18
100
AcDbVertex
100
AcDb2dVertex
 10
4271.290181651411
 20
2916.652172004225
 30
0.0
  0
VERTEX
  5
235B
330
22CA
100
AcDbEntity
  8
1
  6
Continuous
 62
     7
370
    18
100
AcDbVertex
100
AcDb2dVertex
 10
4271.813744651412
 20
2916.554591004226
 30
0.0
  0
VERTEX
  5
235C
330
22CA
100
AcDbEntity
  8
1
  6
Continuous
 62
     7
370
    18
100
AcDbVertex
100
AcDb2dVertex
 10
4272.338476651412
 20
2916.474692004225
 30
0.0
  0
VERTEX
  5
235D
330
22CA
100
AcDbEntity
  8
1
  6
Continuous
 62
     7
370
    18
100
AcDbVertex
100
AcDb2dVertex
 10
4272.864145651412
 20
2916.412512004227
 30
0.0
  0
VERTEX
  5
235E
330
22CA
100
AcDbEntity
  8
1
  6
Continuous
 62
     7
370
    18
100
AcDbVertex
100
AcDb2dVertex
 10
4273.390516651413
 20
2916.368077004227
 30
0.0
  0
VERTEX
  5
235F
330
22CA
100
AcDbEntity
  8
1
  6
Continuous
 62
     7
370
    18
100
AcDbVertex
100
AcDb2dVertex
 10
4273.917355651412
 20
2916.341409004227
 30
0.0
  0
VERTEX
  5
2360
330
22CA
100
AcDbEntity
  8
1
  6
Continuous
 62
     7
370
    18
100
AcDbVertex
100
AcDb2dVertex
 10
4274.444429651413
 20
2916.332518004227
 30
0.0
  0
SEQEND
  5
2361
330
22CA
100
AcDbEntity
  8
1
  6
Continuous
 62
     7
370
    18
  0
LINE
  5
2362
330
A
100
AcDbEntity
  8
1
  6
DOT
 62
     7
370
    18
100
AcDbLine
 10
2308.299194462241
 20
2446.112948969167
 30
0.0
 11
2320.745634472842
 21
2216.332518004227
 31
0.0
  0
LINE
  5
2363
330
A
100
AcDbEntity
  8
1
  6
DOT
 62
     7
370
    18
100
AcDbLine
 10
2195.64081449117
 20
2343.628149111804
 30
0.0
 11
2188.74563446004
 21
2216.332518004227
 31
0.0
  0
LINE
  5
2364
330
A
100
AcDbEntity
  8
1
  6
Continuous
 62
     7
370
    18
100
AcDbLine
 10
2308.299194462241
 20
2446.112948969167
 30
0.0
 11
2466.412301139506
 21
2296.332518004227
 31
0.0
  0
ARC
  5
2365
330
A
100
AcDbEntity
  8
1
  6
Continuous
 62
     7
370
    18
100
AcDbCircle
 10
2145.71400416952
 20
2346.332518004226
 30
0.0
 40
50.0
100
AcDbArc
 50
-89.99999999999991
 51
-3.100491449809427
  0
LINE
  5
2366
330
A
100
AcDbEntity
  8
1
  6
Continuous
 62
     7
370
    18
100
AcDbLine
 10
1894.745634472841
 20
2296.332518004227
 30
0.0
 11
2145.71400416952
 21
2296.332518004227
 31
0.0
  0
LINE
  5
2367
330
A
100
AcDbEntity
  8
1
  6
Continuous
 62
     7
370
    18
100
AcDbLine
 10
1904.745634472842
 20
2696.332518004227
 30
0.0
 11
1894.745634472841
 21
2686.332518004227
 31
0.0
  0
LINE
  5
2368
330
A
100
AcDbEntity
  8
1
  6
Continuous
 62
     7
370
    18
100
AcDbLine
 10
1894.745634472841
 20
2216.332518004227
 30
0.0
 11
1894.745634472841
 21
2686.332518004227
 31
0.0
  0
LINE
  5
2369
330
A
100
AcDbEntity
  8
1
  6
Continuous
 62
     7
370
    18
100
AcDbLine
 10
2294.745634472842
 20
2696.332518004227
 30
0.0
 11
1904.745634472842
 21
2696.332518004227
 31
0.0
  0
LINE
  5
236A
330
A
100
AcDbEntity
  8
1
  6
Continuous
 62
     7
370
    18
100
AcDbLine
 10
1894.745634472841
 20
2686.332518004227
 30
0.0
 11
2214.325392240851
 21
2686.332518004227
 31
0.0
  0
LINE
  5
236B
330
A
100
AcDbEntity
  8
1
  6
Continuous
 62
     7
370
    18
100
AcDbLine
 10
2306.119448377511
 20
2486.332517666373
 30
0.0
 11
2683.18730116621
 21
2486.332517666373
 31
0.0
  0
LINE
  5
236C
330
A
100
AcDbEntity
  8
1
  6
Continuous
 62
     7
370
    18
100
AcDbLine
 10
4260.093012076942
 20
2923.332518004227
 30
0.0
 11
6238.36107896026
 21
2923.332518004227
 31
0.0
  0
LINE
  5
236D
330
A
100
AcDbEntity
  8
1
  6
Continuous
 62
     7
370
    18
100
AcDbLine
 10
4260.527753078451
 20
2989.332518004227
 30
0.0
 11
4909.444429651411
 21
2989.332518004227
 31
0.0
  0
ARC
  5
236E
330
A
100
AcDbEntity
  8
1
  6
Continuous
 62
     7
370
    18
100
AcDbCircle
 10
5079.444429651412
 20
3286.332518004227
 30
0.0
 40
23.0
100
AcDbArc
 50
89.99999999999991
 51
179.9999999999998
  0
LINE
  5
236F
330
A
100
AcDbEntity
  8
1
  6
Continuous
 62
     7
370
    18
100
AcDbLine
 10
5079.444429651412
 20
3309.332518004227
 30
0.0
 11
5419.444429651412
 21
3309.332518004227
 31
0.0
  0
ARC
  5
2370
330
A
100
AcDbEntity
  8
1
  6
Continuous
 62
     7
370
    18
100
AcDbCircle
 10
5419.444429651412
 20
3286.332518004227
 30
0.0
 40
23.0
100
AcDbArc
 50
0.0
 51
89.99999999999991
  0
LINE
  5
2371
330
A
100
AcDbEntity
  8
1
  6
Continuous
 62
     7
370
    18
100
AcDbLine
 10
5442.444429651413
 20
3286.332518004227
 30
0.0
 11
5442.444429651413
 21
3136.332518004227
 31
0.0
  0
ARC
  5
2372
330
A
100
AcDbEntity
  8
1
  6
Continuous
 62
     7
370
    18
100
AcDbCircle
 10
5589.444429651412
 20
3136.332518004227
 30
0.0
 40
147.0
100
AcDbArc
 50
179.9999999999998
 51
-89.99999999999991
  0
LINE
  5
2373
330
A
100
AcDbEntity
  8
1
  6
Continuous
 62
     7
370
    18
100
AcDbLine
 10
5056.444429651413
 20
3286.332518004227
 30
0.0
 11
5056.444429651413
 21
3136.332518004227
 31
0.0
  0
ARC
  5
2374
330
A
100
AcDbEntity
  8
1
  6
Continuous
 62
     7
370
    18
100
AcDbCircle
 10
4909.444429651411
 20
3136.332518004227
 30
0.0
 40
147.0
100
AcDbArc
 50
-89.99999999999991
 51
0.0
  0
LINE
  5
2375
330
A
100
AcDbEntity
  8
1
  6
Continuous
 62
     7
370
    18
100
AcDbLine
 10
5589.444429651412
 20
2989.332518004227
 30
0.0
 11
6238.361106224373
 21
2989.332518004227
 31
0.0
  0
LINE
  5
2376
330
A
100
AcDbEntity
  8
1
  6
Continuous
 62
     7
370
    18
100
AcDbLine
 10
4429.444144322084
 20
2908.332518004227
 30
0.0
 11
6048.444429651412
 21
2908.332518004227
 31
0.0
  0
LINE
  5
2377
330
A
100
AcDbEntity
  8
1
  6
Continuous
 62
     7
370
    18
100
AcDbLine
 10
4449.44442965141
 20
2525.332518004227
 30
0.0
 11
4449.44442965141
 21
2908.332518004227
 31
0.0
  0
LINE
  5
2378
330
A
100
AcDbEntity
  8
1
  6
Continuous
 62
     7
370
    18
100
AcDbLine
 10
4459.44442965141
 20
2825.826589592938
 30
0.0
 11
4459.44442965141
 21
2521.67906323615
 31
0.0
  0
LINE
  5
2379
330
A
100
AcDbEntity
  8
1
  6
Continuous
 62
     7
370
    18
100
AcDbLine
 10
6038.444429651412
 20
2826.479715903433
 30
0.0
 11
6038.444429651412
 21
2521.67906323615
 31
0.0
  0
LINE
  5
237A
330
A
100
AcDbEntity
  8
1
  6
Continuous
 62
     7
370
    18
100
AcDbLine
 10
6048.444429651412
 20
2525.332518004227
 30
0.0
 11
6048.444429651412
 21
2916.334542118135
 31
0.0
  0
LINE
  5
237B
330
A
100
AcDbEntity
  8
1
  6
Continuous
 62
     7
370
    18
100
AcDbLine
 10
5589.444429651412
 20
3016.332518004227
 30
0.0
 11
6222.881929651412
 21
3016.332518004227
 31
0.0
  0
ENDSEC
  0
SECTION
  2
OBJECTS
  0
DICTIONARY
  5
19
330
0
100
AcDbDictionary
281
     1
  3
ACAD_COLOR
350
2569
  3
ACAD_GROUP
350
1A
  3
ACAD_LAYOUT
350
1E
  3
ACAD_MATERIAL
350
2568
  3
ACAD_MLINESTYLE
350
1B
  3
ACAD_PLOTSETTINGS
350
22
  3
ACAD_PLOTSTYLENAME
350
1F
  3
ACAD_WIPEOUT_VARS
350
23
  3
ACDBHEADERROUNDTRIPXREC
350
2574
  3
AcDbVariableDictionary
350
2570
  0
DICTIONARY
  5
2569
102
{ACAD_REACTORS
330
19
102
}
330
19
100
AcDbDictionary
281
     1
  0
DICTIONARY
  5
1A
102
{ACAD_REACTORS
330
19
102
}
330
19
100
AcDbDictionary
281
     1
  0
DICTIONARY
  5
1E
102
{ACAD_REACTORS
330
19
102
}
330
19
100
AcDbDictionary
281
     1
  3
Layout1
350
21
  3
Model
350
20
  0
DICTIONARY
  5
2568
102
{ACAD_REACTORS
330
19
102
}
330
19
100
AcDbDictionary
281
     1
  0
DICTIONARY
  5
1B
102
{ACAD_REACTORS
330
19
102
}
330
19
100
AcDbDictionary
281
     1
  3
Standard
350
1C
  0
DICTIONARY
  5
22
102
{ACAD_REACTORS
330
19
102
}
330
19
100
AcDbDictionary
281
     1
  0
ACDBDICTIONARYWDFLT
  5
1F
102
{ACAD_REACTORS
330
19
102
}
330
19
100
AcDbDictionary
281
     1
  3
Normal
350
1D
100
AcDbDictionaryWithDefault
340
1D
  0
WIPEOUTVARIABLES
  5
23
330
19
100
AcDbWipeoutVariables
 70
     1
  0
DICTIONARY
  5
2574
102
{ACAD_REACTORS
330
19
102
}
330
19
100
AcDbDictionary
281
     1
  0
DICTIONARY
  5
2570
102
{ACAD_REACTORS
330
19
102
}
330
19
100
AcDbDictionary
281
     1
  3
DIMASSOC
350
2571
  3
PROJECTNAME
350
2572
  0
LAYOUT
  5
21
102
{ACAD_XDICTIONARY
360
2577
102
}
102
{ACAD_REACTORS
330
1E
102
}
330
1E
100
AcDbPlotSettings
  1

  2

  4

  6

 40
0.0
 41
0.0
 42
0.0
 43
0.0
 44
0.0
 45
0.0
 46
0.0
 47
0.0
 48
0.0
 49
0.0
140
0.0
141
0.0
142
1.0
143
1.0
 70
     0
 72
     0
 73
     0
 74
     0
  7

 75
     0
147
1.0
148
0.0
149
0.0
100
AcDbLayout
  1
Layout1
 70
     0
 71
     1
 10
0.0
 20
0.0
 11
420.0
 21
297.0
 12
0.0
 22
0.0
 32
0.0
 14
0.0
 24
0.0
 34
0.0
 15
420.0
 25
297.0
 35
0.0
146
0.0
 13
0.0
 23
0.0
 33
0.0
 16
1.0
 26
0.0
 36
0.0
 17
0.0
 27
1.0
 37
0.0
 76
     0
330
B
  0
LAYOUT
  5
20
102
{ACAD_XDICTIONARY
360
2575
102
}
102
{ACAD_REACTORS
330
1E
102
}
330
1E
100
AcDbPlotSettings
  1

  2

  4

  6

 40
0.0
 41
0.0
 42
0.0
 43
0.0
 44
0.0
 45
0.0
 46
0.0
 47
0.0
 48
0.0
 49
0.0
140
0.0
141
0.0
142
1.0
143
1.0
 70
  1024
 72
     0
 73
     0
 74
     0
  7

 75
     0
147
1.0
148
0.0
149
0.0
100
AcDbLayout
  1
Model
 70
     0
 71
     0
 10
0.0
 20
0.0
 11
0.0
 21
0.0
 12
0.0
 22
0.0
 32
0.0
 14
0.0
 24
0.0
 34
0.0
 15
0.0
 25
0.0
 35
0.0
146
0.0
 13
0.0
 23
0.0
 33
0.0
 16
0.0
 26
0.0
 36
0.0
 17
0.0
 27
0.0
 37
0.0
 76
     0
330
A
  0
MLINESTYLE
  5
1C
102
{ACAD_REACTORS
330
1B
102
}
330
1B
100
AcDbMlineStyle
  2
STANDARD
 70
     0
  3

 62
     0
 51
90.0
 52
90.0
 71
     2
 49
0.5
 62
   256
  6
BYLAYER
 49
-0.5
 62
   256
  6
BYLAYER
  0
ACDBPLACEHOLDER
  5
1D
102
{ACAD_REACTORS
330
1F
102
}
330
1F
  0
DICTIONARYVAR
  5
2571
102
{ACAD_REACTORS
330
2570
102
}
330
2570
100
DictionaryVariables
280
     0
  1
1
  0
DICTIONARYVAR
  5
2572
102
{ACAD_REACTORS
330
2570
102
}
330
2570
100
DictionaryVariables
280
     0
  1

  0
DICTIONARY
  5
2577
330
21
100
AcDbDictionary
280
     1
281
     1
  3
ACAD_XREC_ROUNDTRIP
360
2578
  0
DICTIONARY
  5
2575
330
20
100
AcDbDictionary
280
     1
281
     1
  3
ACAD_XREC_ROUNDTRIP
360
2576
  0
XRECORD
  5
2578
102
{ACAD_REACTORS
330
2577
102
}
330
2577
100
AcDbXrecord
280
     1
102
SHADEPLOT
 70
     0
102
SHADEPLOTRESLEVEL
 70
     2
102
SHADEPLOTCUSTOMDPI
 70
   300
  0
XRECORD
  5
2576
102
{ACAD_REACTORS
330
2575
102
}
330
2575
100
AcDbXrecord
280
     1
102
SHADEPLOT
 70
     0
102
SHADEPLOTRESLEVEL
 70
     2
102
SHADEPLOTCUSTOMDPI
 70
   300
  0
ENDSEC
  0
EOF
