  0
SECTION
  2
HEADER
  9
$ACADVER
  1
AC1015
  9
$ACADMAINTVER
 70
    20
  9
$DWGCODEPAGE
  3
ANSI_932
  9
$INSBASE
 10
0.0
 20
0.0
 30
0.0
  9
$EXTMIN
 10
-0.2033736916910129
 20
-0.0701306745195325
 30
-0.0015258207003583
  9
$EXTMAX
 10
6650.115281639545
 20
2298.287421433341
 30
0.0000000349246037
  9
$LIMMIN
 10
0.0
 20
0.0
  9
$LIMMAX
 10
420.0
 20
297.0
  9
$ORTHOMODE
 70
     0
  9
$REGENMODE
 70
     1
  9
$FILLMODE
 70
     1
  9
$QTEXTMODE
 70
     0
  9
$MIRRTEXT
 70
     0
  9
$LTSCALE
 40
1.0
  9
$ATTMODE
 70
     1
  9
$TEXTSIZE
 40
2.5
  9
$TRACEWID
 40
1.0
  9
$TEXTSTYLE
  7
Standard
  9
$CLAYER
  8
0
  9
$CELTYPE
  6
ByLayer
  9
$CECOLOR
 62
   256
  9
$CELTSCALE
 40
1.0
  9
$DISPSILH
 70
     0
  9
$DIMSCALE
 40
1.0
  9
$DIMASZ
 40
2.5
  9
$DIMEXO
 40
0.625
  9
$DIMDLI
 40
3.75
  9
$DIMRND
 40
0.0
  9
$DIMDLE
 40
0.0
  9
$DIMEXE
 40
1.25
  9
$DIMTP
 40
0.0
  9
$DIMTM
 40
0.0
  9
$DIMTXT
 40
2.5
  9
$DIMCEN
 40
2.5
  9
$DIMTSZ
 40
0.0
  9
$DIMTOL
 70
     0
  9
$DIMLIM
 70
     0
  9
$DIMTIH
 70
     0
  9
$DIMTOH
 70
     0
  9
$DIMSE1
 70
     0
  9
$DIMSE2
 70
     0
  9
$DIMTAD
 70
     1
  9
$DIMZIN
 70
     8
  9
$DIMBLK
  1

  9
$DIMASO
 70
     1
  9
$DIMSHO
 70
     1
  9
$DIMPOST
  1

  9
$DIMAPOST
  1

  9
$DIMALT
 70
     0
  9
$DIMALTD
 70
     3
  9
$DIMALTF
 40
0.03937007874016
  9
$DIMLFAC
 40
1.0
  9
$DIMTOFL
 70
     1
  9
$DIMTVP
 40
0.0
  9
$DIMTIX
 70
     0
  9
$DIMSOXD
 70
     0
  9
$DIMSAH
 70
     0
  9
$DIMBLK1
  1

  9
$DIMBLK2
  1

  9
$DIMSTYLE
  2
ISO-25
  9
$DIMCLRD
 70
     0
  9
$DIMCLRE
 70
     0
  9
$DIMCLRT
 70
     0
  9
$DIMTFAC
 40
1.0
  9
$DIMGAP
 40
0.625
  9
$DIMJUST
 70
     0
  9
$DIMSD1
 70
     0
  9
$DIMSD2
 70
     0
  9
$DIMTOLJ
 70
     0
  9
$DIMTZIN
 70
     8
  9
$DIMALTZ
 70
     0
  9
$DIMALTTZ
 70
     0
  9
$DIMUPT
 70
     0
  9
$DIMDEC
 70
     2
  9
$DIMTDEC
 70
     2
  9
$DIMALTU
 70
     2
  9
$DIMALTTD
 70
     3
  9
$DIMTXSTY
  7
Standard
  9
$DIMAUNIT
 70
     0
  9
$DIMADEC
 70
     0
  9
$DIMALTRND
 40
0.0
  9
$DIMAZIN
 70
     0
  9
$DIMDSEP
 70
    46
  9
$DIMATFIT
 70
     3
  9
$DIMFRAC
 70
     0
  9
$DIMLDRBLK
  1

  9
$DIMLUNIT
 70
     2
  9
$DIMLWD
 70
    -2
  9
$DIMLWE
 70
    -2
  9
$DIMTMOVE
 70
     0
  9
$LUNITS
 70
     2
  9
$LUPREC
 70
     4
  9
$SKETCHINC
 40
1.0
  9
$FILLETRAD
 40
0.0
  9
$AUNITS
 70
     0
  9
$AUPREC
 70
     0
  9
$MENU
  1
.
  9
$ELEVATION
 40
0.0
  9
$PELEVATION
 40
0.0
  9
$THICKNESS
 40
0.0
  9
$LIMCHECK
 70
     0
  9
$CHAMFERA
 40
0.0
  9
$CHAMFERB
 40
0.0
  9
$CHAMFERC
 40
0.0
  9
$CHAMFERD
 40
0.0
  9
$SKPOLY
 70
     0
  9
$TDCREATE
 40
2457844.546102929
  9
$TDUCREATE
 40
2457844.171102928
  9
$TDUPDATE
 40
2457845.419769248
  9
$TDUUPDATE
 40
2457845.044769248
  9
$TDINDWG
 40
0.0009834954
  9
$TDUSRTIMER
 40
0.0009834954
  9
$USRTIMER
 70
     1
  9
$ANGBASE
 50
0.0
  9
$ANGDIR
 70
     0
  9
$PDMODE
 70
     0
  9
$PDSIZE
 40
0.0
  9
$PLINEWID
 40
0.0
  9
$SPLFRAME
 70
     0
  9
$SPLINETYPE
 70
     6
  9
$SPLINESEGS
 70
     8
  9
$HANDSEED
  5
612
  9
$SURFTAB1
 70
     6
  9
$SURFTAB2
 70
     6
  9
$SURFTYPE
 70
     6
  9
$SURFU
 70
     6
  9
$SURFV
 70
     6
  9
$UCSBASE
  2

  9
$UCSNAME
  2

  9
$UCSORG
 10
0.0
 20
0.0
 30
0.0
  9
$UCSXDIR
 10
1.0
 20
0.0
 30
0.0
  9
$UCSYDIR
 10
0.0
 20
1.0
 30
0.0
  9
$UCSORTHOREF
  2

  9
$UCSORTHOVIEW
 70
     0
  9
$UCSORGTOP
 10
0.0
 20
0.0
 30
0.0
  9
$UCSORGBOTTOM
 10
0.0
 20
0.0
 30
0.0
  9
$UCSORGLEFT
 10
0.0
 20
0.0
 30
0.0
  9
$UCSORGRIGHT
 10
0.0
 20
0.0
 30
0.0
  9
$UCSORGFRONT
 10
0.0
 20
0.0
 30
0.0
  9
$UCSORGBACK
 10
0.0
 20
0.0
 30
0.0
  9
$PUCSBASE
  2

  9
$PUCSNAME
  2

  9
$PUCSORG
 10
0.0
 20
0.0
 30
0.0
  9
$PUCSXDIR
 10
1.0
 20
0.0
 30
0.0
  9
$PUCSYDIR
 10
0.0
 20
1.0
 30
0.0
  9
$PUCSORTHOREF
  2

  9
$PUCSORTHOVIEW
 70
     0
  9
$PUCSORGTOP
 10
0.0
 20
0.0
 30
0.0
  9
$PUCSORGBOTTOM
 10
0.0
 20
0.0
 30
0.0
  9
$PUCSORGLEFT
 10
0.0
 20
0.0
 30
0.0
  9
$PUCSORGRIGHT
 10
0.0
 20
0.0
 30
0.0
  9
$PUCSORGFRONT
 10
0.0
 20
0.0
 30
0.0
  9
$PUCSORGBACK
 10
0.0
 20
0.0
 30
0.0
  9
$USERI1
 70
     0
  9
$USERI2
 70
     0
  9
$USERI3
 70
     0
  9
$USERI4
 70
     0
  9
$USERI5
 70
     0
  9
$USERR1
 40
0.0
  9
$USERR2
 40
0.0
  9
$USERR3
 40
0.0
  9
$USERR4
 40
0.0
  9
$USERR5
 40
0.0
  9
$WORLDVIEW
 70
     1
  9
$SHADEDGE
 70
     3
  9
$SHADEDIF
 70
    70
  9
$TILEMODE
 70
     1
  9
$MAXACTVP
 70
    64
  9
$PINSBASE
 10
0.0
 20
0.0
 30
0.0
  9
$PLIMCHECK
 70
     0
  9
$PEXTMIN
 10
1.000000000000000E+20
 20
1.000000000000000E+20
 30
1.000000000000000E+20
  9
$PEXTMAX
 10
-1.000000000000000E+20
 20
-1.000000000000000E+20
 30
-1.000000000000000E+20
  9
$PLIMMIN
 10
0.0
 20
0.0
  9
$PLIMMAX
 10
420.0
 20
297.0
  9
$UNITMODE
 70
     0
  9
$VISRETAIN
 70
     1
  9
$PLINEGEN
 70
     0
  9
$PSLTSCALE
 70
     1
  9
$TREEDEPTH
 70
  3020
  9
$CMLSTYLE
  2
Standard
  9
$CMLJUST
 70
     0
  9
$CMLSCALE
 40
20.0
  9
$PROXYGRAPHICS
 70
     1
  9
$MEASUREMENT
 70
     1
  9
$CELWEIGHT
370
    -1
  9
$ENDCAPS
280
     0
  9
$JOINSTYLE
280
     0
  9
$LWDISPLAY
290
     0
  9
$INSUNITS
 70
     4
  9
$HYPERLINKBASE
  1

  9
$STYLESHEET
  1

  9
$XEDIT
290
     1
  9
$CEPSNTYPE
380
     0
  9
$PSTYLEMODE
290
     1
  9
$FINGERPRINTGUID
  2
{4F9E27E6-AC4F-438C-9DE4-9F65CECFAF86}
  9
$VERSIONGUID
  2
{62A9742B-7226-4107-BA2F-2B0214418B72}
  9
$EXTNAMES
290
     1
  9
$PSVPSCALE
 40
0.0
  9
$OLESTARTUP
290
     0
  0
ENDSEC
  0
SECTION
  2
CLASSES
  0
CLASS
  1
ACDBDICTIONARYWDFLT
  2
AcDbDictionaryWithDefault
  3
ObjectDBX Classes
 90
        0
280
     0
281
     0
  0
CLASS
  1
DICTIONARYVAR
  2
AcDbDictionaryVar
  3
ObjectDBX Classes
 90
        0
280
     0
281
     0
  0
CLASS
  1
ACDBPLACEHOLDER
  2
AcDbPlaceHolder
  3
ObjectDBX Classes
 90
        0
280
     0
281
     0
  0
CLASS
  1
LAYOUT
  2
AcDbLayout
  3
ObjectDBX Classes
 90
        0
280
     0
281
     0
  0
ENDSEC
  0
SECTION
  2
TABLES
  0
TABLE
  2
VPORT
  5
8
330
0
100
AcDbSymbolTable
 70
     2
  0
VPORT
  5
608
330
8
100
AcDbSymbolTableRecord
100
AcDbViewportTableRecord
  2
*Active
 70
     0
 10
0.0
 20
0.0
 11
1.0
 21
1.0
 12
3324.955953973927
 22
1149.108645379411
 13
0.0
 23
0.0
 14
10.0
 24
10.0
 15
10.0
 25
10.0
 16
0.0
 26
0.0
 36
1.0
 17
0.0
 27
0.0
 37
0.0
 40
4138.596131673621
 41
1.615068493150684
 42
50.0
 43
0.0
 44
0.0
 50
0.0
 51
0.0
 71
     0
 72
  1000
 73
     1
 74
     3
 75
     0
 76
     0
 77
     0
 78
     0
281
     0
 65
     1
110
0.0
120
0.0
130
0.0
111
1.0
121
0.0
131
0.0
112
0.0
122
1.0
132
0.0
 79
     0
146
0.0
  0
ENDTAB
  0
TABLE
  2
LTYPE
  5
5
330
0
100
AcDbSymbolTable
 70
     1
  0
LTYPE
  5
14
330
5
100
AcDbSymbolTableRecord
100
AcDbLinetypeTableRecord
  2
ByBlock
 70
     0
  3

 72
    65
 73
     0
 40
0.0
  0
LTYPE
  5
15
330
5
100
AcDbSymbolTableRecord
100
AcDbLinetypeTableRecord
  2
ByLayer
 70
     0
  3

 72
    65
 73
     0
 40
0.0
  0
LTYPE
  5
16
330
5
100
AcDbSymbolTableRecord
100
AcDbLinetypeTableRecord
  2
Continuous
 70
     0
  3
Solid line
 72
    65
 73
     0
 40
0.0
  0
ENDTAB
  0
TABLE
  2
LAYER
  5
2
330
0
100
AcDbSymbolTable
 70
     5
  0
LAYER
  5
10
330
2
100
AcDbSymbolTableRecord
100
AcDbLayerTableRecord
  2
0
 70
     0
 62
     7
  6
Continuous
370
    -3
390
F
  0
LAYER
  5
1E7
330
2
100
AcDbSymbolTableRecord
100
AcDbLayerTableRecord
  2
1
 70
     0
 62
     7
  6
Continuous
370
    -3
390
F
  0
LAYER
  5
1E8
330
2
100
AcDbSymbolTableRecord
100
AcDbLayerTableRecord
  2
DEFPOINTS
 70
     0
 62
     7
  6
Continuous
290
     0
370
    -3
390
F
  0
LAYER
  5
1E9
330
2
100
AcDbSymbolTableRecord
100
AcDbLayerTableRecord
  2
sunpo
 70
     0
 62
     7
  6
Continuous
370
    -3
390
F
  0
LAYER
  5
1EA
330
2
100
AcDbSymbolTableRecord
100
AcDbLayerTableRecord
  2
seihin
 70
     0
 62
     1
  6
Continuous
370
    -3
390
F
  0
ENDTAB
  0
TABLE
  2
STYLE
  5
3
330
0
100
AcDbSymbolTable
 70
     1
  0
STYLE
  5
11
330
3
100
AcDbSymbolTableRecord
100
AcDbTextStyleTableRecord
  2
Standard
 70
     0
 40
0.0
 41
1.0
 50
0.0
 71
     0
 42
2.5
  3

  4

1001
ACAD
1000
MS Gothic
1071
    32817
  0
ENDTAB
  0
TABLE
  2
VIEW
  5
6
330
0
100
AcDbSymbolTable
 70
     0
  0
ENDTAB
  0
TABLE
  2
UCS
  5
7
330
0
100
AcDbSymbolTable
 70
     0
  0
ENDTAB
  0
TABLE
  2
APPID
  5
9
330
0
100
AcDbSymbolTable
 70
     1
  0
APPID
  5
12
330
9
100
AcDbSymbolTableRecord
100
AcDbRegAppTableRecord
  2
ACAD
 70
     0
  0
ENDTAB
  0
TABLE
  2
DIMSTYLE
  5
A
330
0
100
AcDbSymbolTable
 70
     2
100
AcDbDimStyleTable
 71
     0
  0
DIMSTYLE
105
29
330
A
100
AcDbSymbolTableRecord
100
AcDbDimStyleTableRecord
  2
ISO-25
 70
     0
 41
2.5
 42
0.625
 43
3.75
 44
1.25
 73
     0
 74
     0
 77
     1
 78
     8
140
2.5
141
2.5
143
0.03937007874016
147
0.625
171
     3
172
     1
271
     2
272
     2
274
     3
283
     0
284
     8
340
11
  0
DIMSTYLE
105
1EB
102
{ACAD_REACTORS
330
287
330
288
330
289
330
28A
330
290
330
294
330
295
330
296
330
297
330
29E
330
29F
330
2A0
330
2A1
330
2A2
330
2A3
330
2A4
330
2A5
330
2A6
330
2BD
330
2C0
330
2E9
330
2EA
330
2EB
330
2F0
330
2F1
330
2F2
330
2F3
330
2F4
330
2F5
330
2F6
330
2F9
330
2FA
330
2FC
330
2FD
330
2FE
330
2FF
102
}
330
A
100
AcDbSymbolTableRecord
100
AcDbDimStyleTableRecord
  2
20
 70
     0
 40
15.0
 41
2.0
 42
2.5
 43
3.75
 44
1.25
 73
     0
 74
     0
 77
     1
 78
     8
140
2.5
141
2.5
143
0.0394
147
0.625
171
     4
271
     1
272
     1
273
     8
274
     4
275
     1
279
     2
340
11
341
2D
342
2D
  0
ENDTAB
  0
TABLE
  2
BLOCK_RECORD
  5
1
330
0
100
AcDbSymbolTable
 70
    74
  0
BLOCK_RECORD
  5
21
330
1
100
AcDbSymbolTableRecord
100
AcDbBlockTableRecord
  2
*Model_Space
340
24
  0
BLOCK_RECORD
  5
1D
330
1
100
AcDbSymbolTableRecord
100
AcDbBlockTableRecord
  2
*Paper_Space
340
20
  0
BLOCK_RECORD
  5
25
330
1
100
AcDbSymbolTableRecord
100
AcDbBlockTableRecord
  2
*Paper_Space0
340
28
  0
BLOCK_RECORD
  5
2D
330
1
100
AcDbSymbolTableRecord
100
AcDbBlockTableRecord
  2
_OPEN
340
0
102
{BLKREFS
331
106
331
107
331
FA
331
FB
331
EE
331
EF
331
E2
331
E3
331
D6
331
D7
331
CA
331
CB
331
BE
331
BF
331
B3
331
B4
331
A5
331
A6
331
9A
331
9B
331
8C
331
8D
331
80
331
81
331
74
331
75
331
68
331
69
331
5C
331
5D
331
50
331
51
331
44
331
45
331
38
331
39
331
1B0
331
1B1
331
1BC
331
1BD
331
1C8
331
1C9
331
1D4
331
1D5
331
1E0
331
1E1
331
1A4
331
1A5
331
180
331
181
331
18C
331
18D
331
198
331
199
331
120
331
121
331
12B
331
12C
331
139
331
13A
331
144
331
145
331
150
331
151
331
112
331
113
331
15C
331
15D
331
168
331
169
331
174
331
175
331
4B9
331
4BA
331
4C2
331
4C3
331
4CB
331
4CC
331
4D4
331
4D5
331
4DD
331
4DE
331
4E6
331
4E7
331
4EF
331
4F0
331
4F8
331
4F9
331
501
331
502
331
50C
331
50D
331
514
331
515
331
51F
331
520
331
527
331
528
331
530
331
531
331
539
331
53A
331
542
331
543
331
54B
331
54C
331
554
331
555
331
55D
331
55E
331
566
331
567
331
56F
331
570
331
578
331
579
331
581
331
582
331
58A
331
58B
331
593
331
594
331
59E
331
59F
331
5A6
331
5A7
331
5B1
331
5B2
331
5B9
331
5BA
331
5C2
331
5C3
331
5CB
331
5CC
331
5D4
331
5D5
331
5DD
331
5DE
331
5E6
331
5E7
331
5EF
331
5F0
331
5F8
331
5F9
102
}
  0
BLOCK_RECORD
  5
302
330
1
100
AcDbSymbolTableRecord
100
AcDbBlockTableRecord
  2
*D38
340
0
  0
BLOCK_RECORD
  5
30E
330
1
100
AcDbSymbolTableRecord
100
AcDbBlockTableRecord
  2
*D39
340
0
  0
BLOCK_RECORD
  5
31A
330
1
100
AcDbSymbolTableRecord
100
AcDbBlockTableRecord
  2
*D40
340
0
  0
BLOCK_RECORD
  5
326
330
1
100
AcDbSymbolTableRecord
100
AcDbBlockTableRecord
  2
*D41
340
0
  0
BLOCK_RECORD
  5
332
330
1
100
AcDbSymbolTableRecord
100
AcDbBlockTableRecord
  2
*D42
340
0
  0
BLOCK_RECORD
  5
33E
330
1
100
AcDbSymbolTableRecord
100
AcDbBlockTableRecord
  2
*D43
340
0
  0
BLOCK_RECORD
  5
34A
330
1
100
AcDbSymbolTableRecord
100
AcDbBlockTableRecord
  2
*D44
340
0
  0
BLOCK_RECORD
  5
356
330
1
100
AcDbSymbolTableRecord
100
AcDbBlockTableRecord
  2
*D45
340
0
  0
BLOCK_RECORD
  5
362
330
1
100
AcDbSymbolTableRecord
100
AcDbBlockTableRecord
  2
*D46
340
0
  0
BLOCK_RECORD
  5
36E
330
1
100
AcDbSymbolTableRecord
100
AcDbBlockTableRecord
  2
*D47
340
0
  0
BLOCK_RECORD
  5
37B
330
1
100
AcDbSymbolTableRecord
100
AcDbBlockTableRecord
  2
*D48
340
0
  0
BLOCK_RECORD
  5
387
330
1
100
AcDbSymbolTableRecord
100
AcDbBlockTableRecord
  2
*D49
340
0
  0
BLOCK_RECORD
  5
394
330
1
100
AcDbSymbolTableRecord
100
AcDbBlockTableRecord
  2
*D50
340
0
  0
BLOCK_RECORD
  5
3A0
330
1
100
AcDbSymbolTableRecord
100
AcDbBlockTableRecord
  2
*D51
340
0
  0
BLOCK_RECORD
  5
3AC
330
1
100
AcDbSymbolTableRecord
100
AcDbBlockTableRecord
  2
*D52
340
0
  0
BLOCK_RECORD
  5
3B8
330
1
100
AcDbSymbolTableRecord
100
AcDbBlockTableRecord
  2
*D53
340
0
  0
BLOCK_RECORD
  5
3C4
330
1
100
AcDbSymbolTableRecord
100
AcDbBlockTableRecord
  2
*D54
340
0
  0
BLOCK_RECORD
  5
3D0
330
1
100
AcDbSymbolTableRecord
100
AcDbBlockTableRecord
  2
*D55
340
0
  0
BLOCK_RECORD
  5
3DC
330
1
100
AcDbSymbolTableRecord
100
AcDbBlockTableRecord
  2
*D56
340
0
  0
BLOCK_RECORD
  5
3E8
330
1
100
AcDbSymbolTableRecord
100
AcDbBlockTableRecord
  2
*D57
340
0
  0
BLOCK_RECORD
  5
3F4
330
1
100
AcDbSymbolTableRecord
100
AcDbBlockTableRecord
  2
*D58
340
0
  0
BLOCK_RECORD
  5
400
330
1
100
AcDbSymbolTableRecord
100
AcDbBlockTableRecord
  2
*D59
340
0
  0
BLOCK_RECORD
  5
40C
330
1
100
AcDbSymbolTableRecord
100
AcDbBlockTableRecord
  2
*D60
340
0
  0
BLOCK_RECORD
  5
418
330
1
100
AcDbSymbolTableRecord
100
AcDbBlockTableRecord
  2
*D61
340
0
  0
BLOCK_RECORD
  5
424
330
1
100
AcDbSymbolTableRecord
100
AcDbBlockTableRecord
  2
*D62
340
0
  0
BLOCK_RECORD
  5
430
330
1
100
AcDbSymbolTableRecord
100
AcDbBlockTableRecord
  2
*D63
340
0
  0
BLOCK_RECORD
  5
43D
330
1
100
AcDbSymbolTableRecord
100
AcDbBlockTableRecord
  2
*D64
340
0
  0
BLOCK_RECORD
  5
449
330
1
100
AcDbSymbolTableRecord
100
AcDbBlockTableRecord
  2
*D65
340
0
  0
BLOCK_RECORD
  5
456
330
1
100
AcDbSymbolTableRecord
100
AcDbBlockTableRecord
  2
*D66
340
0
  0
BLOCK_RECORD
  5
462
330
1
100
AcDbSymbolTableRecord
100
AcDbBlockTableRecord
  2
*D67
340
0
  0
BLOCK_RECORD
  5
46E
330
1
100
AcDbSymbolTableRecord
100
AcDbBlockTableRecord
  2
*D68
340
0
  0
BLOCK_RECORD
  5
47A
330
1
100
AcDbSymbolTableRecord
100
AcDbBlockTableRecord
  2
*D69
340
0
  0
BLOCK_RECORD
  5
486
330
1
100
AcDbSymbolTableRecord
100
AcDbBlockTableRecord
  2
*D70
340
0
  0
BLOCK_RECORD
  5
492
330
1
100
AcDbSymbolTableRecord
100
AcDbBlockTableRecord
  2
*D71
340
0
  0
BLOCK_RECORD
  5
49E
330
1
100
AcDbSymbolTableRecord
100
AcDbBlockTableRecord
  2
*D72
340
0
  0
BLOCK_RECORD
  5
4AA
330
1
100
AcDbSymbolTableRecord
100
AcDbBlockTableRecord
  2
*D73
340
0
  0
ENDTAB
  0
ENDSEC
  0
SECTION
  2
BLOCKS
  0
BLOCK
  5
22
330
21
100
AcDbEntity
  8
0
100
AcDbBlockBegin
  2
*Model_Space
 70
     0
 10
0.0
 20
0.0
 30
0.0
  3
*Model_Space
  1

  0
ENDBLK
  5
23
330
21
100
AcDbEntity
  8
0
100
AcDbBlockEnd
  0
BLOCK
  5
1E
330
1D
100
AcDbEntity
 67
     1
  8
0
100
AcDbBlockBegin
  2
*Paper_Space
 70
     0
 10
0.0
 20
0.0
 30
0.0
  3
*Paper_Space
  1

  0
ENDBLK
  5
1F
330
1D
100
AcDbEntity
 67
     1
  8
0
100
AcDbBlockEnd
  0
BLOCK
  5
26
330
25
100
AcDbEntity
  8
0
100
AcDbBlockBegin
  2
*Paper_Space0
 70
     0
 10
0.0
 20
0.0
 30
0.0
  3
*Paper_Space0
  1

  0
ENDBLK
  5
27
330
25
100
AcDbEntity
  8
0
100
AcDbBlockEnd
  0
BLOCK
  5
2E
330
2D
100
AcDbEntity
  8
0
100
AcDbBlockBegin
  2
_OPEN
 70
     0
 10
0.0
 20
0.0
 30
0.0
  3
_OPEN
  1

  0
LINE
  5
2F
330
2D
100
AcDbEntity
  8
0
  6
ByBlock
 62
     0
100
AcDbLine
 10
-1.0
 20
0.1666666666666666
 30
0.0
 11
0.0
 21
0.0
 31
0.0
  0
LINE
  5
30
330
2D
100
AcDbEntity
  8
0
  6
ByBlock
 62
     0
100
AcDbLine
 10
0.0
 20
0.0
 30
0.0
 11
-1.0
 21
-0.1666666666666666
 31
0.0
  0
LINE
  5
31
330
2D
100
AcDbEntity
  8
0
  6
ByBlock
 62
     0
100
AcDbLine
 10
0.0
 20
0.0
 30
0.0
 11
-1.0
 21
0.0
 31
0.0
  0
ENDBLK
  5
32
330
2D
100
AcDbEntity
  8
0
100
AcDbBlockEnd
  0
BLOCK
  5
30C
330
302
100
AcDbEntity
  8
0
100
AcDbBlockBegin
  2
*D38
 70
     1
 10
0.0
 20
0.0
 30
0.0
  3
*D38
  1

  0
LINE
  5
4B6
330
302
100
AcDbEntity
  8
sunpo
 62
     0
370
    -2
100
AcDbLine
 10
3935.407700824043
 20
928.19142432039
 30
0.0
 11
3935.407700824043
 21
1180.864284789961
 31
0.0
  0
LINE
  5
4B7
330
302
100
AcDbEntity
  8
sunpo
 62
     0
370
    -2
100
AcDbLine
 10
4650.411710202707
 20
928.19142432039
 30
0.0
 11
4650.411710202707
 21
1180.864284789961
 31
0.0
  0
LINE
  5
4B8
330
302
100
AcDbEntity
  8
sunpo
 62
     0
370
    -2
100
AcDbLine
 10
3965.407700824043
 20
1162.114284789961
 30
0.0
 11
4620.411710202708
 21
1162.114284789961
 31
0.0
  0
INSERT
  5
4B9
330
302
100
AcDbEntity
  8
sunpo
 62
     0
370
    -2
100
AcDbBlockReference
  2
_OPEN
 10
3935.407700824043
 20
1162.114284789961
 30
0.0
 41
30.0
 42
30.0
 43
30.0
 50
180.0
  0
INSERT
  5
4BA
330
302
100
AcDbEntity
  8
sunpo
 62
     0
370
    -2
100
AcDbBlockReference
  2
_OPEN
 10
4650.411710202707
 20
1162.114284789961
 30
0.0
 41
30.0
 42
30.0
 43
30.0
  0
MTEXT
  5
4BB
330
302
100
AcDbEntity
  8
sunpo
 62
     0
370
    20
100
AcDbMText
 10
4292.909705513375
 20
1190.239284789961
 30
0.0
 40
37.5
 41
0.0
 71
     5
 72
     1
  1
\A1;715
 73
     1
 44
1.0
1001
ACAD
1000
MTEXTBEGIN
1070
    73
1070
     1
1070
    44
1040
1.0
1070
    74
1070
     0
1000
MTEXTEND
  0
POINT
  5
4BC
330
302
100
AcDbEntity
  8
DEFPOINTS
 62
     0
100
AcDbPoint
 10
3935.407700824043
 20
890.69142432039
 30
0.0
  0
POINT
  5
4BD
330
302
100
AcDbEntity
  8
DEFPOINTS
 62
     0
100
AcDbPoint
 10
4650.411710202707
 20
890.69142432039
 30
0.0
  0
POINT
  5
4BE
330
302
100
AcDbEntity
  8
DEFPOINTS
 62
     0
100
AcDbPoint
 10
4650.411710202707
 20
1162.114284789961
 30
0.0
  0
ENDBLK
  5
30D
330
302
100
AcDbEntity
  8
0
100
AcDbBlockEnd
  0
BLOCK
  5
318
330
30E
100
AcDbEntity
  8
0
100
AcDbBlockBegin
  2
*D39
 70
     1
 10
0.0
 20
0.0
 30
0.0
  3
*D39
  1

  0
LINE
  5
4BF
330
30E
100
AcDbEntity
  8
sunpo
 62
     0
370
    -2
100
AcDbLine
 10
4150.407700824045
 20
928.19142432039
 30
0.0
 11
4150.407700824045
 21
1111.307877661864
 31
0.0
  0
LINE
  5
4C0
330
30E
100
AcDbEntity
  8
sunpo
 62
     0
370
    -2
100
AcDbLine
 10
4650.411710202707
 20
928.19142432039
 30
0.0
 11
4650.411710202707
 21
1111.307877661864
 31
0.0
  0
LINE
  5
4C1
330
30E
100
AcDbEntity
  8
sunpo
 62
     0
370
    -2
100
AcDbLine
 10
4180.407700824044
 20
1092.557877661864
 30
0.0
 11
4620.411710202708
 21
1092.557877661864
 31
0.0
  0
INSERT
  5
4C2
330
30E
100
AcDbEntity
  8
sunpo
 62
     0
370
    -2
100
AcDbBlockReference
  2
_OPEN
 10
4150.407700824045
 20
1092.557877661864
 30
0.0
 41
30.0
 42
30.0
 43
30.0
 50
180.0
  0
INSERT
  5
4C3
330
30E
100
AcDbEntity
  8
sunpo
 62
     0
370
    -2
100
AcDbBlockReference
  2
_OPEN
 10
4650.411710202707
 20
1092.557877661864
 30
0.0
 41
30.0
 42
30.0
 43
30.0
  0
MTEXT
  5
4C4
330
30E
100
AcDbEntity
  8
sunpo
 62
     0
370
    20
100
AcDbMText
 10
4400.409705513376
 20
1120.682877661864
 30
0.0
 40
37.5
 41
0.0
 71
     5
 72
     1
  1
\A1;500
 73
     1
 44
1.0
1001
ACAD
1000
MTEXTBEGIN
1070
    73
1070
     1
1070
    44
1040
1.0
1070
    74
1070
     0
1000
MTEXTEND
  0
POINT
  5
4C5
330
30E
100
AcDbEntity
  8
DEFPOINTS
 62
     0
100
AcDbPoint
 10
4150.407700824045
 20
890.69142432039
 30
0.0
  0
POINT
  5
4C6
330
30E
100
AcDbEntity
  8
DEFPOINTS
 62
     0
100
AcDbPoint
 10
4650.411710202707
 20
890.69142432039
 30
0.0
  0
POINT
  5
4C7
330
30E
100
AcDbEntity
  8
DEFPOINTS
 62
     0
100
AcDbPoint
 10
4650.411710202707
 20
1092.557877661864
 30
0.0
  0
ENDBLK
  5
319
330
30E
100
AcDbEntity
  8
0
100
AcDbBlockEnd
  0
BLOCK
  5
324
330
31A
100
AcDbEntity
  8
0
100
AcDbBlockBegin
  2
*D40
 70
     1
 10
0.0
 20
0.0
 30
0.0
  3
*D40
  1

  0
LINE
  5
4C8
330
31A
100
AcDbEntity
  8
sunpo
 62
     0
370
    -2
100
AcDbLine
 10
3950.407700824076
 20
928.19142432039
 30
0.0
 11
3950.407700824076
 21
1051.86875933512
 31
0.0
  0
LINE
  5
4C9
330
31A
100
AcDbEntity
  8
sunpo
 62
     0
370
    -2
100
AcDbLine
 10
4130.403691445383
 20
928.19142432039
 30
0.0
 11
4130.403691445383
 21
1051.86875933512
 31
0.0
  0
LINE
  5
4CA
330
31A
100
AcDbEntity
  8
sunpo
 62
     0
370
    -2
100
AcDbLine
 10
3980.407700824076
 20
1033.11875933512
 30
0.0
 11
4100.403691445383
 21
1033.11875933512
 31
0.0
  0
INSERT
  5
4CB
330
31A
100
AcDbEntity
  8
sunpo
 62
     0
370
    -2
100
AcDbBlockReference
  2
_OPEN
 10
3950.407700824076
 20
1033.11875933512
 30
0.0
 41
30.0
 42
30.0
 43
30.0
 50
180.0
  0
INSERT
  5
4CC
330
31A
100
AcDbEntity
  8
sunpo
 62
     0
370
    -2
100
AcDbBlockReference
  2
_OPEN
 10
4130.403691445383
 20
1033.11875933512
 30
0.0
 41
30.0
 42
30.0
 43
30.0
  0
MTEXT
  5
4CD
330
31A
100
AcDbEntity
  8
sunpo
 62
     0
370
    20
100
AcDbMText
 10
4040.405696134729
 20
1061.24375933512
 30
0.0
 40
37.5
 41
0.0
 71
     5
 72
     1
  1
\A1;180
 73
     1
 44
1.0
1001
ACAD
1000
MTEXTBEGIN
1070
    73
1070
     1
1070
    44
1040
1.0
1070
    74
1070
     0
1000
MTEXTEND
  0
POINT
  5
4CE
330
31A
100
AcDbEntity
  8
DEFPOINTS
 62
     0
100
AcDbPoint
 10
3950.407700824076
 20
890.69142432039
 30
0.0
  0
POINT
  5
4CF
330
31A
100
AcDbEntity
  8
DEFPOINTS
 62
     0
100
AcDbPoint
 10
4130.403691445383
 20
890.69142432039
 30
0.0
  0
POINT
  5
4D0
330
31A
100
AcDbEntity
  8
DEFPOINTS
 62
     0
100
AcDbPoint
 10
4130.403691445383
 20
1033.11875933512
 30
0.0
  0
ENDBLK
  5
325
330
31A
100
AcDbEntity
  8
0
100
AcDbBlockEnd
  0
BLOCK
  5
330
330
326
100
AcDbEntity
  8
0
100
AcDbBlockBegin
  2
*D41
 70
     1
 10
0.0
 20
0.0
 30
0.0
  3
*D41
  1

  0
LINE
  5
4D1
330
326
100
AcDbEntity
  8
sunpo
 62
     0
370
    -2
100
AcDbLine
 10
3935.407700824043
 20
928.19142432039
 30
0.0
 11
3935.407700824043
 21
1111.307877661864
 31
0.0
  0
LINE
  5
4D2
330
326
100
AcDbEntity
  8
sunpo
 62
     0
370
    -2
100
AcDbLine
 10
4150.407700824045
 20
928.19142432039
 30
0.0
 11
4150.407700824045
 21
1111.307877661864
 31
0.0
  0
LINE
  5
4D3
330
326
100
AcDbEntity
  8
sunpo
 62
     0
370
    -2
100
AcDbLine
 10
3965.407700824043
 20
1092.557877661864
 30
0.0
 11
4120.407700824045
 21
1092.557877661864
 31
0.0
  0
INSERT
  5
4D4
330
326
100
AcDbEntity
  8
sunpo
 62
     0
370
    -2
100
AcDbBlockReference
  2
_OPEN
 10
3935.407700824043
 20
1092.557877661864
 30
0.0
 41
30.0
 42
30.0
 43
30.0
 50
180.0
  0
INSERT
  5
4D5
330
326
100
AcDbEntity
  8
sunpo
 62
     0
370
    -2
100
AcDbBlockReference
  2
_OPEN
 10
4150.407700824045
 20
1092.557877661864
 30
0.0
 41
30.0
 42
30.0
 43
30.0
  0
MTEXT
  5
4D6
330
326
100
AcDbEntity
  8
sunpo
 62
     0
370
    20
100
AcDbMText
 10
4042.907700824044
 20
1120.682877661864
 30
0.0
 40
37.5
 41
0.0
 71
     5
 72
     1
  1
\A1;215
 73
     1
 44
1.0
1001
ACAD
1000
MTEXTBEGIN
1070
    73
1070
     1
1070
    44
1040
1.0
1070
    74
1070
     0
1000
MTEXTEND
  0
POINT
  5
4D7
330
326
100
AcDbEntity
  8
DEFPOINTS
 62
     0
100
AcDbPoint
 10
3935.407700824043
 20
890.69142432039
 30
0.0
  0
POINT
  5
4D8
330
326
100
AcDbEntity
  8
DEFPOINTS
 62
     0
100
AcDbPoint
 10
4150.407700824045
 20
890.69142432039
 30
0.0
  0
POINT
  5
4D9
330
326
100
AcDbEntity
  8
DEFPOINTS
 62
     0
100
AcDbPoint
 10
4150.407700824045
 20
1092.557877661864
 30
0.0
  0
ENDBLK
  5
331
330
326
100
AcDbEntity
  8
0
100
AcDbBlockEnd
  0
BLOCK
  5
33C
330
332
100
AcDbEntity
  8
0
100
AcDbBlockBegin
  2
*D42
 70
     1
 10
0.0
 20
0.0
 30
0.0
  3
*D42
  1

  0
LINE
  5
4DA
330
332
100
AcDbEntity
  8
sunpo
 62
     0
370
    -2
100
AcDbLine
 10
3897.907700824043
 20
890.69142432039
 30
0.0
 11
3740.55497514995
 21
890.6914243203901
 31
0.0
  0
LINE
  5
4DB
330
332
100
AcDbEntity
  8
sunpo
 62
     0
370
    -2
100
AcDbLine
 10
3897.907700824043
 20
290.6914243203864
 30
0.0
 11
3740.55497514995
 21
290.6914243203864
 31
0.0
  0
LINE
  5
4DC
330
332
100
AcDbEntity
  8
sunpo
 62
     0
370
    -2
100
AcDbLine
 10
3759.30497514995
 20
860.6914243203901
 30
0.0
 11
3759.30497514995
 21
320.6914243203864
 31
0.0
  0
INSERT
  5
4DD
330
332
100
AcDbEntity
  8
sunpo
 62
     0
370
    -2
100
AcDbBlockReference
  2
_OPEN
 10
3759.30497514995
 20
890.6914243203901
 30
0.0
 41
30.0
 42
30.0
 43
30.0
 50
90.0
  0
INSERT
  5
4DE
330
332
100
AcDbEntity
  8
sunpo
 62
     0
370
    -2
100
AcDbBlockReference
  2
_OPEN
 10
3759.30497514995
 20
290.6914243203864
 30
0.0
 41
30.0
 42
30.0
 43
30.0
 50
270.0
  0
MTEXT
  5
4DF
330
332
100
AcDbEntity
  8
sunpo
 62
     0
370
    20
100
AcDbMText
 10
3731.17997514995
 20
590.6914243203889
 30
0.0
 40
37.5
 41
0.0
 71
     5
 72
     1
  1
\A1;600(2000)
 11
0.0000000000000001
 21
1.0
 31
0.0
 73
     1
 44
1.0
1001
ACAD
1000
MTEXTBEGIN
1070
    73
1070
     1
1070
    44
1040
1.0
1070
    74
1070
     0
1000
MTEXTEND
  0
POINT
  5
4E0
330
332
100
AcDbEntity
  8
DEFPOINTS
 62
     0
100
AcDbPoint
 10
3935.407700824043
 20
890.69142432039
 30
0.0
  0
POINT
  5
4E1
330
332
100
AcDbEntity
  8
DEFPOINTS
 62
     0
100
AcDbPoint
 10
3935.407700824043
 20
290.6914243203864
 30
0.0
  0
POINT
  5
4E2
330
332
100
AcDbEntity
  8
DEFPOINTS
 62
     0
100
AcDbPoint
 10
3759.30497514995
 20
290.6914243203864
 30
0.0
  0
ENDBLK
  5
33D
330
332
100
AcDbEntity
  8
0
100
AcDbBlockEnd
  0
BLOCK
  5
348
330
33E
100
AcDbEntity
  8
0
100
AcDbBlockBegin
  2
*D43
 70
     1
 10
0.0
 20
0.0
 30
0.0
  3
*D43
  1

  0
LINE
  5
4E3
330
33E
100
AcDbEntity
  8
sunpo
 62
     0
370
    -2
100
AcDbLine
 10
5184.289014789516
 20
1768.929017670733
 30
0.0
 11
5184.289014789516
 21
1964.907366146697
 31
0.0
  0
LINE
  5
4E4
330
33E
100
AcDbEntity
  8
sunpo
 62
     0
370
    -2
100
AcDbLine
 10
5784.289014789516
 20
1768.929017670733
 30
0.0
 11
5784.289014789516
 21
1964.907366146697
 31
0.0
  0
LINE
  5
4E5
330
33E
100
AcDbEntity
  8
sunpo
 62
     0
370
    -2
100
AcDbLine
 10
5214.289014789516
 20
1946.157366146697
 30
0.0
 11
5754.289014789516
 21
1946.157366146697
 31
0.0
  0
INSERT
  5
4E6
330
33E
100
AcDbEntity
  8
sunpo
 62
     0
370
    -2
100
AcDbBlockReference
  2
_OPEN
 10
5184.289014789516
 20
1946.157366146697
 30
0.0
 41
30.0
 42
30.0
 43
30.0
 50
180.0
  0
INSERT
  5
4E7
330
33E
100
AcDbEntity
  8
sunpo
 62
     0
370
    -2
100
AcDbBlockReference
  2
_OPEN
 10
5784.289014789516
 20
1946.157366146697
 30
0.0
 41
30.0
 42
30.0
 43
30.0
  0
MTEXT
  5
4E8
330
33E
100
AcDbEntity
  8
sunpo
 62
     0
370
    20
100
AcDbMText
 10
5484.289014789516
 20
1974.282366146697
 30
0.0
 40
37.5
 41
0.0
 71
     5
 72
     1
  1
\A1;600(2000)
 73
     1
 44
1.0
1001
ACAD
1000
MTEXTBEGIN
1070
    73
1070
     1
1070
    44
1040
1.0
1070
    74
1070
     0
1000
MTEXTEND
  0
POINT
  5
4E9
330
33E
100
AcDbEntity
  8
DEFPOINTS
 62
     0
100
AcDbPoint
 10
5184.289014789516
 20
1731.429017670732
 30
0.0
  0
POINT
  5
4EA
330
33E
100
AcDbEntity
  8
DEFPOINTS
 62
     0
100
AcDbPoint
 10
5784.289014789516
 20
1731.429017670732
 30
0.0
  0
POINT
  5
4EB
330
33E
100
AcDbEntity
  8
DEFPOINTS
 62
     0
100
AcDbPoint
 10
5784.289014789516
 20
1946.157366146697
 30
0.0
  0
ENDBLK
  5
349
330
33E
100
AcDbEntity
  8
0
100
AcDbBlockEnd
  0
BLOCK
  5
354
330
34A
100
AcDbEntity
  8
0
100
AcDbBlockBegin
  2
*D44
 70
     1
 10
0.0
 20
0.0
 30
0.0
  3
*D44
  1

  0
LINE
  5
4EC
330
34A
100
AcDbEntity
  8
sunpo
 62
     0
370
    -2
100
AcDbLine
 10
5146.789014789516
 20
1561.429017670736
 30
0.0
 11
5059.377700744687
 21
1561.429017670736
 31
0.0
  0
LINE
  5
4ED
330
34A
100
AcDbEntity
  8
sunpo
 62
     0
370
    -2
100
AcDbLine
 10
5146.789014789516
 20
1411.429017670736
 30
0.0
 11
5059.377700744687
 21
1411.429017670736
 31
0.0
  0
LINE
  5
4EE
330
34A
100
AcDbEntity
  8
sunpo
 62
     0
370
    -2
100
AcDbLine
 10
5078.127700744687
 20
1531.429017670736
 30
0.0
 11
5078.127700744687
 21
1441.429017670736
 31
0.0
  0
INSERT
  5
4EF
330
34A
100
AcDbEntity
  8
sunpo
 62
     0
370
    -2
100
AcDbBlockReference
  2
_OPEN
 10
5078.127700744687
 20
1561.429017670736
 30
0.0
 41
30.0
 42
30.0
 43
30.0
 50
90.0
  0
INSERT
  5
4F0
330
34A
100
AcDbEntity
  8
sunpo
 62
     0
370
    -2
100
AcDbBlockReference
  2
_OPEN
 10
5078.127700744687
 20
1411.429017670736
 30
0.0
 41
30.0
 42
30.0
 43
30.0
 50
270.0
  0
MTEXT
  5
4F1
330
34A
100
AcDbEntity
  8
sunpo
 62
     0
370
    20
100
AcDbMText
 10
5050.002700744688
 20
1486.429017670737
 30
0.0
 40
37.5
 41
0.0
 71
     5
 72
     1
  1
\A1;150
 11
0.0000000000000001
 21
1.0
 31
0.0
 73
     1
 44
1.0
1001
ACAD
1000
MTEXTBEGIN
1070
    73
1070
     1
1070
    44
1040
1.0
1070
    74
1070
     0
1000
MTEXTEND
  0
POINT
  5
4F2
330
34A
100
AcDbEntity
  8
DEFPOINTS
 62
     0
100
AcDbPoint
 10
5184.289014789516
 20
1561.429017670736
 30
0.0
  0
POINT
  5
4F3
330
34A
100
AcDbEntity
  8
DEFPOINTS
 62
     0
100
AcDbPoint
 10
5184.289014789516
 20
1411.429017670736
 30
0.0
  0
POINT
  5
4F4
330
34A
100
AcDbEntity
  8
DEFPOINTS
 62
     0
100
AcDbPoint
 10
5078.127700744687
 20
1411.429017670736
 30
0.0
  0
ENDBLK
  5
355
330
34A
100
AcDbEntity
  8
0
100
AcDbBlockEnd
  0
BLOCK
  5
360
330
356
100
AcDbEntity
  8
0
100
AcDbBlockBegin
  2
*D45
 70
     1
 10
0.0
 20
0.0
 30
0.0
  3
*D45
  1

  0
LINE
  5
4F5
330
356
100
AcDbEntity
  8
sunpo
 62
     0
370
    -2
100
AcDbLine
 10
5146.789014789516
 20
1731.429017670732
 30
0.0
 11
4967.780044715847
 21
1731.429017670732
 31
0.0
  0
LINE
  5
4F6
330
356
100
AcDbEntity
  8
sunpo
 62
     0
370
    -2
100
AcDbLine
 10
5146.789014789516
 20
1411.429017670736
 30
0.0
 11
4967.780044715847
 21
1411.429017670736
 31
0.0
  0
LINE
  5
4F7
330
356
100
AcDbEntity
  8
sunpo
 62
     0
370
    -2
100
AcDbLine
 10
4986.530044715847
 20
1701.429017670732
 30
0.0
 11
4986.530044715847
 21
1441.429017670736
 31
0.0
  0
INSERT
  5
4F8
330
356
100
AcDbEntity
  8
sunpo
 62
     0
370
    -2
100
AcDbBlockReference
  2
_OPEN
 10
4986.530044715847
 20
1731.429017670732
 30
0.0
 41
30.0
 42
30.0
 43
30.0
 50
90.0
  0
INSERT
  5
4F9
330
356
100
AcDbEntity
  8
sunpo
 62
     0
370
    -2
100
AcDbBlockReference
  2
_OPEN
 10
4986.530044715847
 20
1411.429017670736
 30
0.0
 41
30.0
 42
30.0
 43
30.0
 50
270.0
  0
MTEXT
  5
4FA
330
356
100
AcDbEntity
  8
sunpo
 62
     0
370
    20
100
AcDbMText
 10
4958.405044715846
 20
1571.429017670735
 30
0.0
 40
37.5
 41
0.0
 71
     5
 72
     1
  1
\A1;320
 11
0.0000000000000001
 21
1.0
 31
0.0
 73
     1
 44
1.0
1001
ACAD
1000
MTEXTBEGIN
1070
    73
1070
     1
1070
    44
1040
1.0
1070
    74
1070
     0
1000
MTEXTEND
  0
POINT
  5
4FB
330
356
100
AcDbEntity
  8
DEFPOINTS
 62
     0
100
AcDbPoint
 10
5184.289014789516
 20
1731.429017670732
 30
0.0
  0
POINT
  5
4FC
330
356
100
AcDbEntity
  8
DEFPOINTS
 62
     0
100
AcDbPoint
 10
5184.289014789516
 20
1411.429017670736
 30
0.0
  0
POINT
  5
4FD
330
356
100
AcDbEntity
  8
DEFPOINTS
 62
     0
100
AcDbPoint
 10
4986.530044715847
 20
1411.429017670736
 30
0.0
  0
ENDBLK
  5
361
330
356
100
AcDbEntity
  8
0
100
AcDbBlockEnd
  0
BLOCK
  5
36C
330
362
100
AcDbEntity
  8
0
100
AcDbBlockBegin
  2
*D46
 70
     1
 10
0.0
 20
0.0
 30
0.0
  3
*D46
  1

  0
LINE
  5
4FE
330
362
100
AcDbEntity
  8
sunpo
 62
     0
370
    -2
100
AcDbLine
 10
4687.907700824048
 20
1561.431866439787
 30
0.0
 11
4830.270949345412
 21
1561.431866439787
 31
0.0
  0
LINE
  5
4FF
330
362
100
AcDbEntity
  8
sunpo
 62
     0
370
    -2
100
AcDbLine
 10
4687.907700824048
 20
1411.431866439787
 30
0.0
 11
4830.270949345412
 21
1411.431866439787
 31
0.0
  0
LINE
  5
500
330
362
100
AcDbEntity
  8
sunpo
 62
     0
370
    -2
100
AcDbLine
 10
4811.520949345412
 20
1531.431866439787
 30
0.0
 11
4811.520949345412
 21
1441.431866439787
 31
0.0
  0
INSERT
  5
501
330
362
100
AcDbEntity
  8
sunpo
 62
     0
370
    -2
100
AcDbBlockReference
  2
_OPEN
 10
4811.520949345412
 20
1561.431866439787
 30
0.0
 41
30.0
 42
30.0
 43
30.0
 50
90.0
  0
INSERT
  5
502
330
362
100
AcDbEntity
  8
sunpo
 62
     0
370
    -2
100
AcDbBlockReference
  2
_OPEN
 10
4811.520949345412
 20
1411.431866439787
 30
0.0
 41
30.0
 42
30.0
 43
30.0
 50
270.0
  0
MTEXT
  5
503
330
362
100
AcDbEntity
  8
sunpo
 62
     0
370
    20
100
AcDbMText
 10
4783.395949345412
 20
1486.431866439788
 30
0.0
 40
37.5
 41
0.0
 71
     5
 72
     1
  1
\A1;150
 11
0.0000000000000001
 21
1.0
 31
0.0
 73
     1
 44
1.0
1001
ACAD
1000
MTEXTBEGIN
1070
    73
1070
     1
1070
    44
1040
1.0
1070
    74
1070
     0
1000
MTEXTEND
  0
POINT
  5
504
330
362
100
AcDbEntity
  8
DEFPOINTS
 62
     0
100
AcDbPoint
 10
4650.407700824048
 20
1561.431866439787
 30
0.0
  0
POINT
  5
505
330
362
100
AcDbEntity
  8
DEFPOINTS
 62
     0
100
AcDbPoint
 10
4650.407700824048
 20
1411.431866439787
 30
0.0
  0
POINT
  5
506
330
362
100
AcDbEntity
  8
DEFPOINTS
 62
     0
100
AcDbPoint
 10
4811.520949345412
 20
1411.431866439787
 30
0.0
  0
ENDBLK
  5
36D
330
362
100
AcDbEntity
  8
0
100
AcDbBlockEnd
  0
BLOCK
  5
379
330
36E
100
AcDbEntity
  8
0
100
AcDbBlockBegin
  2
*D47
 70
     1
 10
0.0
 20
0.0
 30
0.0
  3
*D47
  1

  0
LINE
  5
507
330
36E
100
AcDbEntity
  8
sunpo
 62
     0
370
    -2
100
AcDbLine
 10
4130.40369144539
 20
1768.928979970606
 30
0.0
 11
4130.40369144539
 21
1840.707348724736
 31
0.0
  0
LINE
  5
508
330
36E
100
AcDbEntity
  8
sunpo
 62
     0
370
    -2
100
AcDbLine
 10
4150.403691445383
 20
1568.93186643979
 30
0.0
 11
4150.403691445383
 21
1840.707348724736
 31
0.0
  0
LINE
  5
509
330
36E
100
AcDbEntity
  8
sunpo
 62
     0
370
    -2
100
AcDbLine
 10
4100.403691445391
 20
1821.957348724736
 30
0.0
 11
4070.403691445391
 21
1821.957348724736
 31
0.0
  0
LINE
  5
50A
330
36E
100
AcDbEntity
  8
sunpo
 62
     0
370
    -2
100
AcDbLine
 10
4180.403691445383
 20
1821.957348724736
 30
0.0
 11
4210.403691445383
 21
1821.957348724736
 31
0.0
  0
MTEXT
  5
50B
330
36E
100
AcDbEntity
  8
sunpo
 62
     0
370
    20
100
AcDbMText
 10
4140.403691445388
 20
1873.519848724736
 30
0.0
 40
37.5
 41
0.0
 71
     5
 72
     1
  1
\A1;20
 73
     1
 44
1.0
1001
ACAD
1000
MTEXTBEGIN
1070
    73
1070
     1
1070
    44
1040
1.0
1070
    74
1070
     0
1000
MTEXTEND
  0
INSERT
  5
50C
330
36E
100
AcDbEntity
  8
sunpo
 62
     0
370
    -2
100
AcDbBlockReference
  2
_OPEN
 10
4130.40369144539
 20
1821.957348724736
 30
0.0
 41
30.0
 42
30.0
 43
30.0
  0
INSERT
  5
50D
330
36E
100
AcDbEntity
  8
sunpo
 62
     0
370
    -2
100
AcDbBlockReference
  2
_OPEN
 10
4150.403691445383
 20
1821.957348724736
 30
0.0
 41
30.0
 42
30.0
 43
30.0
 50
180.0
  0
POINT
  5
50E
330
36E
100
AcDbEntity
  8
DEFPOINTS
 62
     0
100
AcDbPoint
 10
4130.40369144539
 20
1731.428979970606
 30
0.0
  0
POINT
  5
50F
330
36E
100
AcDbEntity
  8
DEFPOINTS
 62
     0
100
AcDbPoint
 10
4150.403691445383
 20
1531.43186643979
 30
0.0
  0
POINT
  5
510
330
36E
100
AcDbEntity
  8
DEFPOINTS
 62
     0
100
AcDbPoint
 10
4150.403691445383
 20
1821.957348724736
 30
0.0
  0
ENDBLK
  5
37A
330
36E
100
AcDbEntity
  8
0
100
AcDbBlockEnd
  0
BLOCK
  5
385
330
37B
100
AcDbEntity
  8
0
100
AcDbBlockBegin
  2
*D48
 70
     1
 10
0.0
 20
0.0
 30
0.0
  3
*D48
  1

  0
LINE
  5
511
330
37B
100
AcDbEntity
  8
sunpo
 62
     0
370
    -2
100
AcDbLine
 10
4130.40369144539
 20
1768.928979970606
 30
0.0
 11
4130.40369144539
 21
1840.707348724736
 31
0.0
  0
LINE
  5
512
330
37B
100
AcDbEntity
  8
sunpo
 62
     0
370
    -2
100
AcDbLine
 10
3950.407700824076
 20
1768.928979970606
 30
0.0
 11
3950.407700824076
 21
1840.707348724736
 31
0.0
  0
LINE
  5
513
330
37B
100
AcDbEntity
  8
sunpo
 62
     0
370
    -2
100
AcDbLine
 10
4100.403691445391
 20
1821.957348724736
 30
0.0
 11
3980.407700824076
 21
1821.957348724736
 31
0.0
  0
INSERT
  5
514
330
37B
100
AcDbEntity
  8
sunpo
 62
     0
370
    -2
100
AcDbBlockReference
  2
_OPEN
 10
4130.40369144539
 20
1821.957348724736
 30
0.0
 41
30.0
 42
30.0
 43
30.0
  0
INSERT
  5
515
330
37B
100
AcDbEntity
  8
sunpo
 62
     0
370
    -2
100
AcDbBlockReference
  2
_OPEN
 10
3950.407700824076
 20
1821.957348724736
 30
0.0
 41
30.0
 42
30.0
 43
30.0
 50
180.0
  0
MTEXT
  5
516
330
37B
100
AcDbEntity
  8
sunpo
 62
     0
370
    20
100
AcDbMText
 10
4040.405696134733
 20
1850.082348724736
 30
0.0
 40
37.5
 41
0.0
 71
     5
 72
     1
  1
\A1;180
 73
     1
 44
1.0
1001
ACAD
1000
MTEXTBEGIN
1070
    73
1070
     1
1070
    44
1040
1.0
1070
    74
1070
     0
1000
MTEXTEND
  0
POINT
  5
517
330
37B
100
AcDbEntity
  8
DEFPOINTS
 62
     0
100
AcDbPoint
 10
4130.40369144539
 20
1731.428979970606
 30
0.0
  0
POINT
  5
518
330
37B
100
AcDbEntity
  8
DEFPOINTS
 62
     0
100
AcDbPoint
 10
3950.407700824076
 20
1731.428979970606
 30
0.0
  0
POINT
  5
519
330
37B
100
AcDbEntity
  8
DEFPOINTS
 62
     0
100
AcDbPoint
 10
3950.407700824076
 20
1821.957348724736
 30
0.0
  0
ENDBLK
  5
386
330
37B
100
AcDbEntity
  8
0
100
AcDbBlockEnd
  0
BLOCK
  5
392
330
387
100
AcDbEntity
  8
0
100
AcDbBlockBegin
  2
*D49
 70
     1
 10
0.0
 20
0.0
 30
0.0
  3
*D49
  1

  0
LINE
  5
51A
330
387
100
AcDbEntity
  8
sunpo
 62
     0
370
    -2
100
AcDbLine
 10
3950.407700824076
 20
1768.928979970606
 30
0.0
 11
3950.407700824076
 21
1840.707348724736
 31
0.0
  0
LINE
  5
51B
330
387
100
AcDbEntity
  8
sunpo
 62
     0
370
    -2
100
AcDbLine
 10
3935.407700824045
 20
1618.928979970605
 30
0.0
 11
3935.407700824045
 21
1840.707348724736
 31
0.0
  0
LINE
  5
51C
330
387
100
AcDbEntity
  8
sunpo
 62
     0
370
    -2
100
AcDbLine
 10
3980.407700824076
 20
1821.957348724736
 30
0.0
 11
4010.407700824075
 21
1821.957348724736
 31
0.0
  0
LINE
  5
51D
330
387
100
AcDbEntity
  8
sunpo
 62
     0
370
    -2
100
AcDbLine
 10
3905.407700824045
 20
1821.957348724736
 30
0.0
 11
3875.407700824045
 21
1821.957348724736
 31
0.0
  0
MTEXT
  5
51E
330
387
100
AcDbEntity
  8
sunpo
 62
     0
370
    20
100
AcDbMText
 10
3942.90770082406
 20
1873.519848724736
 30
0.0
 40
37.5
 41
0.0
 71
     5
 72
     1
  1
\A1;15
 73
     1
 44
1.0
1001
ACAD
1000
MTEXTBEGIN
1070
    73
1070
     1
1070
    44
1040
1.0
1070
    74
1070
     0
1000
MTEXTEND
  0
INSERT
  5
51F
330
387
100
AcDbEntity
  8
sunpo
 62
     0
370
    -2
100
AcDbBlockReference
  2
_OPEN
 10
3950.407700824076
 20
1821.957348724736
 30
0.0
 41
30.0
 42
30.0
 43
30.0
 50
180.0
  0
INSERT
  5
520
330
387
100
AcDbEntity
  8
sunpo
 62
     0
370
    -2
100
AcDbBlockReference
  2
_OPEN
 10
3935.407700824045
 20
1821.957348724736
 30
0.0
 41
30.0
 42
30.0
 43
30.0
  0
POINT
  5
521
330
387
100
AcDbEntity
  8
DEFPOINTS
 62
     0
100
AcDbPoint
 10
3950.407700824076
 20
1731.428979970606
 30
0.0
  0
POINT
  5
522
330
387
100
AcDbEntity
  8
DEFPOINTS
 62
     0
100
AcDbPoint
 10
3935.407700824045
 20
1581.428979970606
 30
0.0
  0
POINT
  5
523
330
387
100
AcDbEntity
  8
DEFPOINTS
 62
     0
100
AcDbPoint
 10
3935.407700824045
 20
1821.957348724736
 30
0.0
  0
ENDBLK
  5
393
330
387
100
AcDbEntity
  8
0
100
AcDbBlockEnd
  0
BLOCK
  5
39E
330
394
100
AcDbEntity
  8
0
100
AcDbBlockBegin
  2
*D50
 70
     1
 10
0.0
 20
0.0
 30
0.0
  3
*D50
  1

  0
LINE
  5
524
330
394
100
AcDbEntity
  8
sunpo
 62
     0
370
    -2
100
AcDbLine
 10
3935.407700824045
 20
1618.92901767074
 30
0.0
 11
3935.407700824045
 21
1964.910214915755
 31
0.0
  0
LINE
  5
525
330
394
100
AcDbEntity
  8
sunpo
 62
     0
370
    -2
100
AcDbLine
 10
4650.411710202707
 20
1598.928985471646
 30
0.0
 11
4650.411710202707
 21
1964.910214915755
 31
0.0
  0
LINE
  5
526
330
394
100
AcDbEntity
  8
sunpo
 62
     0
370
    -2
100
AcDbLine
 10
3965.407700824045
 20
1946.160214915755
 30
0.0
 11
4620.411710202708
 21
1946.160214915755
 31
0.0
  0
INSERT
  5
527
330
394
100
AcDbEntity
  8
sunpo
 62
     0
370
    -2
100
AcDbBlockReference
  2
_OPEN
 10
3935.407700824045
 20
1946.160214915755
 30
0.0
 41
30.0
 42
30.0
 43
30.0
 50
180.0
  0
INSERT
  5
528
330
394
100
AcDbEntity
  8
sunpo
 62
     0
370
    -2
100
AcDbBlockReference
  2
_OPEN
 10
4650.411710202707
 20
1946.160214915755
 30
0.0
 41
30.0
 42
30.0
 43
30.0
  0
MTEXT
  5
529
330
394
100
AcDbEntity
  8
sunpo
 62
     0
370
    20
100
AcDbMText
 10
4292.909705513376
 20
1974.285214915755
 30
0.0
 40
37.5
 41
0.0
 71
     5
 72
     1
  1
\A1;715
 73
     1
 44
1.0
1001
ACAD
1000
MTEXTBEGIN
1070
    73
1070
     1
1070
    44
1040
1.0
1070
    74
1070
     0
1000
MTEXTEND
  0
POINT
  5
52A
330
394
100
AcDbEntity
  8
DEFPOINTS
 62
     0
100
AcDbPoint
 10
3935.407700824045
 20
1581.42901767074
 30
0.0
  0
POINT
  5
52B
330
394
100
AcDbEntity
  8
DEFPOINTS
 62
     0
100
AcDbPoint
 10
4650.411710202707
 20
1561.428985471646
 30
0.0
  0
POINT
  5
52C
330
394
100
AcDbEntity
  8
DEFPOINTS
 62
     0
100
AcDbPoint
 10
4650.411710202707
 20
1946.160214915755
 30
0.0
  0
ENDBLK
  5
39F
330
394
100
AcDbEntity
  8
0
100
AcDbBlockEnd
  0
BLOCK
  5
3AA
330
3A0
100
AcDbEntity
  8
0
100
AcDbBlockBegin
  2
*D51
 70
     1
 10
0.0
 20
0.0
 30
0.0
  3
*D51
  1

  0
LINE
  5
52D
330
3A0
100
AcDbEntity
  8
sunpo
 62
     0
370
    -2
100
AcDbLine
 10
4650.411710202707
 20
1598.928985471646
 30
0.0
 11
4650.411710202707
 21
1840.707348724736
 31
0.0
  0
LINE
  5
52E
330
3A0
100
AcDbEntity
  8
sunpo
 62
     0
370
    -2
100
AcDbLine
 10
4150.403691445383
 20
1584.93186643979
 30
0.0
 11
4150.403691445383
 21
1840.707348724736
 31
0.0
  0
LINE
  5
52F
330
3A0
100
AcDbEntity
  8
sunpo
 62
     0
370
    -2
100
AcDbLine
 10
4620.411710202708
 20
1821.957348724736
 30
0.0
 11
4180.403691445383
 21
1821.957348724736
 31
0.0
  0
INSERT
  5
530
330
3A0
100
AcDbEntity
  8
sunpo
 62
     0
370
    -2
100
AcDbBlockReference
  2
_OPEN
 10
4650.411710202707
 20
1821.957348724736
 30
0.0
 41
30.0
 42
30.0
 43
30.0
  0
INSERT
  5
531
330
3A0
100
AcDbEntity
  8
sunpo
 62
     0
370
    -2
100
AcDbBlockReference
  2
_OPEN
 10
4150.403691445383
 20
1821.957348724736
 30
0.0
 41
30.0
 42
30.0
 43
30.0
 50
180.0
  0
MTEXT
  5
532
330
3A0
100
AcDbEntity
  8
sunpo
 62
     0
370
    20
100
AcDbMText
 10
4400.407700824046
 20
1850.082348724736
 30
0.0
 40
37.5
 41
0.0
 71
     5
 72
     1
  1
\A1;500
 73
     1
 44
1.0
1001
ACAD
1000
MTEXTBEGIN
1070
    73
1070
     1
1070
    44
1040
1.0
1070
    74
1070
     0
1000
MTEXTEND
  0
POINT
  5
533
330
3A0
100
AcDbEntity
  8
DEFPOINTS
 62
     0
100
AcDbPoint
 10
4650.411710202707
 20
1561.428985471646
 30
0.0
  0
POINT
  5
534
330
3A0
100
AcDbEntity
  8
DEFPOINTS
 62
     0
100
AcDbPoint
 10
4150.403691445383
 20
1547.43186643979
 30
0.0
  0
POINT
  5
535
330
3A0
100
AcDbEntity
  8
DEFPOINTS
 62
     0
100
AcDbPoint
 10
4150.403691445383
 20
1821.957348724736
 30
0.0
  0
ENDBLK
  5
3AB
330
3A0
100
AcDbEntity
  8
0
100
AcDbBlockEnd
  0
BLOCK
  5
3B6
330
3AC
100
AcDbEntity
  8
0
100
AcDbBlockBegin
  2
*D52
 70
     1
 10
0.0
 20
0.0
 30
0.0
  3
*D52
  1

  0
LINE
  5
536
330
3AC
100
AcDbEntity
  8
sunpo
 62
     0
370
    -2
100
AcDbLine
 10
4205.403691445384
 20
1411.43186643979
 30
0.0
 11
4043.496790676043
 21
1411.43186643979
 31
0.0
  0
LINE
  5
537
330
3AC
100
AcDbEntity
  8
sunpo
 62
     0
370
    -2
100
AcDbLine
 10
4112.903691445383
 20
1531.43186643979
 30
0.0
 11
4043.496790676043
 21
1531.43186643979
 31
0.0
  0
LINE
  5
538
330
3AC
100
AcDbEntity
  8
sunpo
 62
     0
370
    -2
100
AcDbLine
 10
4062.246790676044
 20
1441.43186643979
 30
0.0
 11
4062.246790676044
 21
1501.431866439791
 31
0.0
  0
INSERT
  5
539
330
3AC
100
AcDbEntity
  8
sunpo
 62
     0
370
    -2
100
AcDbBlockReference
  2
_OPEN
 10
4062.246790676044
 20
1411.43186643979
 30
0.0
 41
30.0
 42
30.0
 43
30.0
 50
270.0
  0
INSERT
  5
53A
330
3AC
100
AcDbEntity
  8
sunpo
 62
     0
370
    -2
100
AcDbBlockReference
  2
_OPEN
 10
4062.246790676044
 20
1531.43186643979
 30
0.0
 41
30.0
 42
30.0
 43
30.0
 50
90.0
  0
MTEXT
  5
53B
330
3AC
100
AcDbEntity
  8
sunpo
 62
     0
370
    20
100
AcDbMText
 10
4034.121790676043
 20
1471.431866439791
 30
0.0
 40
37.5
 41
0.0
 71
     5
 72
     1
  1
\A1;120
 11
0.0000000000000001
 21
1.0
 31
0.0
 73
     1
 44
1.0
1001
ACAD
1000
MTEXTBEGIN
1070
    73
1070
     1
1070
    44
1040
1.0
1070
    74
1070
     0
1000
MTEXTEND
  0
POINT
  5
53C
330
3AC
100
AcDbEntity
  8
DEFPOINTS
 62
     0
100
AcDbPoint
 10
4242.903691445383
 20
1411.43186643979
 30
0.0
  0
POINT
  5
53D
330
3AC
100
AcDbEntity
  8
DEFPOINTS
 62
     0
100
AcDbPoint
 10
4150.403691445383
 20
1531.43186643979
 30
0.0
  0
POINT
  5
53E
330
3AC
100
AcDbEntity
  8
DEFPOINTS
 62
     0
100
AcDbPoint
 10
4062.246790676044
 20
1531.43186643979
 30
0.0
  0
ENDBLK
  5
3B7
330
3AC
100
AcDbEntity
  8
0
100
AcDbBlockEnd
  0
BLOCK
  5
3C2
330
3B8
100
AcDbEntity
  8
0
100
AcDbBlockBegin
  2
*D53
 70
     1
 10
0.0
 20
0.0
 30
0.0
  3
*D53
  1

  0
LINE
  5
53F
330
3B8
100
AcDbEntity
  8
sunpo
 62
     0
370
    -2
100
AcDbLine
 10
3897.907700824045
 20
1581.428979970606
 30
0.0
 11
3804.601788735396
 21
1581.428979970606
 31
0.0
  0
LINE
  5
540
330
3B8
100
AcDbEntity
  8
sunpo
 62
     0
370
    -2
100
AcDbLine
 10
3897.903691445382
 20
1411.43186643979
 30
0.0
 11
3804.601788735396
 21
1411.43186643979
 31
0.0
  0
LINE
  5
541
330
3B8
100
AcDbEntity
  8
sunpo
 62
     0
370
    -2
100
AcDbLine
 10
3823.351788735396
 20
1551.428979970606
 30
0.0
 11
3823.351788735396
 21
1441.43186643979
 31
0.0
  0
INSERT
  5
542
330
3B8
100
AcDbEntity
  8
sunpo
 62
     0
370
    -2
100
AcDbBlockReference
  2
_OPEN
 10
3823.351788735396
 20
1581.428979970606
 30
0.0
 41
30.0
 42
30.0
 43
30.0
 50
90.0
  0
INSERT
  5
543
330
3B8
100
AcDbEntity
  8
sunpo
 62
     0
370
    -2
100
AcDbBlockReference
  2
_OPEN
 10
3823.351788735396
 20
1411.43186643979
 30
0.0
 41
30.0
 42
30.0
 43
30.0
 50
270.0
  0
MTEXT
  5
544
330
3B8
100
AcDbEntity
  8
sunpo
 62
     0
370
    20
100
AcDbMText
 10
3795.226788735396
 20
1496.430423205199
 30
0.0
 40
37.5
 41
0.0
 71
     5
 72
     1
  1
\A1;170
 11
0.0000000000000001
 21
1.0
 31
0.0
 73
     1
 44
1.0
1001
ACAD
1000
MTEXTBEGIN
1070
    73
1070
     1
1070
    44
1040
1.0
1070
    74
1070
     0
1000
MTEXTEND
  0
POINT
  5
545
330
3B8
100
AcDbEntity
  8
DEFPOINTS
 62
     0
100
AcDbPoint
 10
3935.407700824045
 20
1581.428979970606
 30
0.0
  0
POINT
  5
546
330
3B8
100
AcDbEntity
  8
DEFPOINTS
 62
     0
100
AcDbPoint
 10
3935.403691445382
 20
1411.43186643979
 30
0.0
  0
POINT
  5
547
330
3B8
100
AcDbEntity
  8
DEFPOINTS
 62
     0
100
AcDbPoint
 10
3823.351788735396
 20
1411.43186643979
 30
0.0
  0
ENDBLK
  5
3C3
330
3B8
100
AcDbEntity
  8
0
100
AcDbBlockEnd
  0
BLOCK
  5
3CE
330
3C4
100
AcDbEntity
  8
0
100
AcDbBlockBegin
  2
*D54
 70
     1
 10
0.0
 20
0.0
 30
0.0
  3
*D54
  1

  0
LINE
  5
548
330
3C4
100
AcDbEntity
  8
sunpo
 62
     0
370
    -2
100
AcDbLine
 10
3939.636811098825
 20
1731.428979970606
 30
0.0
 11
3719.996986915102
 21
1731.428979970606
 31
0.0
  0
LINE
  5
549
330
3C4
100
AcDbEntity
  8
sunpo
 62
     0
370
    -2
100
AcDbLine
 10
3897.903691445382
 20
1411.43186643979
 30
0.0
 11
3719.996986915102
 21
1411.43186643979
 31
0.0
  0
LINE
  5
54A
330
3C4
100
AcDbEntity
  8
sunpo
 62
     0
370
    -2
100
AcDbLine
 10
3738.746986915102
 20
1701.428979970605
 30
0.0
 11
3738.746986915102
 21
1441.43186643979
 31
0.0
  0
INSERT
  5
54B
330
3C4
100
AcDbEntity
  8
sunpo
 62
     0
370
    -2
100
AcDbBlockReference
  2
_OPEN
 10
3738.746986915102
 20
1731.428979970606
 30
0.0
 41
30.0
 42
30.0
 43
30.0
 50
90.0
  0
INSERT
  5
54C
330
3C4
100
AcDbEntity
  8
sunpo
 62
     0
370
    -2
100
AcDbBlockReference
  2
_OPEN
 10
3738.746986915102
 20
1411.43186643979
 30
0.0
 41
30.0
 42
30.0
 43
30.0
 50
270.0
  0
MTEXT
  5
54D
330
3C4
100
AcDbEntity
  8
sunpo
 62
     0
370
    20
100
AcDbMText
 10
3710.621986915101
 20
1571.430423205199
 30
0.0
 40
37.5
 41
0.0
 71
     5
 72
     1
  1
\A1;320
 11
0.0000000000000001
 21
1.0
 31
0.0
 73
     1
 44
1.0
1001
ACAD
1000
MTEXTBEGIN
1070
    73
1070
     1
1070
    44
1040
1.0
1070
    74
1070
     0
1000
MTEXTEND
  0
POINT
  5
54E
330
3C4
100
AcDbEntity
  8
DEFPOINTS
 62
     0
100
AcDbPoint
 10
3977.136811098825
 20
1731.428979970606
 30
0.0
  0
POINT
  5
54F
330
3C4
100
AcDbEntity
  8
DEFPOINTS
 62
     0
100
AcDbPoint
 10
3935.403691445382
 20
1411.43186643979
 30
0.0
  0
POINT
  5
550
330
3C4
100
AcDbEntity
  8
DEFPOINTS
 62
     0
100
AcDbPoint
 10
3738.746986915102
 20
1411.43186643979
 30
0.0
  0
ENDBLK
  5
3CF
330
3C4
100
AcDbEntity
  8
0
100
AcDbBlockEnd
  0
BLOCK
  5
3DA
330
3D0
100
AcDbEntity
  8
0
100
AcDbBlockBegin
  2
*D55
 70
     1
 10
0.0
 20
0.0
 30
0.0
  3
*D55
  1

  0
LINE
  5
551
330
3D0
100
AcDbEntity
  8
sunpo
 62
     0
370
    -2
100
AcDbLine
 10
3939.636811098825
 20
1731.428979970606
 30
0.0
 11
3804.601788735396
 21
1731.428979970606
 31
0.0
  0
LINE
  5
552
330
3D0
100
AcDbEntity
  8
sunpo
 62
     0
370
    -2
100
AcDbLine
 10
3897.907700824045
 20
1581.428979970606
 30
0.0
 11
3804.601788735396
 21
1581.428979970606
 31
0.0
  0
LINE
  5
553
330
3D0
100
AcDbEntity
  8
sunpo
 62
     0
370
    -2
100
AcDbLine
 10
3823.351788735396
 20
1701.428979970605
 30
0.0
 11
3823.351788735396
 21
1611.428979970606
 31
0.0
  0
INSERT
  5
554
330
3D0
100
AcDbEntity
  8
sunpo
 62
     0
370
    -2
100
AcDbBlockReference
  2
_OPEN
 10
3823.351788735396
 20
1731.428979970606
 30
0.0
 41
30.0
 42
30.0
 43
30.0
 50
90.0
  0
INSERT
  5
555
330
3D0
100
AcDbEntity
  8
sunpo
 62
     0
370
    -2
100
AcDbBlockReference
  2
_OPEN
 10
3823.351788735396
 20
1581.428979970606
 30
0.0
 41
30.0
 42
30.0
 43
30.0
 50
270.0
  0
MTEXT
  5
556
330
3D0
100
AcDbEntity
  8
sunpo
 62
     0
370
    20
100
AcDbMText
 10
3795.226788735396
 20
1656.428979970606
 30
0.0
 40
37.5
 41
0.0
 71
     5
 72
     1
  1
\A1;150
 11
0.0000000000000001
 21
1.0
 31
0.0
 73
     1
 44
1.0
1001
ACAD
1000
MTEXTBEGIN
1070
    73
1070
     1
1070
    44
1040
1.0
1070
    74
1070
     0
1000
MTEXTEND
  0
POINT
  5
557
330
3D0
100
AcDbEntity
  8
DEFPOINTS
 62
     0
100
AcDbPoint
 10
3977.136811098825
 20
1731.428979970606
 30
0.0
  0
POINT
  5
558
330
3D0
100
AcDbEntity
  8
DEFPOINTS
 62
     0
100
AcDbPoint
 10
3935.407700824045
 20
1581.428979970606
 30
0.0
  0
POINT
  5
559
330
3D0
100
AcDbEntity
  8
DEFPOINTS
 62
     0
100
AcDbPoint
 10
3823.351788735396
 20
1581.428979970606
 30
0.0
  0
ENDBLK
  5
3DB
330
3D0
100
AcDbEntity
  8
0
100
AcDbBlockEnd
  0
BLOCK
  5
3E6
330
3DC
100
AcDbEntity
  8
0
100
AcDbBlockBegin
  2
*D56
 70
     1
 10
0.0
 20
0.0
 30
0.0
  3
*D56
  1

  0
LINE
  5
55A
330
3DC
100
AcDbEntity
  8
sunpo
 62
     0
370
    -2
100
AcDbLine
 10
548.0224038140295
 20
890.6914243203864
 30
0.0
 11
390.669678139937
 21
890.6914243203864
 31
0.0
  0
LINE
  5
55B
330
3DC
100
AcDbEntity
  8
sunpo
 62
     0
370
    -2
100
AcDbLine
 10
548.0224038140295
 20
290.6914243203828
 30
0.0
 11
390.6696781399369
 21
290.6914243203828
 31
0.0
  0
LINE
  5
55C
330
3DC
100
AcDbEntity
  8
sunpo
 62
     0
370
    -2
100
AcDbLine
 10
409.419678139937
 20
860.6914243203863
 30
0.0
 11
409.4196781399368
 21
320.6914243203828
 31
0.0
  0
INSERT
  5
55D
330
3DC
100
AcDbEntity
  8
sunpo
 62
     0
370
    -2
100
AcDbBlockReference
  2
_OPEN
 10
409.419678139937
 20
890.6914243203864
 30
0.0
 41
30.0
 42
30.0
 43
30.0
 50
90.0
  0
INSERT
  5
55E
330
3DC
100
AcDbEntity
  8
sunpo
 62
     0
370
    -2
100
AcDbBlockReference
  2
_OPEN
 10
409.4196781399368
 20
290.6914243203828
 30
0.0
 41
30.0
 42
30.0
 43
30.0
 50
270.0
  0
MTEXT
  5
55F
330
3DC
100
AcDbEntity
  8
sunpo
 62
     0
370
    20
100
AcDbMText
 10
381.2946781399369
 20
590.6914243203847
 30
0.0
 40
37.5
 41
0.0
 71
     5
 72
     1
  1
\A1;600(2000)
 11
0.0000000000000001
 21
1.0
 31
0.0
 73
     1
 44
1.0
1001
ACAD
1000
MTEXTBEGIN
1070
    73
1070
     1
1070
    44
1040
1.0
1070
    74
1070
     0
1000
MTEXTEND
  0
POINT
  5
560
330
3DC
100
AcDbEntity
  8
DEFPOINTS
 62
     0
100
AcDbPoint
 10
585.5224038140295
 20
890.6914243203864
 30
0.0
  0
POINT
  5
561
330
3DC
100
AcDbEntity
  8
DEFPOINTS
 62
     0
100
AcDbPoint
 10
585.5224038140295
 20
290.6914243203828
 30
0.0
  0
POINT
  5
562
330
3DC
100
AcDbEntity
  8
DEFPOINTS
 62
     0
100
AcDbPoint
 10
409.4196781399368
 20
290.6914243203828
 30
0.0
  0
ENDBLK
  5
3E7
330
3DC
100
AcDbEntity
  8
0
100
AcDbBlockEnd
  0
BLOCK
  5
3F2
330
3E8
100
AcDbEntity
  8
0
100
AcDbBlockBegin
  2
*D57
 70
     1
 10
0.0
 20
0.0
 30
0.0
  3
*D57
  1

  0
LINE
  5
563
330
3E8
100
AcDbEntity
  8
sunpo
 62
     0
370
    -2
100
AcDbLine
 10
1734.399708400838
 20
1768.929017670733
 30
0.0
 11
1734.399708400838
 21
1964.907366146697
 31
0.0
  0
LINE
  5
564
330
3E8
100
AcDbEntity
  8
sunpo
 62
     0
370
    -2
100
AcDbLine
 10
2334.399708400838
 20
1768.929017670733
 30
0.0
 11
2334.399708400838
 21
1964.907366146697
 31
0.0
  0
LINE
  5
565
330
3E8
100
AcDbEntity
  8
sunpo
 62
     0
370
    -2
100
AcDbLine
 10
1764.399708400838
 20
1946.157366146697
 30
0.0
 11
2304.399708400838
 21
1946.157366146697
 31
0.0
  0
INSERT
  5
566
330
3E8
100
AcDbEntity
  8
sunpo
 62
     0
370
    -2
100
AcDbBlockReference
  2
_OPEN
 10
1734.399708400838
 20
1946.157366146697
 30
0.0
 41
30.0
 42
30.0
 43
30.0
 50
180.0
  0
INSERT
  5
567
330
3E8
100
AcDbEntity
  8
sunpo
 62
     0
370
    -2
100
AcDbBlockReference
  2
_OPEN
 10
2334.399708400838
 20
1946.157366146697
 30
0.0
 41
30.0
 42
30.0
 43
30.0
  0
MTEXT
  5
568
330
3E8
100
AcDbEntity
  8
sunpo
 62
     0
370
    20
100
AcDbMText
 10
2034.399708400838
 20
1974.282366146697
 30
0.0
 40
37.5
 41
0.0
 71
     5
 72
     1
  1
\A1;600(2000)
 73
     1
 44
1.0
1001
ACAD
1000
MTEXTBEGIN
1070
    73
1070
     1
1070
    44
1040
1.0
1070
    74
1070
     0
1000
MTEXTEND
  0
POINT
  5
569
330
3E8
100
AcDbEntity
  8
DEFPOINTS
 62
     0
100
AcDbPoint
 10
1734.399708400838
 20
1731.429017670732
 30
0.0
  0
POINT
  5
56A
330
3E8
100
AcDbEntity
  8
DEFPOINTS
 62
     0
100
AcDbPoint
 10
2334.399708400838
 20
1731.429017670732
 30
0.0
  0
POINT
  5
56B
330
3E8
100
AcDbEntity
  8
DEFPOINTS
 62
     0
100
AcDbPoint
 10
2334.399708400838
 20
1946.157366146697
 30
0.0
  0
ENDBLK
  5
3F3
330
3E8
100
AcDbEntity
  8
0
100
AcDbBlockEnd
  0
BLOCK
  5
3FE
330
3F4
100
AcDbEntity
  8
0
100
AcDbBlockBegin
  2
*D58
 70
     1
 10
0.0
 20
0.0
 30
0.0
  3
*D58
  1

  0
LINE
  5
56C
330
3F4
100
AcDbEntity
  8
sunpo
 62
     0
370
    -2
100
AcDbLine
 10
589.7515140888117
 20
1731.428979970602
 30
0.0
 11
454.7164917253831
 21
1731.428979970602
 31
0.0
  0
LINE
  5
56D
330
3F4
100
AcDbEntity
  8
sunpo
 62
     0
370
    -2
100
AcDbLine
 10
548.0224038140313
 20
1581.428979970602
 30
0.0
 11
454.716491725383
 21
1581.428979970602
 31
0.0
  0
LINE
  5
56E
330
3F4
100
AcDbEntity
  8
sunpo
 62
     0
370
    -2
100
AcDbLine
 10
473.4664917253831
 20
1701.428979970602
 30
0.0
 11
473.466491725383
 21
1611.428979970602
 31
0.0
  0
INSERT
  5
56F
330
3F4
100
AcDbEntity
  8
sunpo
 62
     0
370
    -2
100
AcDbBlockReference
  2
_OPEN
 10
473.4664917253831
 20
1731.428979970602
 30
0.0
 41
30.0
 42
30.0
 43
30.0
 50
90.0
  0
INSERT
  5
570
330
3F4
100
AcDbEntity
  8
sunpo
 62
     0
370
    -2
100
AcDbBlockReference
  2
_OPEN
 10
473.466491725383
 20
1581.428979970602
 30
0.0
 41
30.0
 42
30.0
 43
30.0
 50
270.0
  0
MTEXT
  5
571
330
3F4
100
AcDbEntity
  8
sunpo
 62
     0
370
    20
100
AcDbMText
 10
445.3414917253828
 20
1656.428979970602
 30
0.0
 40
37.5
 41
0.0
 71
     5
 72
     1
  1
\A1;150
 11
0.0000000000000001
 21
1.0
 31
0.0
 73
     1
 44
1.0
1001
ACAD
1000
MTEXTBEGIN
1070
    73
1070
     1
1070
    44
1040
1.0
1070
    74
1070
     0
1000
MTEXTEND
  0
POINT
  5
572
330
3F4
100
AcDbEntity
  8
DEFPOINTS
 62
     0
100
AcDbPoint
 10
627.2515140888117
 20
1731.428979970602
 30
0.0
  0
POINT
  5
573
330
3F4
100
AcDbEntity
  8
DEFPOINTS
 62
     0
100
AcDbPoint
 10
585.5224038140313
 20
1581.428979970602
 30
0.0
  0
POINT
  5
574
330
3F4
100
AcDbEntity
  8
DEFPOINTS
 62
     0
100
AcDbPoint
 10
473.466491725383
 20
1581.428979970602
 30
0.0
  0
ENDBLK
  5
3FF
330
3F4
100
AcDbEntity
  8
0
100
AcDbBlockEnd
  0
BLOCK
  5
40A
330
400
100
AcDbEntity
  8
0
100
AcDbBlockBegin
  2
*D59
 70
     1
 10
0.0
 20
0.0
 30
0.0
  3
*D59
  1

  0
LINE
  5
575
330
400
100
AcDbEntity
  8
sunpo
 62
     0
370
    -2
100
AcDbLine
 10
589.7515140888117
 20
1731.428979970602
 30
0.0
 11
370.1116899050886
 21
1731.428979970602
 31
0.0
  0
LINE
  5
576
330
400
100
AcDbEntity
  8
sunpo
 62
     0
370
    -2
100
AcDbLine
 10
548.0183944353684
 20
1411.431866439787
 30
0.0
 11
370.1116899050885
 21
1411.431866439787
 31
0.0
  0
LINE
  5
577
330
400
100
AcDbEntity
  8
sunpo
 62
     0
370
    -2
100
AcDbLine
 10
388.8616899050886
 20
1701.428979970602
 30
0.0
 11
388.8616899050885
 21
1441.431866439787
 31
0.0
  0
INSERT
  5
578
330
400
100
AcDbEntity
  8
sunpo
 62
     0
370
    -2
100
AcDbBlockReference
  2
_OPEN
 10
388.8616899050886
 20
1731.428979970602
 30
0.0
 41
30.0
 42
30.0
 43
30.0
 50
90.0
  0
INSERT
  5
579
330
400
100
AcDbEntity
  8
sunpo
 62
     0
370
    -2
100
AcDbBlockReference
  2
_OPEN
 10
388.8616899050885
 20
1411.431866439787
 30
0.0
 41
30.0
 42
30.0
 43
30.0
 50
270.0
  0
MTEXT
  5
57A
330
400
100
AcDbEntity
  8
sunpo
 62
     0
370
    20
100
AcDbMText
 10
360.7366899050883
 20
1571.430423205194
 30
0.0
 40
37.5
 41
0.0
 71
     5
 72
     1
  1
\A1;320
 11
0.0000000000000001
 21
1.0
 31
0.0
 73
     1
 44
1.0
1001
ACAD
1000
MTEXTBEGIN
1070
    73
1070
     1
1070
    44
1040
1.0
1070
    74
1070
     0
1000
MTEXTEND
  0
POINT
  5
57B
330
400
100
AcDbEntity
  8
DEFPOINTS
 62
     0
100
AcDbPoint
 10
627.2515140888117
 20
1731.428979970602
 30
0.0
  0
POINT
  5
57C
330
400
100
AcDbEntity
  8
DEFPOINTS
 62
     0
100
AcDbPoint
 10
585.5183944353684
 20
1411.431866439787
 30
0.0
  0
POINT
  5
57D
330
400
100
AcDbEntity
  8
DEFPOINTS
 62
     0
100
AcDbPoint
 10
388.8616899050885
 20
1411.431866439787
 30
0.0
  0
ENDBLK
  5
40B
330
400
100
AcDbEntity
  8
0
100
AcDbBlockEnd
  0
BLOCK
  5
416
330
40C
100
AcDbEntity
  8
0
100
AcDbBlockBegin
  2
*D60
 70
     1
 10
0.0
 20
0.0
 30
0.0
  3
*D60
  1

  0
LINE
  5
57E
330
40C
100
AcDbEntity
  8
sunpo
 62
     0
370
    -2
100
AcDbLine
 10
548.0224038140313
 20
1581.428979970602
 30
0.0
 11
454.716491725383
 21
1581.428979970602
 31
0.0
  0
LINE
  5
57F
330
40C
100
AcDbEntity
  8
sunpo
 62
     0
370
    -2
100
AcDbLine
 10
548.0183944353684
 20
1411.431866439787
 30
0.0
 11
454.716491725383
 21
1411.431866439787
 31
0.0
  0
LINE
  5
580
330
40C
100
AcDbEntity
  8
sunpo
 62
     0
370
    -2
100
AcDbLine
 10
473.466491725383
 20
1551.428979970602
 30
0.0
 11
473.466491725383
 21
1441.431866439787
 31
0.0
  0
INSERT
  5
581
330
40C
100
AcDbEntity
  8
sunpo
 62
     0
370
    -2
100
AcDbBlockReference
  2
_OPEN
 10
473.466491725383
 20
1581.428979970602
 30
0.0
 41
30.0
 42
30.0
 43
30.0
 50
90.0
  0
INSERT
  5
582
330
40C
100
AcDbEntity
  8
sunpo
 62
     0
370
    -2
100
AcDbBlockReference
  2
_OPEN
 10
473.466491725383
 20
1411.431866439787
 30
0.0
 41
30.0
 42
30.0
 43
30.0
 50
270.0
  0
MTEXT
  5
583
330
40C
100
AcDbEntity
  8
sunpo
 62
     0
370
    20
100
AcDbMText
 10
445.3414917253828
 20
1496.430423205195
 30
0.0
 40
37.5
 41
0.0
 71
     5
 72
     1
  1
\A1;170
 11
0.0000000000000001
 21
1.0
 31
0.0
 73
     1
 44
1.0
1001
ACAD
1000
MTEXTBEGIN
1070
    73
1070
     1
1070
    44
1040
1.0
1070
    74
1070
     0
1000
MTEXTEND
  0
POINT
  5
584
330
40C
100
AcDbEntity
  8
DEFPOINTS
 62
     0
100
AcDbPoint
 10
585.5224038140313
 20
1581.428979970602
 30
0.0
  0
POINT
  5
585
330
40C
100
AcDbEntity
  8
DEFPOINTS
 62
     0
100
AcDbPoint
 10
585.5183944353684
 20
1411.431866439787
 30
0.0
  0
POINT
  5
586
330
40C
100
AcDbEntity
  8
DEFPOINTS
 62
     0
100
AcDbPoint
 10
473.466491725383
 20
1411.431866439787
 30
0.0
  0
ENDBLK
  5
417
330
40C
100
AcDbEntity
  8
0
100
AcDbBlockEnd
  0
BLOCK
  5
422
330
418
100
AcDbEntity
  8
0
100
AcDbBlockBegin
  2
*D61
 70
     1
 10
0.0
 20
0.0
 30
0.0
  3
*D61
  1

  0
LINE
  5
587
330
418
100
AcDbEntity
  8
sunpo
 62
     0
370
    -2
100
AcDbLine
 10
1200.51839443537
 20
1598.931834240695
 30
0.0
 11
1200.51839443537
 21
1840.707348724732
 31
0.0
  0
LINE
  5
588
330
418
100
AcDbEntity
  8
sunpo
 62
     0
370
    -2
100
AcDbLine
 10
800.5183944353703
 20
1584.931866439787
 30
0.0
 11
800.5183944353703
 21
1840.707348724732
 31
0.0
  0
LINE
  5
589
330
418
100
AcDbEntity
  8
sunpo
 62
     0
370
    -2
100
AcDbLine
 10
1170.51839443537
 20
1821.957348724733
 30
0.0
 11
830.5183944353702
 21
1821.957348724733
 31
0.0
  0
INSERT
  5
58A
330
418
100
AcDbEntity
  8
sunpo
 62
     0
370
    -2
100
AcDbBlockReference
  2
_OPEN
 10
1200.51839443537
 20
1821.957348724733
 30
0.0
 41
30.0
 42
30.0
 43
30.0
  0
INSERT
  5
58B
330
418
100
AcDbEntity
  8
sunpo
 62
     0
370
    -2
100
AcDbBlockReference
  2
_OPEN
 10
800.5183944353703
 20
1821.957348724733
 30
0.0
 41
30.0
 42
30.0
 43
30.0
 50
180.0
  0
MTEXT
  5
58C
330
418
100
AcDbEntity
  8
sunpo
 62
     0
370
    20
100
AcDbMText
 10
1000.51839443537
 20
1850.082348724733
 30
0.0
 40
37.5
 41
0.0
 71
     5
 72
     1
  1
\A1;400
 73
     1
 44
1.0
1001
ACAD
1000
MTEXTBEGIN
1070
    73
1070
     1
1070
    44
1040
1.0
1070
    74
1070
     0
1000
MTEXTEND
  0
POINT
  5
58D
330
418
100
AcDbEntity
  8
DEFPOINTS
 62
     0
100
AcDbPoint
 10
1200.51839443537
 20
1561.431834240695
 30
0.0
  0
POINT
  5
58E
330
418
100
AcDbEntity
  8
DEFPOINTS
 62
     0
100
AcDbPoint
 10
800.5183944353703
 20
1547.431866439787
 30
0.0
  0
POINT
  5
58F
330
418
100
AcDbEntity
  8
DEFPOINTS
 62
     0
100
AcDbPoint
 10
800.5183944353703
 20
1821.957348724733
 30
0.0
  0
ENDBLK
  5
423
330
418
100
AcDbEntity
  8
0
100
AcDbBlockEnd
  0
BLOCK
  5
42E
330
424
100
AcDbEntity
  8
0
100
AcDbBlockBegin
  2
*D62
 70
     1
 10
0.0
 20
0.0
 30
0.0
  3
*D62
  1

  0
LINE
  5
590
330
424
100
AcDbEntity
  8
sunpo
 62
     0
370
    -2
100
AcDbLine
 10
585.5224038140313
 20
1618.929017670736
 30
0.0
 11
585.5224038140313
 21
1964.910214915752
 31
0.0
  0
LINE
  5
591
330
424
100
AcDbEntity
  8
sunpo
 62
     0
370
    -2
100
AcDbLine
 10
1200.51839443537
 20
1598.931866439787
 30
0.0
 11
1200.51839443537
 21
1964.910214915752
 31
0.0
  0
LINE
  5
592
330
424
100
AcDbEntity
  8
sunpo
 62
     0
370
    -2
100
AcDbLine
 10
615.5224038140313
 20
1946.160214915751
 30
0.0
 11
1170.51839443537
 21
1946.160214915751
 31
0.0
  0
INSERT
  5
593
330
424
100
AcDbEntity
  8
sunpo
 62
     0
370
    -2
100
AcDbBlockReference
  2
_OPEN
 10
585.5224038140313
 20
1946.160214915751
 30
0.0
 41
30.0
 42
30.0
 43
30.0
 50
180.0
  0
INSERT
  5
594
330
424
100
AcDbEntity
  8
sunpo
 62
     0
370
    -2
100
AcDbBlockReference
  2
_OPEN
 10
1200.51839443537
 20
1946.160214915751
 30
0.0
 41
30.0
 42
30.0
 43
30.0
  0
MTEXT
  5
595
330
424
100
AcDbEntity
  8
sunpo
 62
     0
370
    20
100
AcDbMText
 10
893.0203991247008
 20
1974.285214915752
 30
0.0
 40
37.5
 41
0.0
 71
     5
 72
     1
  1
\A1;615
 73
     1
 44
1.0
1001
ACAD
1000
MTEXTBEGIN
1070
    73
1070
     1
1070
    44
1040
1.0
1070
    74
1070
     0
1000
MTEXTEND
  0
POINT
  5
596
330
424
100
AcDbEntity
  8
DEFPOINTS
 62
     0
100
AcDbPoint
 10
585.5224038140313
 20
1581.429017670736
 30
0.0
  0
POINT
  5
597
330
424
100
AcDbEntity
  8
DEFPOINTS
 62
     0
100
AcDbPoint
 10
1200.51839443537
 20
1561.431866439787
 30
0.0
  0
POINT
  5
598
330
424
100
AcDbEntity
  8
DEFPOINTS
 62
     0
100
AcDbPoint
 10
1200.51839443537
 20
1946.160214915751
 30
0.0
  0
ENDBLK
  5
42F
330
424
100
AcDbEntity
  8
0
100
AcDbBlockEnd
  0
BLOCK
  5
43B
330
430
100
AcDbEntity
  8
0
100
AcDbBlockBegin
  2
*D63
 70
     1
 10
0.0
 20
0.0
 30
0.0
  3
*D63
  1

  0
LINE
  5
599
330
430
100
AcDbEntity
  8
sunpo
 62
     0
370
    -2
100
AcDbLine
 10
600.5224038140623
 20
1768.928979970602
 30
0.0
 11
600.5224038140623
 21
1840.707348724732
 31
0.0
  0
LINE
  5
59A
330
430
100
AcDbEntity
  8
sunpo
 62
     0
370
    -2
100
AcDbLine
 10
585.5224038140313
 20
1618.928979970602
 30
0.0
 11
585.5224038140313
 21
1840.707348724732
 31
0.0
  0
LINE
  5
59B
330
430
100
AcDbEntity
  8
sunpo
 62
     0
370
    -2
100
AcDbLine
 10
630.5224038140623
 20
1821.957348724733
 30
0.0
 11
660.5224038140622
 21
1821.957348724733
 31
0.0
  0
LINE
  5
59C
330
430
100
AcDbEntity
  8
sunpo
 62
     0
370
    -2
100
AcDbLine
 10
555.5224038140313
 20
1821.957348724733
 30
0.0
 11
525.5224038140313
 21
1821.957348724733
 31
0.0
  0
MTEXT
  5
59D
330
430
100
AcDbEntity
  8
sunpo
 62
     0
370
    20
100
AcDbMText
 10
593.0224038140468
 20
1873.519848724733
 30
0.0
 40
37.5
 41
0.0
 71
     5
 72
     1
  1
\A1;15
 73
     1
 44
1.0
1001
ACAD
1000
MTEXTBEGIN
1070
    73
1070
     1
1070
    44
1040
1.0
1070
    74
1070
     0
1000
MTEXTEND
  0
INSERT
  5
59E
330
430
100
AcDbEntity
  8
sunpo
 62
     0
370
    -2
100
AcDbBlockReference
  2
_OPEN
 10
600.5224038140623
 20
1821.957348724733
 30
0.0
 41
30.0
 42
30.0
 43
30.0
 50
180.0
  0
INSERT
  5
59F
330
430
100
AcDbEntity
  8
sunpo
 62
     0
370
    -2
100
AcDbBlockReference
  2
_OPEN
 10
585.5224038140313
 20
1821.957348724733
 30
0.0
 41
30.0
 42
30.0
 43
30.0
  0
POINT
  5
5A0
330
430
100
AcDbEntity
  8
DEFPOINTS
 62
     0
100
AcDbPoint
 10
600.5224038140623
 20
1731.428979970602
 30
0.0
  0
POINT
  5
5A1
330
430
100
AcDbEntity
  8
DEFPOINTS
 62
     0
100
AcDbPoint
 10
585.5224038140313
 20
1581.428979970602
 30
0.0
  0
POINT
  5
5A2
330
430
100
AcDbEntity
  8
DEFPOINTS
 62
     0
100
AcDbPoint
 10
585.5224038140313
 20
1821.957348724733
 30
0.0
  0
ENDBLK
  5
43C
330
430
100
AcDbEntity
  8
0
100
AcDbBlockEnd
  0
BLOCK
  5
447
330
43D
100
AcDbEntity
  8
0
100
AcDbBlockBegin
  2
*D64
 70
     1
 10
0.0
 20
0.0
 30
0.0
  3
*D64
  1

  0
LINE
  5
5A3
330
43D
100
AcDbEntity
  8
sunpo
 62
     0
370
    -2
100
AcDbLine
 10
780.5183944353776
 20
1768.928979970602
 30
0.0
 11
780.5183944353776
 21
1840.707348724732
 31
0.0
  0
LINE
  5
5A4
330
43D
100
AcDbEntity
  8
sunpo
 62
     0
370
    -2
100
AcDbLine
 10
600.5224038140623
 20
1768.928979970602
 30
0.0
 11
600.5224038140623
 21
1840.707348724732
 31
0.0
  0
LINE
  5
5A5
330
43D
100
AcDbEntity
  8
sunpo
 62
     0
370
    -2
100
AcDbLine
 10
750.5183944353775
 20
1821.957348724733
 30
0.0
 11
630.5224038140623
 21
1821.957348724733
 31
0.0
  0
INSERT
  5
5A6
330
43D
100
AcDbEntity
  8
sunpo
 62
     0
370
    -2
100
AcDbBlockReference
  2
_OPEN
 10
780.5183944353776
 20
1821.957348724733
 30
0.0
 41
30.0
 42
30.0
 43
30.0
  0
INSERT
  5
5A7
330
43D
100
AcDbEntity
  8
sunpo
 62
     0
370
    -2
100
AcDbBlockReference
  2
_OPEN
 10
600.5224038140623
 20
1821.957348724733
 30
0.0
 41
30.0
 42
30.0
 43
30.0
 50
180.0
  0
MTEXT
  5
5A8
330
43D
100
AcDbEntity
  8
sunpo
 62
     0
370
    20
100
AcDbMText
 10
690.5203991247199
 20
1850.082348724733
 30
0.0
 40
37.5
 41
0.0
 71
     5
 72
     1
  1
\A1;180
 73
     1
 44
1.0
1001
ACAD
1000
MTEXTBEGIN
1070
    73
1070
     1
1070
    44
1040
1.0
1070
    74
1070
     0
1000
MTEXTEND
  0
POINT
  5
5A9
330
43D
100
AcDbEntity
  8
DEFPOINTS
 62
     0
100
AcDbPoint
 10
780.5183944353776
 20
1731.428979970602
 30
0.0
  0
POINT
  5
5AA
330
43D
100
AcDbEntity
  8
DEFPOINTS
 62
     0
100
AcDbPoint
 10
600.5224038140623
 20
1731.428979970602
 30
0.0
  0
POINT
  5
5AB
330
43D
100
AcDbEntity
  8
DEFPOINTS
 62
     0
100
AcDbPoint
 10
600.5224038140623
 20
1821.957348724733
 30
0.0
  0
ENDBLK
  5
448
330
43D
100
AcDbEntity
  8
0
100
AcDbBlockEnd
  0
BLOCK
  5
454
330
449
100
AcDbEntity
  8
0
100
AcDbBlockBegin
  2
*D65
 70
     1
 10
0.0
 20
0.0
 30
0.0
  3
*D65
  1

  0
LINE
  5
5AC
330
449
100
AcDbEntity
  8
sunpo
 62
     0
370
    -2
100
AcDbLine
 10
780.5183944353776
 20
1768.928979970602
 30
0.0
 11
780.5183944353776
 21
1840.707348724732
 31
0.0
  0
LINE
  5
5AD
330
449
100
AcDbEntity
  8
sunpo
 62
     0
370
    -2
100
AcDbLine
 10
800.5183944353703
 20
1568.931866439787
 30
0.0
 11
800.5183944353703
 21
1840.707348724732
 31
0.0
  0
LINE
  5
5AE
330
449
100
AcDbEntity
  8
sunpo
 62
     0
370
    -2
100
AcDbLine
 10
750.5183944353775
 20
1821.957348724733
 30
0.0
 11
720.5183944353775
 21
1821.957348724733
 31
0.0
  0
LINE
  5
5AF
330
449
100
AcDbEntity
  8
sunpo
 62
     0
370
    -2
100
AcDbLine
 10
830.5183944353702
 20
1821.957348724733
 30
0.0
 11
860.5183944353703
 21
1821.957348724733
 31
0.0
  0
MTEXT
  5
5B0
330
449
100
AcDbEntity
  8
sunpo
 62
     0
370
    20
100
AcDbMText
 10
790.5183944353739
 20
1873.519848724733
 30
0.0
 40
37.5
 41
0.0
 71
     5
 72
     1
  1
\A1;20
 73
     1
 44
1.0
1001
ACAD
1000
MTEXTBEGIN
1070
    73
1070
     1
1070
    44
1040
1.0
1070
    74
1070
     0
1000
MTEXTEND
  0
INSERT
  5
5B1
330
449
100
AcDbEntity
  8
sunpo
 62
     0
370
    -2
100
AcDbBlockReference
  2
_OPEN
 10
780.5183944353776
 20
1821.957348724733
 30
0.0
 41
30.0
 42
30.0
 43
30.0
  0
INSERT
  5
5B2
330
449
100
AcDbEntity
  8
sunpo
 62
     0
370
    -2
100
AcDbBlockReference
  2
_OPEN
 10
800.5183944353703
 20
1821.957348724733
 30
0.0
 41
30.0
 42
30.0
 43
30.0
 50
180.0
  0
POINT
  5
5B3
330
449
100
AcDbEntity
  8
DEFPOINTS
 62
     0
100
AcDbPoint
 10
780.5183944353776
 20
1731.428979970602
 30
0.0
  0
POINT
  5
5B4
330
449
100
AcDbEntity
  8
DEFPOINTS
 62
     0
100
AcDbPoint
 10
800.5183944353703
 20
1531.431866439787
 30
0.0
  0
POINT
  5
5B5
330
449
100
AcDbEntity
  8
DEFPOINTS
 62
     0
100
AcDbPoint
 10
800.5183944353703
 20
1821.957348724733
 30
0.0
  0
ENDBLK
  5
455
330
449
100
AcDbEntity
  8
0
100
AcDbBlockEnd
  0
BLOCK
  5
460
330
456
100
AcDbEntity
  8
0
100
AcDbBlockBegin
  2
*D66
 70
     1
 10
0.0
 20
0.0
 30
0.0
  3
*D66
  1

  0
LINE
  5
5B6
330
456
100
AcDbEntity
  8
sunpo
 62
     0
370
    -2
100
AcDbLine
 10
1238.01839443537
 20
1561.431866439787
 30
0.0
 11
1380.381642956734
 21
1561.431866439787
 31
0.0
  0
LINE
  5
5B7
330
456
100
AcDbEntity
  8
sunpo
 62
     0
370
    -2
100
AcDbLine
 10
1238.01839443537
 20
1411.431866439787
 30
0.0
 11
1380.381642956734
 21
1411.431866439787
 31
0.0
  0
LINE
  5
5B8
330
456
100
AcDbEntity
  8
sunpo
 62
     0
370
    -2
100
AcDbLine
 10
1361.631642956734
 20
1531.431866439787
 30
0.0
 11
1361.631642956734
 21
1441.431866439787
 31
0.0
  0
INSERT
  5
5B9
330
456
100
AcDbEntity
  8
sunpo
 62
     0
370
    -2
100
AcDbBlockReference
  2
_OPEN
 10
1361.631642956734
 20
1561.431866439787
 30
0.0
 41
30.0
 42
30.0
 43
30.0
 50
90.0
  0
INSERT
  5
5BA
330
456
100
AcDbEntity
  8
sunpo
 62
     0
370
    -2
100
AcDbBlockReference
  2
_OPEN
 10
1361.631642956734
 20
1411.431866439787
 30
0.0
 41
30.0
 42
30.0
 43
30.0
 50
270.0
  0
MTEXT
  5
5BB
330
456
100
AcDbEntity
  8
sunpo
 62
     0
370
    20
100
AcDbMText
 10
1333.506642956734
 20
1486.431866439787
 30
0.0
 40
37.5
 41
0.0
 71
     5
 72
     1
  1
\A1;150
 11
0.0000000000000001
 21
1.0
 31
0.0
 73
     1
 44
1.0
1001
ACAD
1000
MTEXTBEGIN
1070
    73
1070
     1
1070
    44
1040
1.0
1070
    74
1070
     0
1000
MTEXTEND
  0
POINT
  5
5BC
330
456
100
AcDbEntity
  8
DEFPOINTS
 62
     0
100
AcDbPoint
 10
1200.51839443537
 20
1561.431866439787
 30
0.0
  0
POINT
  5
5BD
330
456
100
AcDbEntity
  8
DEFPOINTS
 62
     0
100
AcDbPoint
 10
1200.51839443537
 20
1411.431866439787
 30
0.0
  0
POINT
  5
5BE
330
456
100
AcDbEntity
  8
DEFPOINTS
 62
     0
100
AcDbPoint
 10
1361.631642956734
 20
1411.431866439787
 30
0.0
  0
ENDBLK
  5
461
330
456
100
AcDbEntity
  8
0
100
AcDbBlockEnd
  0
BLOCK
  5
46C
330
462
100
AcDbEntity
  8
0
100
AcDbBlockBegin
  2
*D67
 70
     1
 10
0.0
 20
0.0
 30
0.0
  3
*D67
  1

  0
LINE
  5
5BF
330
462
100
AcDbEntity
  8
sunpo
 62
     0
370
    -2
100
AcDbLine
 10
855.5183944353702
 20
1411.431866439787
 30
0.0
 11
693.6114936660305
 21
1411.431866439787
 31
0.0
  0
LINE
  5
5C0
330
462
100
AcDbEntity
  8
sunpo
 62
     0
370
    -2
100
AcDbLine
 10
763.0183944353703
 20
1531.431866439787
 30
0.0
 11
693.6114936660305
 21
1531.431866439787
 31
0.0
  0
LINE
  5
5C1
330
462
100
AcDbEntity
  8
sunpo
 62
     0
370
    -2
100
AcDbLine
 10
712.3614936660305
 20
1441.431866439787
 30
0.0
 11
712.3614936660305
 21
1501.431866439787
 31
0.0
  0
INSERT
  5
5C2
330
462
100
AcDbEntity
  8
sunpo
 62
     0
370
    -2
100
AcDbBlockReference
  2
_OPEN
 10
712.3614936660305
 20
1411.431866439787
 30
0.0
 41
30.0
 42
30.0
 43
30.0
 50
270.0
  0
INSERT
  5
5C3
330
462
100
AcDbEntity
  8
sunpo
 62
     0
370
    -2
100
AcDbBlockReference
  2
_OPEN
 10
712.3614936660305
 20
1531.431866439787
 30
0.0
 41
30.0
 42
30.0
 43
30.0
 50
90.0
  0
MTEXT
  5
5C4
330
462
100
AcDbEntity
  8
sunpo
 62
     0
370
    20
100
AcDbMText
 10
684.2364936660303
 20
1471.431866439787
 30
0.0
 40
37.5
 41
0.0
 71
     5
 72
     1
  1
\A1;120
 11
0.0000000000000001
 21
1.0
 31
0.0
 73
     1
 44
1.0
1001
ACAD
1000
MTEXTBEGIN
1070
    73
1070
     1
1070
    44
1040
1.0
1070
    74
1070
     0
1000
MTEXTEND
  0
POINT
  5
5C5
330
462
100
AcDbEntity
  8
DEFPOINTS
 62
     0
100
AcDbPoint
 10
893.0183944353702
 20
1411.431866439787
 30
0.0
  0
POINT
  5
5C6
330
462
100
AcDbEntity
  8
DEFPOINTS
 62
     0
100
AcDbPoint
 10
800.5183944353703
 20
1531.431866439787
 30
0.0
  0
POINT
  5
5C7
330
462
100
AcDbEntity
  8
DEFPOINTS
 62
     0
100
AcDbPoint
 10
712.3614936660305
 20
1531.431866439787
 30
0.0
  0
ENDBLK
  5
46D
330
462
100
AcDbEntity
  8
0
100
AcDbBlockEnd
  0
BLOCK
  5
478
330
46E
100
AcDbEntity
  8
0
100
AcDbBlockBegin
  2
*D68
 70
     1
 10
0.0
 20
0.0
 30
0.0
  3
*D68
  1

  0
LINE
  5
5C8
330
46E
100
AcDbEntity
  8
sunpo
 62
     0
370
    -2
100
AcDbLine
 10
1696.899708400838
 20
1731.429017670732
 30
0.0
 11
1517.890738327169
 21
1731.429017670733
 31
0.0
  0
LINE
  5
5C9
330
46E
100
AcDbEntity
  8
sunpo
 62
     0
370
    -2
100
AcDbLine
 10
1696.899708400838
 20
1411.429017670736
 30
0.0
 11
1517.890738327169
 21
1411.429017670736
 31
0.0
  0
LINE
  5
5CA
330
46E
100
AcDbEntity
  8
sunpo
 62
     0
370
    -2
100
AcDbLine
 10
1536.640738327169
 20
1701.429017670732
 30
0.0
 11
1536.640738327169
 21
1441.429017670736
 31
0.0
  0
INSERT
  5
5CB
330
46E
100
AcDbEntity
  8
sunpo
 62
     0
370
    -2
100
AcDbBlockReference
  2
_OPEN
 10
1536.640738327169
 20
1731.429017670732
 30
0.0
 41
30.0
 42
30.0
 43
30.0
 50
90.0
  0
INSERT
  5
5CC
330
46E
100
AcDbEntity
  8
sunpo
 62
     0
370
    -2
100
AcDbBlockReference
  2
_OPEN
 10
1536.640738327169
 20
1411.429017670736
 30
0.0
 41
30.0
 42
30.0
 43
30.0
 50
270.0
  0
MTEXT
  5
5CD
330
46E
100
AcDbEntity
  8
sunpo
 62
     0
370
    20
100
AcDbMText
 10
1508.515738327169
 20
1571.429017670735
 30
0.0
 40
37.5
 41
0.0
 71
     5
 72
     1
  1
\A1;320
 11
0.0000000000000001
 21
1.0
 31
0.0
 73
     1
 44
1.0
1001
ACAD
1000
MTEXTBEGIN
1070
    73
1070
     1
1070
    44
1040
1.0
1070
    74
1070
     0
1000
MTEXTEND
  0
POINT
  5
5CE
330
46E
100
AcDbEntity
  8
DEFPOINTS
 62
     0
100
AcDbPoint
 10
1734.399708400838
 20
1731.429017670732
 30
0.0
  0
POINT
  5
5CF
330
46E
100
AcDbEntity
  8
DEFPOINTS
 62
     0
100
AcDbPoint
 10
1734.399708400838
 20
1411.429017670736
 30
0.0
  0
POINT
  5
5D0
330
46E
100
AcDbEntity
  8
DEFPOINTS
 62
     0
100
AcDbPoint
 10
1536.640738327169
 20
1411.429017670736
 30
0.0
  0
ENDBLK
  5
479
330
46E
100
AcDbEntity
  8
0
100
AcDbBlockEnd
  0
BLOCK
  5
484
330
47A
100
AcDbEntity
  8
0
100
AcDbBlockBegin
  2
*D69
 70
     1
 10
0.0
 20
0.0
 30
0.0
  3
*D69
  1

  0
LINE
  5
5D1
330
47A
100
AcDbEntity
  8
sunpo
 62
     0
370
    -2
100
AcDbLine
 10
1696.899708400838
 20
1561.429017670736
 30
0.0
 11
1609.488394356009
 21
1561.429017670736
 31
0.0
  0
LINE
  5
5D2
330
47A
100
AcDbEntity
  8
sunpo
 62
     0
370
    -2
100
AcDbLine
 10
1696.899708400838
 20
1411.429017670736
 30
0.0
 11
1609.488394356009
 21
1411.429017670736
 31
0.0
  0
LINE
  5
5D3
330
47A
100
AcDbEntity
  8
sunpo
 62
     0
370
    -2
100
AcDbLine
 10
1628.238394356008
 20
1531.429017670736
 30
0.0
 11
1628.238394356008
 21
1441.429017670736
 31
0.0
  0
INSERT
  5
5D4
330
47A
100
AcDbEntity
  8
sunpo
 62
     0
370
    -2
100
AcDbBlockReference
  2
_OPEN
 10
1628.238394356009
 20
1561.429017670736
 30
0.0
 41
30.0
 42
30.0
 43
30.0
 50
90.0
  0
INSERT
  5
5D5
330
47A
100
AcDbEntity
  8
sunpo
 62
     0
370
    -2
100
AcDbBlockReference
  2
_OPEN
 10
1628.238394356008
 20
1411.429017670736
 30
0.0
 41
30.0
 42
30.0
 43
30.0
 50
270.0
  0
MTEXT
  5
5D6
330
47A
100
AcDbEntity
  8
sunpo
 62
     0
370
    20
100
AcDbMText
 10
1600.113394356009
 20
1486.429017670737
 30
0.0
 40
37.5
 41
0.0
 71
     5
 72
     1
  1
\A1;150
 11
0.0000000000000001
 21
1.0
 31
0.0
 73
     1
 44
1.0
1001
ACAD
1000
MTEXTBEGIN
1070
    73
1070
     1
1070
    44
1040
1.0
1070
    74
1070
     0
1000
MTEXTEND
  0
POINT
  5
5D7
330
47A
100
AcDbEntity
  8
DEFPOINTS
 62
     0
100
AcDbPoint
 10
1734.399708400838
 20
1561.429017670736
 30
0.0
  0
POINT
  5
5D8
330
47A
100
AcDbEntity
  8
DEFPOINTS
 62
     0
100
AcDbPoint
 10
1734.399708400838
 20
1411.429017670736
 30
0.0
  0
POINT
  5
5D9
330
47A
100
AcDbEntity
  8
DEFPOINTS
 62
     0
100
AcDbPoint
 10
1628.238394356008
 20
1411.429017670736
 30
0.0
  0
ENDBLK
  5
485
330
47A
100
AcDbEntity
  8
0
100
AcDbBlockEnd
  0
BLOCK
  5
490
330
486
100
AcDbEntity
  8
0
100
AcDbBlockBegin
  2
*D70
 70
     1
 10
0.0
 20
0.0
 30
0.0
  3
*D70
  1

  0
LINE
  5
5DA
330
486
100
AcDbEntity
  8
sunpo
 62
     0
370
    -2
100
AcDbLine
 10
585.5224038140295
 20
928.1914243203864
 30
0.0
 11
585.5224038140295
 21
1111.30787766186
 31
0.0
  0
LINE
  5
5DB
330
486
100
AcDbEntity
  8
sunpo
 62
     0
370
    -2
100
AcDbLine
 10
800.5224038140314
 20
928.1914243203864
 30
0.0
 11
800.5224038140314
 21
1111.30787766186
 31
0.0
  0
LINE
  5
5DC
330
486
100
AcDbEntity
  8
sunpo
 62
     0
370
    -2
100
AcDbLine
 10
615.5224038140295
 20
1092.55787766186
 30
0.0
 11
770.5224038140313
 21
1092.55787766186
 31
0.0
  0
INSERT
  5
5DD
330
486
100
AcDbEntity
  8
sunpo
 62
     0
370
    -2
100
AcDbBlockReference
  2
_OPEN
 10
585.5224038140295
 20
1092.55787766186
 30
0.0
 41
30.0
 42
30.0
 43
30.0
 50
180.0
  0
INSERT
  5
5DE
330
486
100
AcDbEntity
  8
sunpo
 62
     0
370
    -2
100
AcDbBlockReference
  2
_OPEN
 10
800.5224038140314
 20
1092.55787766186
 30
0.0
 41
30.0
 42
30.0
 43
30.0
  0
MTEXT
  5
5DF
330
486
100
AcDbEntity
  8
sunpo
 62
     0
370
    20
100
AcDbMText
 10
693.0224038140304
 20
1120.68287766186
 30
0.0
 40
37.5
 41
0.0
 71
     5
 72
     1
  1
\A1;215
 73
     1
 44
1.0
1001
ACAD
1000
MTEXTBEGIN
1070
    73
1070
     1
1070
    44
1040
1.0
1070
    74
1070
     0
1000
MTEXTEND
  0
POINT
  5
5E0
330
486
100
AcDbEntity
  8
DEFPOINTS
 62
     0
100
AcDbPoint
 10
585.5224038140295
 20
890.6914243203864
 30
0.0
  0
POINT
  5
5E1
330
486
100
AcDbEntity
  8
DEFPOINTS
 62
     0
100
AcDbPoint
 10
800.5224038140314
 20
890.6914243203864
 30
0.0
  0
POINT
  5
5E2
330
486
100
AcDbEntity
  8
DEFPOINTS
 62
     0
100
AcDbPoint
 10
800.5224038140314
 20
1092.55787766186
 30
0.0
  0
ENDBLK
  5
491
330
486
100
AcDbEntity
  8
0
100
AcDbBlockEnd
  0
BLOCK
  5
49C
330
492
100
AcDbEntity
  8
0
100
AcDbBlockBegin
  2
*D71
 70
     1
 10
0.0
 20
0.0
 30
0.0
  3
*D71
  1

  0
LINE
  5
5E3
330
492
100
AcDbEntity
  8
sunpo
 62
     0
370
    -2
100
AcDbLine
 10
600.5224038140623
 20
928.1914243203864
 30
0.0
 11
600.5224038140623
 21
1051.868759335117
 31
0.0
  0
LINE
  5
5E4
330
492
100
AcDbEntity
  8
sunpo
 62
     0
370
    -2
100
AcDbLine
 10
780.5183944353703
 20
928.1914243203864
 30
0.0
 11
780.5183944353703
 21
1051.868759335117
 31
0.0
  0
LINE
  5
5E5
330
492
100
AcDbEntity
  8
sunpo
 62
     0
370
    -2
100
AcDbLine
 10
630.5224038140623
 20
1033.118759335117
 30
0.0
 11
750.5183944353703
 21
1033.118759335117
 31
0.0
  0
INSERT
  5
5E6
330
492
100
AcDbEntity
  8
sunpo
 62
     0
370
    -2
100
AcDbBlockReference
  2
_OPEN
 10
600.5224038140623
 20
1033.118759335117
 30
0.0
 41
30.0
 42
30.0
 43
30.0
 50
180.0
  0
INSERT
  5
5E7
330
492
100
AcDbEntity
  8
sunpo
 62
     0
370
    -2
100
AcDbBlockReference
  2
_OPEN
 10
780.5183944353703
 20
1033.118759335117
 30
0.0
 41
30.0
 42
30.0
 43
30.0
  0
MTEXT
  5
5E8
330
492
100
AcDbEntity
  8
sunpo
 62
     0
370
    20
100
AcDbMText
 10
690.5203991247162
 20
1061.243759335117
 30
0.0
 40
37.5
 41
0.0
 71
     5
 72
     1
  1
\A1;180
 73
     1
 44
1.0
1001
ACAD
1000
MTEXTBEGIN
1070
    73
1070
     1
1070
    44
1040
1.0
1070
    74
1070
     0
1000
MTEXTEND
  0
POINT
  5
5E9
330
492
100
AcDbEntity
  8
DEFPOINTS
 62
     0
100
AcDbPoint
 10
600.5224038140623
 20
890.6914243203864
 30
0.0
  0
POINT
  5
5EA
330
492
100
AcDbEntity
  8
DEFPOINTS
 62
     0
100
AcDbPoint
 10
780.5183944353703
 20
890.6914243203864
 30
0.0
  0
POINT
  5
5EB
330
492
100
AcDbEntity
  8
DEFPOINTS
 62
     0
100
AcDbPoint
 10
780.5183944353703
 20
1033.118759335117
 30
0.0
  0
ENDBLK
  5
49D
330
492
100
AcDbEntity
  8
0
100
AcDbBlockEnd
  0
BLOCK
  5
4A8
330
49E
100
AcDbEntity
  8
0
100
AcDbBlockBegin
  2
*D72
 70
     1
 10
0.0
 20
0.0
 30
0.0
  3
*D72
  1

  0
LINE
  5
5EC
330
49E
100
AcDbEntity
  8
sunpo
 62
     0
370
    -2
100
AcDbLine
 10
800.5224038140314
 20
928.1914243203864
 30
0.0
 11
800.5224038140314
 21
1111.30787766186
 31
0.0
  0
LINE
  5
5ED
330
49E
100
AcDbEntity
  8
sunpo
 62
     0
370
    -2
100
AcDbLine
 10
1200.522403814029
 20
928.1914243203864
 30
0.0
 11
1200.522403814029
 21
1111.30787766186
 31
0.0
  0
LINE
  5
5EE
330
49E
100
AcDbEntity
  8
sunpo
 62
     0
370
    -2
100
AcDbLine
 10
830.5224038140313
 20
1092.55787766186
 30
0.0
 11
1170.522403814029
 21
1092.55787766186
 31
0.0
  0
INSERT
  5
5EF
330
49E
100
AcDbEntity
  8
sunpo
 62
     0
370
    -2
100
AcDbBlockReference
  2
_OPEN
 10
800.5224038140314
 20
1092.55787766186
 30
0.0
 41
30.0
 42
30.0
 43
30.0
 50
180.0
  0
INSERT
  5
5F0
330
49E
100
AcDbEntity
  8
sunpo
 62
     0
370
    -2
100
AcDbBlockReference
  2
_OPEN
 10
1200.522403814029
 20
1092.55787766186
 30
0.0
 41
30.0
 42
30.0
 43
30.0
  0
MTEXT
  5
5F1
330
49E
100
AcDbEntity
  8
sunpo
 62
     0
370
    20
100
AcDbMText
 10
1000.52240381403
 20
1120.68287766186
 30
0.0
 40
37.5
 41
0.0
 71
     5
 72
     1
  1
\A1;400
 73
     1
 44
1.0
1001
ACAD
1000
MTEXTBEGIN
1070
    73
1070
     1
1070
    44
1040
1.0
1070
    74
1070
     0
1000
MTEXTEND
  0
POINT
  5
5F2
330
49E
100
AcDbEntity
  8
DEFPOINTS
 62
     0
100
AcDbPoint
 10
800.5224038140314
 20
890.6914243203864
 30
0.0
  0
POINT
  5
5F3
330
49E
100
AcDbEntity
  8
DEFPOINTS
 62
     0
100
AcDbPoint
 10
1200.522403814029
 20
890.6914243203864
 30
0.0
  0
POINT
  5
5F4
330
49E
100
AcDbEntity
  8
DEFPOINTS
 62
     0
100
AcDbPoint
 10
1200.522403814029
 20
1092.55787766186
 30
0.0
  0
ENDBLK
  5
4A9
330
49E
100
AcDbEntity
  8
0
100
AcDbBlockEnd
  0
BLOCK
  5
4B4
330
4AA
100
AcDbEntity
  8
0
100
AcDbBlockBegin
  2
*D73
 70
     1
 10
0.0
 20
0.0
 30
0.0
  3
*D73
  1

  0
LINE
  5
5F5
330
4AA
100
AcDbEntity
  8
sunpo
 62
     0
370
    -2
100
AcDbLine
 10
585.5224038140295
 20
928.1914243203864
 30
0.0
 11
585.5224038140295
 21
1180.864284789957
 31
0.0
  0
LINE
  5
5F6
330
4AA
100
AcDbEntity
  8
sunpo
 62
     0
370
    -2
100
AcDbLine
 10
1200.522403814029
 20
928.1914243203864
 30
0.0
 11
1200.522403814029
 21
1180.864284789957
 31
0.0
  0
LINE
  5
5F7
330
4AA
100
AcDbEntity
  8
sunpo
 62
     0
370
    -2
100
AcDbLine
 10
615.5224038140295
 20
1162.114284789957
 30
0.0
 11
1170.522403814029
 21
1162.114284789957
 31
0.0
  0
INSERT
  5
5F8
330
4AA
100
AcDbEntity
  8
sunpo
 62
     0
370
    -2
100
AcDbBlockReference
  2
_OPEN
 10
585.5224038140295
 20
1162.114284789957
 30
0.0
 41
30.0
 42
30.0
 43
30.0
 50
180.0
  0
INSERT
  5
5F9
330
4AA
100
AcDbEntity
  8
sunpo
 62
     0
370
    -2
100
AcDbBlockReference
  2
_OPEN
 10
1200.522403814029
 20
1162.114284789957
 30
0.0
 41
30.0
 42
30.0
 43
30.0
  0
MTEXT
  5
5FA
330
4AA
100
AcDbEntity
  8
sunpo
 62
     0
370
    20
100
AcDbMText
 10
893.0224038140295
 20
1190.239284789957
 30
0.0
 40
37.5
 41
0.0
 71
     5
 72
     1
  1
\A1;615
 73
     1
 44
1.0
1001
ACAD
1000
MTEXTBEGIN
1070
    73
1070
     1
1070
    44
1040
1.0
1070
    74
1070
     0
1000
MTEXTEND
  0
POINT
  5
5FB
330
4AA
100
AcDbEntity
  8
DEFPOINTS
 62
     0
100
AcDbPoint
 10
585.5224038140295
 20
890.6914243203864
 30
0.0
  0
POINT
  5
5FC
330
4AA
100
AcDbEntity
  8
DEFPOINTS
 62
     0
100
AcDbPoint
 10
1200.522403814029
 20
890.6914243203864
 30
0.0
  0
POINT
  5
5FD
330
4AA
100
AcDbEntity
  8
DEFPOINTS
 62
     0
100
AcDbPoint
 10
1200.522403814029
 20
1162.114284789957
 30
0.0
  0
ENDBLK
  5
4B5
330
4AA
100
AcDbEntity
  8
0
100
AcDbBlockEnd
  0
ENDSEC
  0
SECTION
  2
ENTITIES
  0
LWPOLYLINE
  5
27A
330
21
100
AcDbEntity
  8
0
100
AcDbPolyline
 90
        4
 70
     1
 43
0.0
 10
3449.889340467854
 20
2298.217280056913
 10
6649.778646856532
 20
2298.217280056913
 10
6649.778646856532
 20
0.0000176707362698
 10
3449.889340467854
 20
0.0000176707362698
  0
LINE
  5
27B
330
21
100
AcDbEntity
  8
1
  6
Continuous
 62
     7
370
     9
100
AcDbLine
 10
6649.778646856532
 20
118.4003970912345
 30
0.0
 11
5880.176180623301
 21
118.4003970912345
 31
0.0
  0
LINE
  5
27C
330
21
100
AcDbEntity
  8
1
  6
Continuous
 62
     7
370
     9
100
AcDbLine
 10
6649.778646856532
 20
59.20020738098537
 30
0.0
 11
5880.176180623301
 21
59.20020738098537
 31
0.0
  0
LINE
  5
27D
330
21
100
AcDbEntity
  8
1
  6
Continuous
 62
     7
370
     9
100
AcDbLine
 10
6649.778646856532
 20
177.6005868014836
 30
0.0
 11
5880.176180623301
 21
177.6005868014836
 31
0.0
  0
LINE
  5
27E
330
21
100
AcDbEntity
  8
1
  6
Continuous
 62
     7
370
     9
100
AcDbLine
 10
5880.176180623301
 20
236.8007765117327
 30
0.0
 11
5880.176180623301
 21
0.0000176707362698
 31
0.0
  0
LINE
  5
27F
330
21
100
AcDbEntity
  8
1
  6
Continuous
 62
     7
370
     9
100
AcDbLine
 10
6649.778646856532
 20
236.8007765117327
 30
0.0
 11
5880.176180623301
 21
236.8007765117327
 31
0.0
  0
TEXT
  5
280
330
21
100
AcDbEntity
  8
1
  6
Continuous
 62
     7
370
     9
100
AcDbText
 10
5924.475008511658
 20
16.74082011515911
 30
0.0
 40
35.52011382614909
  1
高知県コンクリート製品工業組合
 11
5924.475008511658
 21
10.24983484743643
 31
0.0
100
AcDbText
 73
     1
  0
TEXT
  5
281
330
21
100
AcDbEntity
  8
1
  6
Continuous
 62
     7
370
     9
100
AcDbText
 10
5968.359716476451
 20
194.42910074507
 30
0.0
 40
35.52011382614909
  1
歩車道境界ブロック付L型側溝
 11
5968.359716476451
 21
187.9381154773473
 31
0.0
100
AcDbText
 73
     1
  0
TEXT
  5
282
330
21
100
AcDbEntity
  8
1
  6
Continuous
 62
     7
370
     9
100
AcDbText
 10
6007.298191949896
 20
77.63764711635649
 30
0.0
 40
35.52011382614909
  1
四国ブロック工業株式会社
 11
6007.298191949896
 21
71.14666184863381
 31
0.0
100
AcDbText
 73
     1
  0
TEXT
  5
283
330
21
100
AcDbEntity
  8
1
  6
Continuous
 62
     7
370
     9
100
AcDbText
 10
5880.641207689423
 20
268.8338037987558
 30
0.0
 40
35.52011382614909
  1
参考重量　: 191kg(638kg)
 11
5880.641207689423
 21
262.3428185310331
 31
0.0
100
AcDbText
 73
     1
  0
TEXT
  5
284
330
21
100
AcDbEntity
  8
1
  6
Continuous
 62
     7
370
     9
100
AcDbText
 10
6007.535488785888
 20
135.4978368266054
 30
0.0
 40
35.52011382614909
  1
PL-500 標準 L=600(2000)
 11
6007.535488785888
 21
129.0068515588828
 31
0.0
100
AcDbText
 73
     1
  0
LINE
  5
285
330
21
100
AcDbEntity
  8
seihin
370
    25
100
AcDbLine
 10
4130.403691445383
 20
890.69142432039
 30
0.0
 11
4130.403691445383
 21
290.6914243203864
 31
0.0
  0
LINE
  5
286
330
21
100
AcDbEntity
  8
seihin
370
    25
100
AcDbLine
 10
3950.411710202708
 20
290.6914243203901
 30
0.0
 11
3950.411710202708
 21
890.69142432039
 31
0.0
  0
DIMENSION
  5
287
330
21
100
AcDbEntity
  8
sunpo
370
    20
100
AcDbDimension
  2
*D38
 10
4650.411710202707
 20
1162.114284789961
 30
0.0
 11
4292.909705513375
 21
1190.239284789961
 31
0.0
 70
    32
 71
     5
 42
715.0040093786647
  3
20
100
AcDbAlignedDimension
 13
3935.407700824043
 23
890.69142432039
 33
0.0
 14
4650.411710202707
 24
890.69142432039
 34
0.0
100
AcDbRotatedDimension
  0
DIMENSION
  5
288
330
21
100
AcDbEntity
  8
sunpo
370
    20
100
AcDbDimension
  2
*D39
 10
4650.411710202707
 20
1092.557877661864
 30
0.0
 11
4400.409705513376
 21
1120.682877661864
 31
0.0
 70
    32
 71
     5
 42
500.0040093786629
  3
20
100
AcDbAlignedDimension
 13
4150.407700824045
 23
890.69142432039
 33
0.0
 14
4650.411710202707
 24
890.69142432039
 34
0.0
100
AcDbRotatedDimension
  0
DIMENSION
  5
289
330
21
100
AcDbEntity
  8
sunpo
370
    20
100
AcDbDimension
  2
*D40
 10
4130.403691445383
 20
1033.11875933512
 30
0.0
 11
4040.405696134729
 21
1061.24375933512
 31
0.0
 70
    32
 71
     5
 42
179.995990621308
  3
20
100
AcDbAlignedDimension
 13
3950.407700824076
 23
890.69142432039
 33
0.0
 14
4130.403691445383
 24
890.69142432039
 34
0.0
100
AcDbRotatedDimension
  0
DIMENSION
  5
28A
330
21
100
AcDbEntity
  8
sunpo
370
    20
100
AcDbDimension
  2
*D41
 10
4150.407700824045
 20
1092.557877661864
 30
0.0
 11
4042.907700824044
 21
1120.682877661864
 31
0.0
 70
    32
 71
     5
 42
215.0000000000018
  3
20
100
AcDbAlignedDimension
 13
3935.407700824043
 23
890.69142432039
 33
0.0
 14
4150.407700824045
 24
890.69142432039
 34
0.0
100
AcDbRotatedDimension
  0
LINE
  5
28B
330
21
100
AcDbEntity
  8
seihin
370
    25
100
AcDbLine
 10
4150.407700824045
 20
890.69142432039
 30
0.0
 11
4150.407700824045
 21
290.6914243203864
 31
0.0
  0
LINE
  5
28C
330
21
100
AcDbEntity
  8
seihin
370
    25
100
AcDbLine
 10
3935.407700824043
 20
890.69142432039
 30
0.0
 11
4650.411710202707
 21
890.69142432039
 31
0.0
  0
LINE
  5
28D
330
21
100
AcDbEntity
  8
seihin
370
    25
100
AcDbLine
 10
4650.407700824042
 20
890.69142432039
 30
0.0
 11
4650.407700824042
 21
290.6914243203864
 31
0.0
  0
LINE
  5
28E
330
21
100
AcDbEntity
  8
seihin
370
    25
100
AcDbLine
 10
4650.411710202707
 20
290.6914243203864
 30
0.0
 11
3935.407700824043
 21
290.6914243203864
 31
0.0
  0
LINE
  5
28F
330
21
100
AcDbEntity
  8
seihin
370
    25
100
AcDbLine
 10
3935.407700824043
 20
290.6914243203864
 30
0.0
 11
3935.407700824043
 21
890.69142432039
 31
0.0
  0
DIMENSION
  5
290
330
21
100
AcDbEntity
  8
sunpo
370
    20
100
AcDbDimension
  2
*D42
 10
3759.30497514995
 20
290.6914243203864
 30
0.0
 11
3731.17997514995
 21
590.6914243203889
 31
0.0
 70
    32
  1
<>(2000)
 71
     5
 42
600.0000000000036
  3
20
100
AcDbAlignedDimension
 13
3935.407700824043
 23
890.69142432039
 33
0.0
 14
3935.407700824043
 24
290.6914243203864
 34
0.0
 50
90.0
100
AcDbRotatedDimension
  0
LINE
  5
291
330
21
100
AcDbEntity
  8
sunpo
370
    20
100
AcDbLine
 10
4467.1627135248
 20
1562.815473623632
 30
0.0
 11
4380.840443170784
 21
1556.341303347075
 31
0.0
  0
LINE
  5
292
330
21
100
AcDbEntity
  8
sunpo
370
    20
100
AcDbLine
 10
4380.840443170784
 20
1556.341303347075
 30
0.0
 11
4400.517462462363
 21
1561.991194133043
 31
0.0
  0
LINE
  5
293
330
21
100
AcDbEntity
  8
sunpo
370
    20
100
AcDbLine
 10
4400.517462462363
 20
1561.991194133043
 30
0.0
 11
4399.763014368697
 21
1557.760496186922
 31
0.0
  0
DIMENSION
  5
294
330
21
100
AcDbEntity
  8
sunpo
370
    20
100
AcDbDimension
  2
*D43
 10
5784.289014789516
 20
1946.157366146697
 30
0.0
 11
5484.289014789516
 21
1974.282366146697
 31
0.0
 70
    32
  1
<>(2000)
 71
     5
 42
600.0
  3
20
100
AcDbAlignedDimension
 13
5184.289014789516
 23
1731.429017670732
 33
0.0
 14
5784.289014789516
 24
1731.429017670732
 34
0.0
100
AcDbRotatedDimension
  0
DIMENSION
  5
295
330
21
100
AcDbEntity
  8
sunpo
370
    20
100
AcDbDimension
  2
*D44
 10
5078.127700744687
 20
1411.429017670736
 30
0.0
 11
5050.002700744688
 21
1486.429017670737
 31
0.0
 70
    32
 71
     5
 42
150.0
  3
20
100
AcDbAlignedDimension
 13
5184.289014789516
 23
1561.429017670736
 33
0.0
 14
5184.289014789516
 24
1411.429017670736
 34
0.0
 50
90.0
100
AcDbRotatedDimension
  0
DIMENSION
  5
296
330
21
100
AcDbEntity
  8
sunpo
370
    20
100
AcDbDimension
  2
*D45
 10
4986.530044715847
 20
1411.429017670736
 30
0.0
 11
4958.405044715846
 21
1571.429017670735
 31
0.0
 70
    32
 71
     5
 42
319.9999999999964
  3
20
100
AcDbAlignedDimension
 13
5184.289014789516
 23
1731.429017670732
 33
0.0
 14
5184.289014789516
 24
1411.429017670736
 34
0.0
 50
90.0
100
AcDbRotatedDimension
  0
DIMENSION
  5
297
330
21
100
AcDbEntity
  8
sunpo
370
    20
100
AcDbDimension
  2
*D46
 10
4811.520949345412
 20
1411.431866439787
 30
0.0
 11
4783.395949345412
 21
1486.431866439788
 31
0.0
 70
    32
 71
     5
 42
150.0
  3
20
100
AcDbAlignedDimension
 13
4650.407700824048
 23
1561.431866439787
 33
0.0
 14
4650.407700824048
 24
1411.431866439787
 34
0.0
 50
90.0
100
AcDbRotatedDimension
  0
LINE
  5
298
330
21
100
AcDbEntity
  8
seihin
370
    25
100
AcDbLine
 10
3950.407700824045
 20
1731.428979970609
 30
0.0
 11
3948.952722774944
 21
1716.879199479592
 31
0.0
  0
LINE
  5
299
330
21
100
AcDbEntity
  8
seihin
370
    25
100
AcDbLine
 10
3950.407700824076
 20
1731.428979970606
 30
0.0
 11
3965.03004924898
 21
1731.428979970607
 31
0.0
  0
LINE
  5
29A
330
21
100
AcDbEntity
  8
seihin
370
    25
100
AcDbLine
 10
4130.403691445383
 20
1731.428979970606
 30
0.0
 11
4131.85869028562
 21
1716.879201558715
 31
0.0
  0
LINE
  5
29B
330
21
100
AcDbEntity
  8
seihin
370
    25
100
AcDbLine
 10
4115.781343020449
 20
1731.428979970606
 30
0.0
 11
4130.40369144539
 21
1731.428979970606
 31
0.0
  0
LEADER
  5
29C
330
21
100
AcDbEntity
  8
sunpo
370
    20
100
AcDbLeader
  3
20
 73
     0
 74
     0
 75
     1
 40
37.50000000000001
 41
93.74999999999998
 76
     3
 10
4155.507326376236
 20
1537.514122705772
 30
0.0
 10
4211.787671412706
 20
1647.371858453763
 30
0.0
 10
4241.787671412706
 20
1647.371858453763
 30
0.0
340
29D
1001
ACAD
1000
DSTYLE
1002
{
1070
   147
1040
0.625
1070
    77
1070
     1
1002
}
  0
MTEXT
  5
29D
102
{ACAD_REACTORS
330
29C
102
}
330
21
100
AcDbEntity
  8
sunpo
370
    20
100
AcDbMText
 10
4251.162671412706
 20
1656.746858453763
 30
0.0
 40
37.5
 41
0.0
 71
     7
 72
     1
  1
R20
 73
     1
 44
1.0
1001
ACAD
1000
MTEXTBEGIN
1070
    73
1070
     1
1070
    44
1040
1.0
1070
    74
1070
     0
1000
MTEXTEND
  0
DIMENSION
  5
29E
330
21
100
AcDbEntity
  8
sunpo
370
    20
100
AcDbDimension
  2
*D47
 10
4150.403691445383
 20
1821.957348724736
 30
0.0
 11
4140.403691445388
 21
1873.519848724736
 31
0.0
 70
    32
  1
20
 71
     5
 42
19.99999999999272
  3
20
100
AcDbAlignedDimension
 13
4130.40369144539
 23
1731.428979970606
 33
0.0
 14
4150.403691445383
 24
1531.43186643979
 34
0.0
100
AcDbRotatedDimension
  0
DIMENSION
  5
29F
330
21
100
AcDbEntity
  8
sunpo
370
    20
100
AcDbDimension
  2
*D48
 10
3950.407700824076
 20
1821.957348724736
 30
0.0
 11
4040.405696134733
 21
1850.082348724736
 31
0.0
 70
    32
  1
180
 71
     5
 42
179.9959906213153
  3
20
100
AcDbAlignedDimension
 13
4130.40369144539
 23
1731.428979970606
 33
0.0
 14
3950.407700824076
 24
1731.428979970606
 34
0.0
100
AcDbRotatedDimension
  0
DIMENSION
  5
2A0
330
21
100
AcDbEntity
  8
sunpo
370
    20
100
AcDbDimension
  2
*D49
 10
3935.407700824045
 20
1821.957348724736
 30
0.0
 11
3942.90770082406
 21
1873.519848724736
 31
0.0
 70
    32
  1
15
 71
     5
 42
15.00000000003092
  3
20
100
AcDbAlignedDimension
 13
3950.407700824076
 23
1731.428979970606
 33
0.0
 14
3935.407700824045
 24
1581.428979970606
 34
0.0
100
AcDbRotatedDimension
  0
DIMENSION
  5
2A1
330
21
100
AcDbEntity
  8
sunpo
370
    20
100
AcDbDimension
  2
*D50
 10
4650.411710202707
 20
1946.160214915755
 30
0.0
 11
4292.909705513376
 21
1974.285214915755
 31
0.0
 70
    32
 71
     5
 42
715.0040093786628
  3
20
100
AcDbAlignedDimension
 13
3935.407700824045
 23
1581.42901767074
 33
0.0
 14
4650.411710202707
 24
1561.428985471646
 34
0.0
100
AcDbRotatedDimension
  0
DIMENSION
  5
2A2
330
21
100
AcDbEntity
  8
sunpo
370
    20
100
AcDbDimension
  2
*D51
 10
4150.403691445383
 20
1821.957348724736
 30
0.0
 11
4400.407700824046
 21
1850.082348724736
 31
0.0
 70
    32
 71
     5
 42
500.0080187573239
  3
20
100
AcDbAlignedDimension
 13
4650.411710202707
 23
1561.428985471646
 33
0.0
 14
4150.403691445383
 24
1547.43186643979
 34
0.0
100
AcDbRotatedDimension
  0
DIMENSION
  5
2A3
330
21
100
AcDbEntity
  8
sunpo
370
    20
100
AcDbDimension
  2
*D52
 10
4062.246790676044
 20
1531.43186643979
 30
0.0
 11
4034.121790676043
 21
1471.431866439791
 31
0.0
 70
    32
 71
     5
 42
120.0
  3
20
100
AcDbAlignedDimension
 13
4242.903691445383
 23
1411.43186643979
 33
0.0
 14
4150.403691445383
 24
1531.43186643979
 34
0.0
 50
90.0
100
AcDbRotatedDimension
  0
DIMENSION
  5
2A4
330
21
100
AcDbEntity
  8
sunpo
370
    20
100
AcDbDimension
  2
*D53
 10
3823.351788735396
 20
1411.43186643979
 30
0.0
 11
3795.226788735396
 21
1496.430423205199
 31
0.0
 70
    32
  1
170
 71
     5
 42
169.9971135308151
  3
20
100
AcDbAlignedDimension
 13
3935.407700824045
 23
1581.428979970606
 33
0.0
 14
3935.403691445382
 24
1411.43186643979
 34
0.0
 50
90.0
100
AcDbRotatedDimension
  0
DIMENSION
  5
2A5
330
21
100
AcDbEntity
  8
sunpo
370
    20
100
AcDbDimension
  2
*D54
 10
3738.746986915102
 20
1411.43186643979
 30
0.0
 11
3710.621986915101
 21
1571.430423205199
 31
0.0
 70
    32
  1
<>
 71
     5
 42
319.9971135308151
  3
20
100
AcDbAlignedDimension
 13
3977.136811098825
 23
1731.428979970606
 33
0.0
 14
3935.403691445382
 24
1411.43186643979
 34
0.0
 50
90.0
100
AcDbRotatedDimension
  0
DIMENSION
  5
2A6
330
21
100
AcDbEntity
  8
sunpo
370
    20
100
AcDbDimension
  2
*D55
 10
3823.351788735396
 20
1581.428979970606
 30
0.0
 11
3795.226788735396
 21
1656.428979970606
 31
0.0
 70
    32
  1
150
 71
     5
 42
150.0
  3
20
100
AcDbAlignedDimension
 13
3977.136811098825
 23
1731.428979970606
 33
0.0
 14
3935.407700824045
 24
1581.428979970606
 34
0.0
 50
90.0
100
AcDbRotatedDimension
  0
LWPOLYLINE
  5
2A7
330
21
100
AcDbEntity
  8
0
100
AcDbPolyline
 90
        4
 70
     1
 43
0.0
 10
0.000034079175748
 20
2298.217280056913
 10
3199.889340467854
 20
2298.217280056913
 10
3199.889340467854
 20
0.0000176707362698
 10
0.000034079175748
 20
0.0000176707362698
  0
LINE
  5
2A8
330
21
100
AcDbEntity
  8
seihin
370
    25
100
AcDbLine
 10
4150.407700824045
 20
1531.429017670736
 30
0.0
 11
4163.11962590595
 21
1532.382411028599
 31
0.0
  0
LINE
  5
2A9
330
21
100
AcDbEntity
  8
seihin
370
    25
100
AcDbLine
 10
4150.407700824045
 20
1531.429017670736
 30
0.0
 11
4163.11962590595
 21
1532.382411028599
 31
0.0
  0
LINE
  5
2AA
330
21
100
AcDbEntity
  8
seihin
370
    25
100
AcDbLine
 10
4150.407700824045
 20
1531.429017670736
 30
0.0
 11
4163.11962590595
 21
1532.382411028599
 31
0.0
  0
LINE
  5
2AB
330
21
100
AcDbEntity
  8
seihin
370
    25
100
AcDbLine
 10
4149.237445571122
 20
1543.131401304679
 30
0.0
 11
4150.407700824045
 21
1531.429017670736
 31
0.0
  0
LINE
  5
2AC
330
21
100
AcDbEntity
  8
seihin
370
    25
100
AcDbLine
 10
3977.140820477487
 20
1731.426131201551
 30
0.0
 11
4103.837373059542
 21
1731.426131201551
 31
0.0
  0
LINE
  5
2AD
330
21
100
AcDbEntity
  8
seihin
370
    25
100
AcDbLine
 10
4133.035012200987
 20
1705.153396614794
 30
0.0
 11
4148.466370552317
 21
1550.842040208525
 31
0.0
  0
LINE
  5
2AE
330
21
100
AcDbEntity
  8
seihin
370
    25
100
AcDbLine
 10
3947.771730201277
 20
1705.026331187238
 30
0.0
 11
3935.411710202707
 21
1581.426131201551
 31
0.0
  0
ARC
  5
2AF
330
21
100
AcDbEntity
  8
seihin
370
    25
100
AcDbCircle
 10
4168.367111512748
 20
1552.832143026422
 30
0.0
 40
20.0
100
AcDbArc
 50
185.7106750111799
 51
274.2891487424468
  0
ARC
  5
2B0
330
21
100
AcDbEntity
  8
seihin
370
    25
100
AcDbCircle
 10
4168.367111512748
 20
1552.832143026422
 30
0.0
 40
20.0
100
AcDbArc
 50
185.7106750111799
 51
274.2891487424468
  0
ARC
  5
2B1
330
21
100
AcDbEntity
  8
seihin
370
    25
100
AcDbCircle
 10
4103.258112950035
 20
1701.426131201551
 30
0.0
 40
30.0
100
AcDbArc
 50
5.710675011179983
 51
90.0
  0
ARC
  5
2B2
330
21
100
AcDbEntity
  8
seihin
370
    25
100
AcDbCircle
 10
3977.561337066069
 20
1701.426131201551
 30
0.0
 40
30.0
100
AcDbArc
 50
90.0
 51
174.2894068624765
  0
LINE
  5
2B3
330
21
100
AcDbEntity
  8
seihin
370
    25
100
AcDbLine
 10
3935.411710202707
 20
1411.426168901686
 30
0.0
 11
3935.411710202707
 21
1581.426168901686
 31
0.0
  0
LINE
  5
2B4
330
21
100
AcDbEntity
  8
seihin
370
    25
100
AcDbLine
 10
4169.807327162843
 20
1532.883988084521
 30
0.0
 11
4650.411710202707
 21
1561.428985471646
 31
0.0
  0
LINE
  5
2B5
330
21
100
AcDbEntity
  8
seihin
370
    25
100
AcDbLine
 10
3935.407700824045
 20
1411.429017670736
 30
0.0
 11
4650.411710202707
 21
1411.429017670736
 31
0.0
  0
LINE
  5
2B6
330
21
100
AcDbEntity
  8
seihin
370
    25
100
AcDbLine
 10
4650.411710202707
 20
1411.429017670736
 30
0.0
 11
4650.411710202707
 21
1561.429017670736
 31
0.0
  0
TEXT
  5
2B7
330
21
100
AcDbEntity
  8
1
  6
Continuous
 62
     7
370
     9
100
AcDbText
 10
4380.034833951829
 20
1585.838702336169
 30
0.0
 40
45.0
  1
6.0％
 50
5.376705428019394
 41
0.6578947368421049
 11
4380.805391005377
 21
1577.651533642169
 31
0.0
100
AcDbText
 73
     1
  0
LINE
  5
2B8
330
21
100
AcDbEntity
  8
seihin
370
    25
100
AcDbLine
 10
5184.289014789516
 20
1411.429017670736
 30
0.0
 11
5184.289014789516
 21
1731.429017670736
 31
0.0
  0
LINE
  5
2B9
330
21
100
AcDbEntity
  8
seihin
370
    25
100
AcDbLine
 10
5184.289014789516
 20
1731.429017670736
 30
0.0
 11
5784.289014789516
 21
1731.429017670736
 31
0.0
  0
LINE
  5
2BA
330
21
100
AcDbEntity
  8
seihin
370
    25
100
AcDbLine
 10
5784.289014789516
 20
1731.429017670736
 30
0.0
 11
5784.289014789516
 21
1411.429017670736
 31
0.0
  0
LINE
  5
2BB
330
21
100
AcDbEntity
  8
seihin
370
    25
100
AcDbLine
 10
5784.289014789516
 20
1411.429017670736
 30
0.0
 11
5184.289014789516
 21
1411.429017670736
 31
0.0
  0
LINE
  5
2BC
330
21
100
AcDbEntity
  8
seihin
370
    25
100
AcDbLine
 10
5784.289014789516
 20
1561.429017670736
 30
0.0
 11
5184.289014789516
 21
1561.429017670736
 31
0.0
  0
DIMENSION
  5
2BD
330
21
100
AcDbEntity
  8
sunpo
370
    20
100
AcDbDimension
  2
*D56
 10
409.4196781399368
 20
290.6914243203828
 30
0.0
 11
381.2946781399369
 21
590.6914243203847
 31
0.0
 70
    32
  1
<>(2000)
 71
     5
 42
600.0000000000036
  3
20
100
AcDbAlignedDimension
 13
585.5224038140295
 23
890.6914243203864
 33
0.0
 14
585.5224038140295
 24
290.6914243203828
 34
0.0
 50
90.0
100
AcDbRotatedDimension
  0
LINE
  5
2BE
330
21
100
AcDbEntity
  8
seihin
370
    25
100
AcDbLine
 10
2334.399708400838
 20
1561.429017670736
 30
0.0
 11
1734.399708400838
 21
1561.429017670736
 31
0.0
  0
LINE
  5
2BF
330
21
100
AcDbEntity
  8
seihin
370
    25
100
AcDbLine
 10
2234.399708400838
 20
1561.429017670733
 30
0.0
 11
1834.399708400838
 21
1561.429017670736
 31
0.0
  0
DIMENSION
  5
2C0
330
21
100
AcDbEntity
  8
sunpo
370
    20
100
AcDbDimension
  2
*D57
 10
2334.399708400838
 20
1946.157366146697
 30
0.0
 11
2034.399708400838
 21
1974.282366146697
 31
0.0
 70
    32
  1
<>(2000)
 71
     5
 42
600.0
  3
20
100
AcDbAlignedDimension
 13
1734.399708400838
 23
1731.429017670732
 33
0.0
 14
2334.399708400838
 24
1731.429017670732
 34
0.0
100
AcDbRotatedDimension
  0
LINE
  5
2C1
330
21
100
AcDbEntity
  8
seihin
370
    25
100
AcDbLine
 10
585.5224038140295
 20
290.6914243203828
 30
0.0
 11
585.5224038140295
 21
890.6914243203864
 31
0.0
  0
LINE
  5
2C2
330
21
100
AcDbEntity
  8
seihin
370
    25
100
AcDbLine
 10
1200.522403814029
 20
290.6914243203828
 30
0.0
 11
585.5224038140295
 21
290.6914243203828
 31
0.0
  0
LINE
  5
2C3
330
21
100
AcDbEntity
  8
seihin
370
    25
100
AcDbLine
 10
1200.522403814029
 20
890.6914243203864
 30
0.0
 11
1200.522403814029
 21
290.6914243203828
 31
0.0
  0
LINE
  5
2C4
330
21
100
AcDbEntity
  8
seihin
370
    25
100
AcDbLine
 10
585.5224038140295
 20
890.6914243203864
 30
0.0
 11
1200.522403814029
 21
890.6914243203864
 31
0.0
  0
TEXT
  5
2C5
330
21
100
AcDbEntity
  8
sunpo
370
    20
100
AcDbText
 10
990.6617924723468
 20
1563.592800408412
 30
0.0
 40
40.0
  1
7.5%%%
 50
4.289153328795932
 11
991.2084804188816
 21
1556.303627787907
 31
0.0
100
AcDbText
 73
     1
  0
LINE
  5
2C6
330
21
100
AcDbEntity
  8
sunpo
370
    20
100
AcDbLine
 10
1000.657951622153
 20
1561.993278445239
 30
0.0
 11
999.9035035284869
 21
1557.762580499118
 31
0.0
  0
LINE
  5
2C7
330
21
100
AcDbEntity
  8
sunpo
370
    20
100
AcDbLine
 10
980.9809323305744
 20
1556.343387659272
 30
0.0
 11
1000.657951622153
 21
1561.993278445239
 31
0.0
  0
LINE
  5
2C8
330
21
100
AcDbEntity
  8
sunpo
370
    20
100
AcDbLine
 10
1067.30320268459
 20
1562.817557935828
 30
0.0
 11
980.9809323305744
 21
1556.343387659272
 31
0.0
  0
LINE
  5
2C9
330
21
100
AcDbEntity
  8
seihin
370
    25
100
AcDbLine
 10
585.5264131926942
 20
1411.426168901682
 30
0.0
 11
585.5264131926942
 21
1581.426168901682
 31
0.0
  0
LINE
  5
2CA
330
21
100
AcDbEntity
  8
seihin
370
    25
100
AcDbLine
 10
1200.522403814029
 20
1411.429017670736
 30
0.0
 11
1200.522403814029
 21
1561.429017670736
 31
0.0
  0
LINE
  5
2CB
330
21
100
AcDbEntity
  8
seihin
370
    25
100
AcDbLine
 10
585.5224038140313
 20
1411.429017670736
 30
0.0
 11
1200.522403814029
 21
1411.429017670736
 31
0.0
  0
ARC
  5
2CC
330
21
100
AcDbEntity
  8
seihin
370
    25
100
AcDbCircle
 10
627.6760400560561
 20
1701.426131201548
 30
0.0
 40
30.0
100
AcDbArc
 50
90.0
 51
174.2894068625289
  0
ARC
  5
2CD
330
21
100
AcDbEntity
  8
seihin
370
    25
100
AcDbCircle
 10
753.3728159400216
 20
1701.426131201548
 30
0.0
 40
30.0
100
AcDbArc
 50
5.710675011232349
 51
90.0
  0
ARC
  5
2CE
330
21
100
AcDbEntity
  8
seihin
370
    25
100
AcDbCircle
 10
818.4818145027348
 20
1552.832143026418
 30
0.0
 40
20.0
100
AcDbArc
 50
185.7106750112323
 51
274.2891487424429
  0
LINE
  5
2CF
330
21
100
AcDbEntity
  8
seihin
370
    25
100
AcDbLine
 10
819.9776118711016
 20
1532.888156708916
 30
0.0
 11
1200.522403814029
 21
1561.428985471644
 31
0.0
  0
ARC
  5
2D0
330
21
100
AcDbEntity
  8
seihin
370
    25
100
AcDbCircle
 10
818.4818145027348
 20
1552.832143026418
 30
0.0
 40
20.0
100
AcDbArc
 50
185.7106750112323
 51
274.2891487424429
  0
LINE
  5
2D1
330
21
100
AcDbEntity
  8
seihin
370
    25
100
AcDbLine
 10
819.9220301528276
 20
1532.883988084519
 30
0.0
 11
1200.522403814029
 21
1561.428985471644
 31
0.0
  0
LINE
  5
2D2
330
21
100
AcDbEntity
  8
seihin
370
    25
100
AcDbLine
 10
597.8864331912627
 20
1705.026331187237
 30
0.0
 11
585.5264131926942
 21
1581.426131201548
 31
0.0
  0
LINE
  5
2D3
330
21
100
AcDbEntity
  8
seihin
370
    25
100
AcDbLine
 10
783.1497151909734
 20
1705.153396614791
 30
0.0
 11
798.581073542302
 21
1550.842040208525
 31
0.0
  0
LINE
  5
2D4
330
21
100
AcDbEntity
  8
seihin
370
    25
100
AcDbLine
 10
627.2555234674728
 20
1731.426131201548
 30
0.0
 11
753.9520760495288
 21
1731.426131201548
 31
0.0
  0
LINE
  5
2D5
330
21
100
AcDbEntity
  8
seihin
370
    25
100
AcDbLine
 10
799.3521485611091
 20
1543.131401304676
 30
0.0
 11
800.5224038140314
 21
1531.429017670736
 31
0.0
  0
LINE
  5
2D6
330
21
100
AcDbEntity
  8
seihin
370
    25
100
AcDbLine
 10
800.5224038140314
 20
1531.429017670736
 30
0.0
 11
813.2343288959363
 21
1532.382411028597
 31
0.0
  0
LINE
  5
2D7
330
21
100
AcDbEntity
  8
seihin
370
    25
100
AcDbLine
 10
800.5224038140314
 20
1531.429017670736
 30
0.0
 11
813.2343288959363
 21
1532.382411028597
 31
0.0
  0
LINE
  5
2D8
330
21
100
AcDbEntity
  8
seihin
370
    25
100
AcDbLine
 10
800.5224038140314
 20
1531.429017670736
 30
0.0
 11
813.2343288959363
 21
1532.382411028597
 31
0.0
  0
LINE
  5
2D9
330
21
100
AcDbEntity
  8
seihin
370
    25
100
AcDbLine
 10
2244.399708400838
 20
1561.429017670733
 30
0.0
 11
2240.399708400838
 21
1561.429017670733
 31
0.0
  0
LINE
  5
2DA
330
21
100
AcDbEntity
  8
seihin
370
    25
100
AcDbLine
 10
1824.399708400838
 20
1561.429017670736
 30
0.0
 11
1828.399708400838
 21
1561.429017670736
 31
0.0
  0
LINE
  5
2DB
330
21
100
AcDbEntity
  8
seihin
370
    25
100
AcDbLine
 10
2334.399708400838
 20
1411.429017670736
 30
0.0
 11
1734.399708400838
 21
1411.429017670736
 31
0.0
  0
LINE
  5
2DC
330
21
100
AcDbEntity
  8
seihin
370
    25
100
AcDbLine
 10
2334.399708400838
 20
1731.429017670732
 30
0.0
 11
2334.399708400838
 21
1411.429017670736
 31
0.0
  0
LINE
  5
2DD
330
21
100
AcDbEntity
  8
seihin
370
    25
100
AcDbLine
 10
1734.399708400838
 20
1731.429017670732
 30
0.0
 11
2334.399708400838
 21
1731.429017670732
 31
0.0
  0
LINE
  5
2DE
330
21
100
AcDbEntity
  8
seihin
370
    25
100
AcDbLine
 10
1734.399708400838
 20
1411.429017670736
 30
0.0
 11
1734.399708400838
 21
1731.429017670732
 31
0.0
  0
TEXT
  5
2DF
330
21
100
AcDbEntity
  8
1
  6
Continuous
 62
     7
370
     9
100
AcDbText
 10
2557.64618239721
 20
135.4978368266054
 30
0.0
 40
35.52011382614909
  1
PL-400 標準 L=600(2000)
 11
2557.64618239721
 21
129.0068515588828
 31
0.0
100
AcDbText
 73
     1
  0
TEXT
  5
2E0
330
21
100
AcDbEntity
  8
1
  6
Continuous
 62
     7
370
     9
100
AcDbText
 10
2430.751901300745
 20
268.8338037987558
 30
0.0
 40
35.52011382614909
  1
参考重量　: 168kg(562kg)
 11
2430.751901300745
 21
262.3428185310331
 31
0.0
100
AcDbText
 73
     1
  0
TEXT
  5
2E1
330
21
100
AcDbEntity
  8
1
  6
Continuous
 62
     7
370
     9
100
AcDbText
 10
2557.408885561218
 20
77.63764711635649
 30
0.0
 40
35.52011382614909
  1
四国ブロック工業株式会社
 11
2557.408885561218
 21
71.14666184863381
 31
0.0
100
AcDbText
 73
     1
  0
TEXT
  5
2E2
330
21
100
AcDbEntity
  8
1
  6
Continuous
 62
     7
370
     9
100
AcDbText
 10
2518.470410087772
 20
194.42910074507
 30
0.0
 40
35.52011382614909
  1
歩車道境界ブロック付L型側溝
 11
2518.470410087772
 21
187.9381154773473
 31
0.0
100
AcDbText
 73
     1
  0
TEXT
  5
2E3
330
21
100
AcDbEntity
  8
1
  6
Continuous
 62
     7
370
     9
100
AcDbText
 10
2474.58570212298
 20
16.74082011515911
 30
0.0
 40
35.52011382614909
  1
高知県コンクリート製品工業組合
 11
2474.58570212298
 21
10.24983484743643
 31
0.0
100
AcDbText
 73
     1
  0
LINE
  5
2E4
330
21
100
AcDbEntity
  8
1
  6
Continuous
 62
     7
370
     9
100
AcDbLine
 10
3199.889340467854
 20
236.8007765117327
 30
0.0
 11
2430.286874234623
 21
236.8007765117327
 31
0.0
  0
LINE
  5
2E5
330
21
100
AcDbEntity
  8
1
  6
Continuous
 62
     7
370
     9
100
AcDbLine
 10
2430.286874234623
 20
236.8007765117327
 30
0.0
 11
2430.286874234623
 21
0.0000176707362698
 31
0.0
  0
LINE
  5
2E6
330
21
100
AcDbEntity
  8
1
  6
Continuous
 62
     7
370
     9
100
AcDbLine
 10
3199.889340467854
 20
177.6005868014836
 30
0.0
 11
2430.286874234623
 21
177.6005868014836
 31
0.0
  0
LINE
  5
2E7
330
21
100
AcDbEntity
  8
1
  6
Continuous
 62
     7
370
     9
100
AcDbLine
 10
3199.889340467854
 20
59.20020738098537
 30
0.0
 11
2430.286874234623
 21
59.20020738098537
 31
0.0
  0
LINE
  5
2E8
330
21
100
AcDbEntity
  8
1
  6
Continuous
 62
     7
370
     9
100
AcDbLine
 10
3199.889340467854
 20
118.4003970912345
 30
0.0
 11
2430.286874234623
 21
118.4003970912345
 31
0.0
  0
DIMENSION
  5
2E9
330
21
100
AcDbEntity
  8
sunpo
370
    20
100
AcDbDimension
  2
*D58
 10
473.466491725383
 20
1581.428979970602
 30
0.0
 11
445.3414917253828
 21
1656.428979970602
 31
0.0
 70
    32
  1
150
 71
     5
 42
150.0
  3
20
100
AcDbAlignedDimension
 13
627.2515140888117
 23
1731.428979970602
 33
0.0
 14
585.5224038140313
 24
1581.428979970602
 34
0.0
 50
90.0
100
AcDbRotatedDimension
  0
DIMENSION
  5
2EA
330
21
100
AcDbEntity
  8
sunpo
370
    20
100
AcDbDimension
  2
*D59
 10
388.8616899050885
 20
1411.431866439787
 30
0.0
 11
360.7366899050883
 21
1571.430423205194
 31
0.0
 70
    32
  1
<>
 71
     5
 42
319.9971135308151
  3
20
100
AcDbAlignedDimension
 13
627.2515140888117
 23
1731.428979970602
 33
0.0
 14
585.5183944353684
 24
1411.431866439787
 34
0.0
 50
90.0
100
AcDbRotatedDimension
  0
DIMENSION
  5
2EB
330
21
100
AcDbEntity
  8
sunpo
370
    20
100
AcDbDimension
  2
*D60
 10
473.466491725383
 20
1411.431866439787
 30
0.0
 11
445.3414917253828
 21
1496.430423205195
 31
0.0
 70
    32
  1
170
 71
     5
 42
169.9971135308151
  3
20
100
AcDbAlignedDimension
 13
585.5224038140313
 23
1581.428979970602
 33
0.0
 14
585.5183944353684
 24
1411.431866439787
 34
0.0
 50
90.0
100
AcDbRotatedDimension
  0
LINE
  5
2EC
330
21
100
AcDbEntity
  8
seihin
370
    25
100
AcDbLine
 10
765.8960460104354
 20
1731.428979970602
 30
0.0
 11
780.5183944353776
 21
1731.428979970602
 31
0.0
  0
LINE
  5
2ED
330
21
100
AcDbEntity
  8
seihin
370
    25
100
AcDbLine
 10
780.5183944353703
 20
1731.428979970602
 30
0.0
 11
781.9733932756061
 21
1716.879201558711
 31
0.0
  0
LINE
  5
2EE
330
21
100
AcDbEntity
  8
seihin
370
    25
100
AcDbLine
 10
600.5224038140623
 20
1731.428979970602
 30
0.0
 11
615.1447522389662
 21
1731.428979970604
 31
0.0
  0
LINE
  5
2EF
330
21
100
AcDbEntity
  8
seihin
370
    25
100
AcDbLine
 10
600.5224038140313
 20
1731.428979970606
 30
0.0
 11
599.0674257649297
 21
1716.879199479588
 31
0.0
  0
DIMENSION
  5
2F0
330
21
100
AcDbEntity
  8
sunpo
370
    20
100
AcDbDimension
  2
*D61
 10
800.5183944353703
 20
1821.957348724733
 30
0.0
 11
1000.51839443537
 21
1850.082348724733
 31
0.0
 70
    32
 71
     5
 42
400.0
  3
20
100
AcDbAlignedDimension
 13
1200.51839443537
 23
1561.431834240695
 33
0.0
 14
800.5183944353703
 24
1547.431866439787
 34
0.0
100
AcDbRotatedDimension
  0
DIMENSION
  5
2F1
330
21
100
AcDbEntity
  8
sunpo
370
    20
100
AcDbDimension
  2
*D62
 10
1200.51839443537
 20
1946.160214915751
 30
0.0
 11
893.0203991247008
 21
1974.285214915752
 31
0.0
 70
    32
 71
     5
 42
614.9959906213389
  3
20
100
AcDbAlignedDimension
 13
585.5224038140313
 23
1581.429017670736
 33
0.0
 14
1200.51839443537
 24
1561.431866439787
 34
0.0
100
AcDbRotatedDimension
  0
DIMENSION
  5
2F2
330
21
100
AcDbEntity
  8
sunpo
370
    20
100
AcDbDimension
  2
*D63
 10
585.5224038140313
 20
1821.957348724733
 30
0.0
 11
593.0224038140468
 21
1873.519848724733
 31
0.0
 70
    32
  1
15
 71
     5
 42
15.00000000003092
  3
20
100
AcDbAlignedDimension
 13
600.5224038140623
 23
1731.428979970602
 33
0.0
 14
585.5224038140313
 24
1581.428979970602
 34
0.0
100
AcDbRotatedDimension
  0
DIMENSION
  5
2F3
330
21
100
AcDbEntity
  8
sunpo
370
    20
100
AcDbDimension
  2
*D64
 10
600.5224038140623
 20
1821.957348724733
 30
0.0
 11
690.5203991247199
 21
1850.082348724733
 31
0.0
 70
    32
  1
180
 71
     5
 42
179.9959906213153
  3
20
100
AcDbAlignedDimension
 13
780.5183944353776
 23
1731.428979970602
 33
0.0
 14
600.5224038140623
 24
1731.428979970602
 34
0.0
100
AcDbRotatedDimension
  0
DIMENSION
  5
2F4
330
21
100
AcDbEntity
  8
sunpo
370
    20
100
AcDbDimension
  2
*D65
 10
800.5183944353703
 20
1821.957348724733
 30
0.0
 11
790.5183944353739
 21
1873.519848724733
 31
0.0
 70
    32
  1
20
 71
     5
 42
19.99999999999272
  3
20
100
AcDbAlignedDimension
 13
780.5183944353776
 23
1731.428979970602
 33
0.0
 14
800.5183944353703
 24
1531.431866439787
 34
0.0
100
AcDbRotatedDimension
  0
DIMENSION
  5
2F5
330
21
100
AcDbEntity
  8
sunpo
370
    20
100
AcDbDimension
  2
*D66
 10
1361.631642956734
 20
1411.431866439787
 30
0.0
 11
1333.506642956734
 21
1486.431866439787
 31
0.0
 70
    32
 71
     5
 42
150.0
  3
20
100
AcDbAlignedDimension
 13
1200.51839443537
 23
1561.431866439787
 33
0.0
 14
1200.51839443537
 24
1411.431866439787
 34
0.0
 50
90.0
100
AcDbRotatedDimension
  0
DIMENSION
  5
2F6
330
21
100
AcDbEntity
  8
sunpo
370
    20
100
AcDbDimension
  2
*D67
 10
712.3614936660305
 20
1531.431866439787
 30
0.0
 11
684.2364936660303
 21
1471.431866439787
 31
0.0
 70
    32
 71
     5
 42
120.0
  3
20
100
AcDbAlignedDimension
 13
893.0183944353702
 23
1411.431866439787
 33
0.0
 14
800.5183944353703
 24
1531.431866439787
 34
0.0
 50
90.0
100
AcDbRotatedDimension
  0
MTEXT
  5
2F7
102
{ACAD_REACTORS
330
2F8
102
}
330
21
100
AcDbEntity
  8
sunpo
370
    20
100
AcDbMText
 10
901.2773744026926
 20
1656.74685845376
 30
0.0
 40
37.5
 41
0.0
 71
     7
 72
     1
  1
R20
 73
     1
 44
1.0
1001
ACAD
1000
MTEXTBEGIN
1070
    73
1070
     1
1070
    44
1040
1.0
1070
    74
1070
     0
1000
MTEXTEND
  0
LEADER
  5
2F8
330
21
100
AcDbEntity
  8
sunpo
370
    20
100
AcDbLeader
  3
20
 73
     0
 74
     0
 75
     1
 40
37.50000000000001
 41
93.74999999999998
 76
     3
 10
805.6220293662226
 20
1537.514122705768
 30
0.0
 10
861.9023744026927
 20
1647.37185845376
 30
0.0
 10
891.9023744026926
 20
1647.37185845376
 30
0.0
340
2F7
1001
ACAD
1000
DSTYLE
1002
{
1070
   147
1040
0.625
1070
    77
1070
     1
1002
}
  0
DIMENSION
  5
2F9
330
21
100
AcDbEntity
  8
sunpo
370
    20
100
AcDbDimension
  2
*D68
 10
1536.640738327169
 20
1411.429017670736
 30
0.0
 11
1508.515738327169
 21
1571.429017670735
 31
0.0
 70
    32
 71
     5
 42
319.9999999999964
  3
20
100
AcDbAlignedDimension
 13
1734.399708400838
 23
1731.429017670732
 33
0.0
 14
1734.399708400838
 24
1411.429017670736
 34
0.0
 50
90.0
100
AcDbRotatedDimension
  0
DIMENSION
  5
2FA
330
21
100
AcDbEntity
  8
sunpo
370
    20
100
AcDbDimension
  2
*D69
 10
1628.238394356008
 20
1411.429017670736
 30
0.0
 11
1600.113394356009
 21
1486.429017670737
 31
0.0
 70
    32
 71
     5
 42
150.0
  3
20
100
AcDbAlignedDimension
 13
1734.399708400838
 23
1561.429017670736
 33
0.0
 14
1734.399708400838
 24
1411.429017670736
 34
0.0
 50
90.0
100
AcDbRotatedDimension
  0
LINE
  5
2FB
330
21
100
AcDbEntity
  8
seihin
370
    25
100
AcDbLine
 10
800.5224038140314
 20
890.6914243203864
 30
0.0
 11
800.5224038140314
 21
290.6914243203828
 31
0.0
  0
DIMENSION
  5
2FC
330
21
100
AcDbEntity
  8
sunpo
370
    20
100
AcDbDimension
  2
*D70
 10
800.5224038140314
 20
1092.55787766186
 30
0.0
 11
693.0224038140304
 21
1120.68287766186
 31
0.0
 70
    32
 71
     5
 42
215.0000000000018
  3
20
100
AcDbAlignedDimension
 13
585.5224038140295
 23
890.6914243203864
 33
0.0
 14
800.5224038140314
 24
890.6914243203864
 34
0.0
100
AcDbRotatedDimension
  0
DIMENSION
  5
2FD
330
21
100
AcDbEntity
  8
sunpo
370
    20
100
AcDbDimension
  2
*D71
 10
780.5183944353703
 20
1033.118759335117
 30
0.0
 11
690.5203991247162
 21
1061.243759335117
 31
0.0
 70
    32
 71
     5
 42
179.995990621308
  3
20
100
AcDbAlignedDimension
 13
600.5224038140623
 23
890.6914243203864
 33
0.0
 14
780.5183944353703
 24
890.6914243203864
 34
0.0
100
AcDbRotatedDimension
  0
DIMENSION
  5
2FE
330
21
100
AcDbEntity
  8
sunpo
370
    20
100
AcDbDimension
  2
*D72
 10
1200.522403814029
 20
1092.55787766186
 30
0.0
 11
1000.52240381403
 21
1120.68287766186
 31
0.0
 70
    32
 71
     5
 42
399.9999999999982
  3
20
100
AcDbAlignedDimension
 13
800.5224038140314
 23
890.6914243203864
 33
0.0
 14
1200.522403814029
 24
890.6914243203864
 34
0.0
100
AcDbRotatedDimension
  0
DIMENSION
  5
2FF
330
21
100
AcDbEntity
  8
sunpo
370
    20
100
AcDbDimension
  2
*D73
 10
1200.522403814029
 20
1162.114284789957
 30
0.0
 11
893.0224038140295
 21
1190.239284789957
 31
0.0
 70
    32
 71
     5
 42
615.0
  3
20
100
AcDbAlignedDimension
 13
585.5224038140295
 23
890.6914243203864
 33
0.0
 14
1200.522403814029
 24
890.6914243203864
 34
0.0
100
AcDbRotatedDimension
  0
LINE
  5
300
330
21
100
AcDbEntity
  8
seihin
370
    25
100
AcDbLine
 10
600.5264131926942
 20
290.6914243203864
 30
0.0
 11
600.5264131926942
 21
890.6914243203864
 31
0.0
  0
LINE
  5
301
330
21
100
AcDbEntity
  8
seihin
370
    25
100
AcDbLine
 10
780.5183944353703
 20
890.6914243203864
 30
0.0
 11
780.5183944353703
 21
290.6914243203828
 31
0.0
  0
ENDSEC
  0
SECTION
  2
OBJECTS
  0
DICTIONARY
  5
C
330
0
100
AcDbDictionary
281
     1
  3
ACAD_COLOR
350
1C
  3
ACAD_GROUP
350
D
  3
ACAD_LAYOUT
350
1A
  3
ACAD_MATERIAL
350
1B
  3
ACAD_MLINESTYLE
350
17
  3
ACAD_PLOTSETTINGS
350
19
  3
ACAD_PLOTSTYLENAME
350
E
  3
ACDBHEADERROUNDTRIPXREC
350
609
  3
AcDbVariableDictionary
350
604
  0
DICTIONARY
  5
1C
102
{ACAD_REACTORS
330
C
102
}
330
C
100
AcDbDictionary
281
     1
  0
DICTIONARY
  5
D
102
{ACAD_REACTORS
330
C
102
}
330
C
100
AcDbDictionary
281
     1
  0
DICTIONARY
  5
1A
102
{ACAD_REACTORS
330
C
102
}
330
C
100
AcDbDictionary
281
     1
  3
Model
350
24
  3
レイアウト1
350
20
  3
レイアウト2
350
28
  0
DICTIONARY
  5
1B
102
{ACAD_REACTORS
330
C
102
}
330
C
100
AcDbDictionary
281
     1
  0
DICTIONARY
  5
17
102
{ACAD_REACTORS
330
C
102
}
330
C
100
AcDbDictionary
281
     1
  3
Standard
350
18
  0
DICTIONARY
  5
19
102
{ACAD_REACTORS
330
C
102
}
330
C
100
AcDbDictionary
281
     1
  0
ACDBDICTIONARYWDFLT
  5
E
102
{ACAD_REACTORS
330
C
102
}
330
C
100
AcDbDictionary
281
     1
  3
Normal
350
F
100
AcDbDictionaryWithDefault
340
F
  0
DICTIONARY
  5
609
102
{ACAD_REACTORS
330
C
102
}
330
C
100
AcDbDictionary
281
     1
  3
COLORDICT
350
60B
  3
MATERIALDICT
350
60A
  0
DICTIONARY
  5
604
102
{ACAD_REACTORS
330
C
102
}
330
C
100
AcDbDictionary
281
     1
  3
DIMASSOC
350
606
  3
HIDETEXT
350
605
  3
PROJECTNAME
350
607
  0
LAYOUT
  5
24
102
{ACAD_XDICTIONARY
360
60E
102
}
102
{ACAD_REACTORS
330
1A
102
}
330
1A
100
AcDbPlotSettings
  1

  2
KONICA MINOLTA C364SeriesPCL
  4

  6

 40
0.0
 41
0.0
 42
0.0
 43
0.0
 44
0.0
 45
0.0
 46
0.0
 47
0.0
 48
0.0
 49
0.0
140
0.0
141
0.0
142
1.0
143
1.0
 70
  1712
 72
     0
 73
     0
 74
     0
  7

 75
     0
147
1.0
148
0.0
149
0.0
100
AcDbLayout
  1
Model
 70
     1
 71
     0
 10
0.0
 20
0.0
 11
12.0
 21
9.0
 12
0.0
 22
0.0
 32
0.0
 14
0.0
 24
0.0
 34
0.0
 15
0.0
 25
0.0
 35
0.0
146
0.0
 13
0.0
 23
0.0
 33
0.0
 16
1.0
 26
0.0
 36
0.0
 17
0.0
 27
1.0
 37
0.0
 76
     0
330
21
  0
LAYOUT
  5
20
102
{ACAD_XDICTIONARY
360
60C
102
}
102
{ACAD_REACTORS
330
1A
102
}
330
1A
100
AcDbPlotSettings
  1

  2
KONICA MINOLTA C364SeriesPCL
  4

  6

 40
0.0
 41
0.0
 42
0.0
 43
0.0
 44
0.0
 45
0.0
 46
0.0
 47
0.0
 48
0.0
 49
0.0
140
0.0
141
0.0
142
1.0
143
1.0
 70
   688
 72
     0
 73
     0
 74
     5
  7

 75
    16
147
1.0
148
0.0
149
0.0
100
AcDbLayout
  1
レイアウト1
 70
     1
 71
     1
 10
0.0
 20
0.0
 11
420.0
 21
297.0
 12
0.0
 22
0.0
 32
0.0
 14
1.000000000000000E+20
 24
1.000000000000000E+20
 34
1.000000000000000E+20
 15
-1.000000000000000E+20
 25
-1.000000000000000E+20
 35
-1.000000000000000E+20
146
0.0
 13
0.0
 23
0.0
 33
0.0
 16
1.0
 26
0.0
 36
0.0
 17
0.0
 27
1.0
 37
0.0
 76
     0
330
1D
  0
LAYOUT
  5
28
102
{ACAD_XDICTIONARY
360
610
102
}
102
{ACAD_REACTORS
330
1A
102
}
330
1A
100
AcDbPlotSettings
  1

  2
KONICA MINOLTA C364SeriesPCL
  4

  6

 40
0.0
 41
0.0
 42
0.0
 43
0.0
 44
0.0
 45
0.0
 46
0.0
 47
0.0
 48
0.0
 49
0.0
140
0.0
141
0.0
142
1.0
143
1.0
 70
   688
 72
     0
 73
     0
 74
     5
  7

 75
    16
147
1.0
148
0.0
149
0.0
100
AcDbLayout
  1
レイアウト2
 70
     1
 71
     2
 10
0.0
 20
0.0
 11
12.0
 21
9.0
 12
0.0
 22
0.0
 32
0.0
 14
0.0
 24
0.0
 34
0.0
 15
0.0
 25
0.0
 35
0.0
146
0.0
 13
0.0
 23
0.0
 33
0.0
 16
1.0
 26
0.0
 36
0.0
 17
0.0
 27
1.0
 37
0.0
 76
     0
330
25
  0
MLINESTYLE
  5
18
102
{ACAD_REACTORS
330
17
102
}
330
17
100
AcDbMlineStyle
  2
STANDARD
 70
     0
  3

 62
   256
 51
90.0
 52
90.0
 71
     2
 49
0.5
 62
   256
  6
BYLAYER
 49
-0.5
 62
   256
  6
BYLAYER
  0
ACDBPLACEHOLDER
  5
F
102
{ACAD_REACTORS
330
E
102
}
330
E
  0
XRECORD
  5
60B
102
{ACAD_REACTORS
330
609
102
}
330
609
100
AcDbXrecord
280
     1
340
1C
  0
XRECORD
  5
60A
102
{ACAD_REACTORS
330
609
102
}
330
609
100
AcDbXrecord
280
     1
340
1B
  0
DICTIONARYVAR
  5
606
102
{ACAD_REACTORS
330
604
102
}
330
604
100
DictionaryVariables
280
     0
  1
2
  0
DICTIONARYVAR
  5
605
102
{ACAD_REACTORS
330
604
102
}
330
604
100
DictionaryVariables
280
     0
  1
1
  0
DICTIONARYVAR
  5
607
102
{ACAD_REACTORS
330
604
102
}
330
604
100
DictionaryVariables
280
     0
  1

  0
DICTIONARY
  5
60E
330
24
100
AcDbDictionary
280
     1
281
     1
  3
ACAD_XREC_ROUNDTRIP
360
60F
  0
DICTIONARY
  5
60C
330
20
100
AcDbDictionary
280
     1
281
     1
  3
ACAD_XREC_ROUNDTRIP
360
60D
  0
DICTIONARY
  5
610
330
28
100
AcDbDictionary
280
     1
281
     1
  3
ACAD_XREC_ROUNDTRIP
360
611
  0
XRECORD
  5
60F
102
{ACAD_REACTORS
330
60E
102
}
330
60E
100
AcDbXrecord
280
     1
102
SHADEPLOT
 70
     0
102
SHADEPLOTRESLEVEL
 70
     2
102
SHADEPLOTCUSTOMDPI
 70
   300
  0
XRECORD
  5
60D
102
{ACAD_REACTORS
330
60C
102
}
330
60C
100
AcDbXrecord
280
     1
102
SHADEPLOT
 70
     0
102
SHADEPLOTRESLEVEL
 70
     2
102
SHADEPLOTCUSTOMDPI
 70
   300
  0
XRECORD
  5
611
102
{ACAD_REACTORS
330
610
102
}
330
610
100
AcDbXrecord
280
     1
102
SHADEPLOT
 70
     0
102
SHADEPLOTRESLEVEL
 70
     2
102
SHADEPLOTCUSTOMDPI
 70
   300
  0
ENDSEC
  0
EOF
