  0
SECTION
  2
HEADER
  9
$ACADVER
  1
AC1015
  9
$ACADMAINTVER
 70
    20
  9
$DWGCODEPAGE
  3
ANSI_932
  9
$INSBASE
 10
0.0
 20
0.0
 30
0.0
  9
$EXTMIN
 10
-0.50812633021269
 20
-2398.580143217569
 30
-0.0015258207003583
  9
$EXTMAX
 10
6650.276296236683
 20
7095.455060165368
 30
0.0000000349246037
  9
$LIMMIN
 10
0.0
 20
0.0
  9
$LIMMAX
 10
420.0
 20
297.0
  9
$ORTHOMODE
 70
     0
  9
$REGENMODE
 70
     1
  9
$FILLMODE
 70
     1
  9
$QTEXTMODE
 70
     0
  9
$MIRRTEXT
 70
     0
  9
$LTSCALE
 40
1.0
  9
$ATTMODE
 70
     1
  9
$TEXTSIZE
 40
2.5
  9
$TRACEWID
 40
1.0
  9
$TEXTSTYLE
  7
Standard
  9
$CLAYER
  8
0
  9
$CELTYPE
  6
ByLayer
  9
$CECOLOR
 62
   256
  9
$CELTSCALE
 40
1.0
  9
$DISPSILH
 70
     0
  9
$DIMSCALE
 40
1.0
  9
$DIMASZ
 40
2.5
  9
$DIMEXO
 40
0.625
  9
$DIMDLI
 40
3.75
  9
$DIMRND
 40
0.0
  9
$DIMDLE
 40
0.0
  9
$DIMEXE
 40
1.25
  9
$DIMTP
 40
0.0
  9
$DIMTM
 40
0.0
  9
$DIMTXT
 40
2.5
  9
$DIMCEN
 40
2.5
  9
$DIMTSZ
 40
0.0
  9
$DIMTOL
 70
     0
  9
$DIMLIM
 70
     0
  9
$DIMTIH
 70
     0
  9
$DIMTOH
 70
     0
  9
$DIMSE1
 70
     0
  9
$DIMSE2
 70
     0
  9
$DIMTAD
 70
     1
  9
$DIMZIN
 70
     8
  9
$DIMBLK
  1

  9
$DIMASO
 70
     1
  9
$DIMSHO
 70
     1
  9
$DIMPOST
  1

  9
$DIMAPOST
  1

  9
$DIMALT
 70
     0
  9
$DIMALTD
 70
     3
  9
$DIMALTF
 40
0.03937007874016
  9
$DIMLFAC
 40
1.0
  9
$DIMTOFL
 70
     1
  9
$DIMTVP
 40
0.0
  9
$DIMTIX
 70
     0
  9
$DIMSOXD
 70
     0
  9
$DIMSAH
 70
     0
  9
$DIMBLK1
  1

  9
$DIMBLK2
  1

  9
$DIMSTYLE
  2
ISO-25
  9
$DIMCLRD
 70
     0
  9
$DIMCLRE
 70
     0
  9
$DIMCLRT
 70
     0
  9
$DIMTFAC
 40
1.0
  9
$DIMGAP
 40
0.625
  9
$DIMJUST
 70
     0
  9
$DIMSD1
 70
     0
  9
$DIMSD2
 70
     0
  9
$DIMTOLJ
 70
     0
  9
$DIMTZIN
 70
     8
  9
$DIMALTZ
 70
     0
  9
$DIMALTTZ
 70
     0
  9
$DIMUPT
 70
     0
  9
$DIMDEC
 70
     2
  9
$DIMTDEC
 70
     2
  9
$DIMALTU
 70
     2
  9
$DIMALTTD
 70
     3
  9
$DIMTXSTY
  7
Standard
  9
$DIMAUNIT
 70
     0
  9
$DIMADEC
 70
     0
  9
$DIMALTRND
 40
0.0
  9
$DIMAZIN
 70
     0
  9
$DIMDSEP
 70
    46
  9
$DIMATFIT
 70
     3
  9
$DIMFRAC
 70
     0
  9
$DIMLDRBLK
  1

  9
$DIMLUNIT
 70
     2
  9
$DIMLWD
 70
    -2
  9
$DIMLWE
 70
    -2
  9
$DIMTMOVE
 70
     0
  9
$LUNITS
 70
     2
  9
$LUPREC
 70
     4
  9
$SKETCHINC
 40
1.0
  9
$FILLETRAD
 40
0.0
  9
$AUNITS
 70
     0
  9
$AUPREC
 70
     0
  9
$MENU
  1
.
  9
$ELEVATION
 40
0.0
  9
$PELEVATION
 40
0.0
  9
$THICKNESS
 40
0.0
  9
$LIMCHECK
 70
     0
  9
$CHAMFERA
 40
0.0
  9
$CHAMFERB
 40
0.0
  9
$CHAMFERC
 40
0.0
  9
$CHAMFERD
 40
0.0
  9
$SKPOLY
 70
     0
  9
$TDCREATE
 40
2457844.546102929
  9
$TDUCREATE
 40
2457844.171102928
  9
$TDUPDATE
 40
2457845.422389826
  9
$TDUUPDATE
 40
2457845.047389827
  9
$TDINDWG
 40
0.0185803356
  9
$TDUSRTIMER
 40
0.0185803356
  9
$USRTIMER
 70
     1
  9
$ANGBASE
 50
0.0
  9
$ANGDIR
 70
     0
  9
$PDMODE
 70
     0
  9
$PDSIZE
 40
0.0
  9
$PLINEWID
 40
0.0
  9
$SPLFRAME
 70
     0
  9
$SPLINETYPE
 70
     6
  9
$SPLINESEGS
 70
     8
  9
$HANDSEED
  5
1B13
  9
$SURFTAB1
 70
     6
  9
$SURFTAB2
 70
     6
  9
$SURFTYPE
 70
     6
  9
$SURFU
 70
     6
  9
$SURFV
 70
     6
  9
$UCSBASE
  2

  9
$UCSNAME
  2

  9
$UCSORG
 10
0.0
 20
0.0
 30
0.0
  9
$UCSXDIR
 10
1.0
 20
0.0
 30
0.0
  9
$UCSYDIR
 10
0.0
 20
1.0
 30
0.0
  9
$UCSORTHOREF
  2

  9
$UCSORTHOVIEW
 70
     0
  9
$UCSORGTOP
 10
0.0
 20
0.0
 30
0.0
  9
$UCSORGBOTTOM
 10
0.0
 20
0.0
 30
0.0
  9
$UCSORGLEFT
 10
0.0
 20
0.0
 30
0.0
  9
$UCSORGRIGHT
 10
0.0
 20
0.0
 30
0.0
  9
$UCSORGFRONT
 10
0.0
 20
0.0
 30
0.0
  9
$UCSORGBACK
 10
0.0
 20
0.0
 30
0.0
  9
$PUCSBASE
  2

  9
$PUCSNAME
  2

  9
$PUCSORG
 10
0.0
 20
0.0
 30
0.0
  9
$PUCSXDIR
 10
1.0
 20
0.0
 30
0.0
  9
$PUCSYDIR
 10
0.0
 20
1.0
 30
0.0
  9
$PUCSORTHOREF
  2

  9
$PUCSORTHOVIEW
 70
     0
  9
$PUCSORGTOP
 10
0.0
 20
0.0
 30
0.0
  9
$PUCSORGBOTTOM
 10
0.0
 20
0.0
 30
0.0
  9
$PUCSORGLEFT
 10
0.0
 20
0.0
 30
0.0
  9
$PUCSORGRIGHT
 10
0.0
 20
0.0
 30
0.0
  9
$PUCSORGFRONT
 10
0.0
 20
0.0
 30
0.0
  9
$PUCSORGBACK
 10
0.0
 20
0.0
 30
0.0
  9
$USERI1
 70
     0
  9
$USERI2
 70
     0
  9
$USERI3
 70
     0
  9
$USERI4
 70
     0
  9
$USERI5
 70
     0
  9
$USERR1
 40
0.0
  9
$USERR2
 40
0.0
  9
$USERR3
 40
0.0
  9
$USERR4
 40
0.0
  9
$USERR5
 40
0.0
  9
$WORLDVIEW
 70
     1
  9
$SHADEDGE
 70
     3
  9
$SHADEDIF
 70
    70
  9
$TILEMODE
 70
     1
  9
$MAXACTVP
 70
    64
  9
$PINSBASE
 10
0.0
 20
0.0
 30
0.0
  9
$PLIMCHECK
 70
     0
  9
$PEXTMIN
 10
1.000000000000000E+20
 20
1.000000000000000E+20
 30
1.000000000000000E+20
  9
$PEXTMAX
 10
-1.000000000000000E+20
 20
-1.000000000000000E+20
 30
-1.000000000000000E+20
  9
$PLIMMIN
 10
0.0
 20
0.0
  9
$PLIMMAX
 10
420.0
 20
297.0
  9
$UNITMODE
 70
     0
  9
$VISRETAIN
 70
     1
  9
$PLINEGEN
 70
     0
  9
$PSLTSCALE
 70
     1
  9
$TREEDEPTH
 70
  3020
  9
$CMLSTYLE
  2
Standard
  9
$CMLJUST
 70
     0
  9
$CMLSCALE
 40
20.0
  9
$PROXYGRAPHICS
 70
     1
  9
$MEASUREMENT
 70
     1
  9
$CELWEIGHT
370
    -1
  9
$ENDCAPS
280
     0
  9
$JOINSTYLE
280
     0
  9
$LWDISPLAY
290
     0
  9
$INSUNITS
 70
     4
  9
$HYPERLINKBASE
  1

  9
$STYLESHEET
  1

  9
$XEDIT
290
     1
  9
$CEPSNTYPE
380
     0
  9
$PSTYLEMODE
290
     1
  9
$FINGERPRINTGUID
  2
{4F9E27E6-AC4F-438C-9DE4-9F65CECFAF86}
  9
$VERSIONGUID
  2
{5D94E0DE-E4BE-4A71-8111-BDC01F6F1C8E}
  9
$EXTNAMES
290
     1
  9
$PSVPSCALE
 40
0.0
  9
$OLESTARTUP
290
     0
  0
ENDSEC
  0
SECTION
  2
CLASSES
  0
CLASS
  1
ACDBDICTIONARYWDFLT
  2
AcDbDictionaryWithDefault
  3
ObjectDBX Classes
 90
        0
280
     0
281
     0
  0
CLASS
  1
DICTIONARYVAR
  2
AcDbDictionaryVar
  3
ObjectDBX Classes
 90
        0
280
     0
281
     0
  0
CLASS
  1
ACDBPLACEHOLDER
  2
AcDbPlaceHolder
  3
ObjectDBX Classes
 90
        0
280
     0
281
     0
  0
CLASS
  1
LAYOUT
  2
AcDbLayout
  3
ObjectDBX Classes
 90
        0
280
     0
281
     0
  0
ENDSEC
  0
SECTION
  2
TABLES
  0
TABLE
  2
VPORT
  5
8
330
0
100
AcDbSymbolTable
 70
     2
  0
VPORT
  5
1B09
330
8
100
AcDbSymbolTableRecord
100
AcDbViewportTableRecord
  2
*Active
 70
     0
 10
0.0
 20
0.0
 11
1.0
 21
1.0
 12
3324.884084953236
 22
2348.4374584739
 13
0.0
 23
0.0
 14
10.0
 24
10.0
 15
10.0
 25
10.0
 16
0.0
 26
0.0
 36
1.0
 17
0.0
 27
0.0
 37
0.0
 40
9571.961620920964
 41
1.615068493150684
 42
50.0
 43
0.0
 44
0.0
 50
0.0
 51
0.0
 71
     0
 72
  1000
 73
     1
 74
     3
 75
     0
 76
     0
 77
     0
 78
     0
281
     0
 65
     1
110
0.0
120
0.0
130
0.0
111
1.0
121
0.0
131
0.0
112
0.0
122
1.0
132
0.0
 79
     0
146
0.0
  0
ENDTAB
  0
TABLE
  2
LTYPE
  5
5
330
0
100
AcDbSymbolTable
 70
     2
  0
LTYPE
  5
14
330
5
100
AcDbSymbolTableRecord
100
AcDbLinetypeTableRecord
  2
ByBlock
 70
     0
  3

 72
    65
 73
     0
 40
0.0
  0
LTYPE
  5
15
330
5
100
AcDbSymbolTableRecord
100
AcDbLinetypeTableRecord
  2
ByLayer
 70
     0
  3

 72
    65
 73
     0
 40
0.0
  0
LTYPE
  5
16
330
5
100
AcDbSymbolTableRecord
100
AcDbLinetypeTableRecord
  2
Continuous
 70
     0
  3
Solid line
 72
    65
 73
     0
 40
0.0
  0
LTYPE
  5
852
330
5
100
AcDbSymbolTableRecord
100
AcDbLinetypeTableRecord
  2
HIDDEN
 70
     0
  3
- - - - - - - - 
 72
    65
 73
     2
 40
12.6
 49
8.4
 74
     0
 49
-4.2
 74
     0
  0
ENDTAB
  0
TABLE
  2
LAYER
  5
2
330
0
100
AcDbSymbolTable
 70
     6
  0
LAYER
  5
10
330
2
100
AcDbSymbolTableRecord
100
AcDbLayerTableRecord
  2
0
 70
     0
 62
     7
  6
Continuous
370
    -3
390
F
  0
LAYER
  5
1E7
330
2
100
AcDbSymbolTableRecord
100
AcDbLayerTableRecord
  2
1
 70
     0
 62
     7
  6
Continuous
370
    -3
390
F
  0
LAYER
  5
1E8
330
2
100
AcDbSymbolTableRecord
100
AcDbLayerTableRecord
  2
DEFPOINTS
 70
     0
 62
     7
  6
Continuous
290
     0
370
    -3
390
F
  0
LAYER
  5
1E9
330
2
100
AcDbSymbolTableRecord
100
AcDbLayerTableRecord
  2
sunpo
 70
     0
 62
     7
  6
Continuous
370
    -3
390
F
  0
LAYER
  5
1EA
330
2
100
AcDbSymbolTableRecord
100
AcDbLayerTableRecord
  2
seihin
 70
     0
 62
     1
  6
Continuous
370
    -3
390
F
  0
LAYER
  5
853
330
2
100
AcDbSymbolTableRecord
100
AcDbLayerTableRecord
  2
dashed
 70
     0
 62
     7
  6
Continuous
370
    -3
390
F
  0
ENDTAB
  0
TABLE
  2
STYLE
  5
3
330
0
100
AcDbSymbolTable
 70
     1
  0
STYLE
  5
11
330
3
100
AcDbSymbolTableRecord
100
AcDbTextStyleTableRecord
  2
Standard
 70
     0
 40
0.0
 41
1.0
 50
0.0
 71
     0
 42
2.5
  3

  4

1001
ACAD
1000
MS Gothic
1071
    32817
  0
ENDTAB
  0
TABLE
  2
VIEW
  5
6
330
0
100
AcDbSymbolTable
 70
     0
  0
ENDTAB
  0
TABLE
  2
UCS
  5
7
330
0
100
AcDbSymbolTable
 70
     0
  0
ENDTAB
  0
TABLE
  2
APPID
  5
9
330
0
100
AcDbSymbolTable
 70
     1
  0
APPID
  5
12
330
9
100
AcDbSymbolTableRecord
100
AcDbRegAppTableRecord
  2
ACAD
 70
     0
  0
ENDTAB
  0
TABLE
  2
DIMSTYLE
  5
A
330
0
100
AcDbSymbolTable
 70
     2
100
AcDbDimStyleTable
 71
     0
  0
DIMSTYLE
105
29
330
A
100
AcDbSymbolTableRecord
100
AcDbDimStyleTableRecord
  2
ISO-25
 70
     0
 41
2.5
 42
0.625
 43
3.75
 44
1.25
 73
     0
 74
     0
 77
     1
 78
     8
140
2.5
141
2.5
143
0.03937007874016
147
0.625
171
     3
172
     1
271
     2
272
     2
274
     3
283
     0
284
     8
340
11
  0
DIMSTYLE
105
1EB
102
{ACAD_REACTORS
330
91C
330
91D
330
920
330
922
330
923
330
924
330
925
330
926
330
927
330
928
330
929
330
92A
330
92B
330
92C
330
92D
330
934
330
935
330
936
330
937
330
938
330
939
330
93A
330
93B
330
93C
330
93D
330
97B
330
97C
330
97D
330
97E
330
97F
330
981
330
982
330
983
330
9A9
330
9AA
330
9AB
330
9AC
330
9AD
330
9AE
330
9AF
330
9B4
330
9B9
330
9BA
330
9BB
330
9D1
330
9D2
330
9D3
330
9D4
330
9D5
330
111E
330
1129
330
112A
330
112B
330
112C
330
112D
330
112E
330
112F
330
1130
330
1131
330
1132
330
1135
330
1136
330
1137
330
1138
330
1139
330
113A
330
113B
330
113C
330
113D
330
113E
330
113F
330
1140
330
117B
330
117C
330
117D
330
117E
330
117F
330
1180
330
1181
330
1182
330
1183
330
1184
330
1185
330
1186
330
1187
330
1188
330
1189
330
118A
330
118B
330
118C
330
118D
330
11A7
330
11B8
330
11BF
330
11D0
330
11D1
330
11D2
102
}
330
A
100
AcDbSymbolTableRecord
100
AcDbDimStyleTableRecord
  2
20
 70
     0
 40
15.0
 41
2.0
 42
2.5
 43
3.75
 44
1.25
 73
     0
 74
     0
 77
     1
 78
     8
140
2.5
141
2.5
143
0.0394
147
0.625
171
     4
271
     1
272
     1
273
     8
274
     4
275
     1
279
     2
340
11
341
2D
342
2D
  0
ENDTAB
  0
TABLE
  2
BLOCK_RECORD
  5
1
330
0
100
AcDbSymbolTable
 70
   268
  0
BLOCK_RECORD
  5
21
330
1
100
AcDbSymbolTableRecord
100
AcDbBlockTableRecord
  2
*Model_Space
340
24
  0
BLOCK_RECORD
  5
1D
330
1
100
AcDbSymbolTableRecord
100
AcDbBlockTableRecord
  2
*Paper_Space
340
20
  0
BLOCK_RECORD
  5
25
330
1
100
AcDbSymbolTableRecord
100
AcDbBlockTableRecord
  2
*Paper_Space0
340
28
  0
BLOCK_RECORD
  5
2D
330
1
100
AcDbSymbolTableRecord
100
AcDbBlockTableRecord
  2
_OPEN
340
0
102
{BLKREFS
331
106
331
107
331
FA
331
FB
331
EE
331
EF
331
E2
331
E3
331
D6
331
D7
331
CA
331
CB
331
BE
331
BF
331
B3
331
B4
331
A5
331
A6
331
9A
331
9B
331
8C
331
8D
331
80
331
81
331
74
331
75
331
68
331
69
331
5C
331
5D
331
50
331
51
331
44
331
45
331
38
331
39
331
1B0
331
1B1
331
1BC
331
1BD
331
1C8
331
1C9
331
1D4
331
1D5
331
1E0
331
1E1
331
1A4
331
1A5
331
180
331
181
331
18C
331
18D
331
198
331
199
331
120
331
121
331
12B
331
12C
331
139
331
13A
331
144
331
145
331
150
331
151
331
112
331
113
331
15C
331
15D
331
168
331
169
331
174
331
175
331
4B9
331
4BA
331
4C2
331
4C3
331
4CB
331
4CC
331
4D4
331
4D5
331
4DD
331
4DE
331
4E6
331
4E7
331
4EF
331
4F0
331
4F8
331
4F9
331
501
331
502
331
50C
331
50D
331
514
331
515
331
51F
331
520
331
527
331
528
331
530
331
531
331
539
331
53A
331
542
331
543
331
54B
331
54C
331
554
331
555
331
55D
331
55E
331
566
331
567
331
56F
331
570
331
578
331
579
331
581
331
582
331
58A
331
58B
331
593
331
594
331
59E
331
59F
331
5A6
331
5A7
331
5B1
331
5B2
331
5B9
331
5BA
331
5C2
331
5C3
331
5CB
331
5CC
331
5D4
331
5D5
331
5DD
331
5DE
331
5E6
331
5E7
331
5EF
331
5F0
331
5F8
331
5F9
331
6BB
331
6BC
331
6AF
331
6B0
331
6A3
331
6A4
331
697
331
698
331
68B
331
68C
331
67F
331
680
331
673
331
674
331
667
331
668
331
65C
331
65D
331
64E
331
64F
331
643
331
644
331
635
331
636
331
629
331
62A
331
61D
331
61E
331
611
331
612
331
605
331
606
331
84B
331
84C
331
83F
331
840
331
833
331
834
331
80F
331
810
331
81B
331
81C
331
827
331
828
331
7BB
331
7BC
331
7C6
331
7C7
331
7D4
331
7D5
331
7EB
331
7EC
331
7F7
331
7F8
331
7DF
331
7E0
331
803
331
804
331
7A1
331
7A2
331
795
331
796
331
7AD
331
7AE
331
789
331
78A
331
771
331
772
331
77D
331
77E
331
740
331
741
331
74E
331
74F
331
759
331
75A
331
765
331
766
331
734
331
735
331
728
331
729
331
71C
331
71D
331
710
331
711
331
704
331
705
331
6F8
331
6F9
331
6EC
331
6ED
331
6E0
331
6E1
331
6D5
331
6D6
331
6C7
331
6C8
331
C31
331
C32
331
C3A
331
C3B
331
C43
331
C44
331
C4C
331
C4D
331
C55
331
C56
331
C5E
331
C5F
331
C69
331
C6A
331
C71
331
C72
331
C7C
331
C7D
331
C84
331
C85
331
C8D
331
C8E
331
C96
331
C97
331
C9F
331
CA0
331
D67
331
D68
331
D70
331
D71
331
D79
331
D7A
331
D82
331
D83
331
D8B
331
D8C
331
D94
331
D95
331
D9D
331
D9E
331
DA8
331
DA9
331
DB0
331
DB1
331
DBB
331
DBC
331
DC3
331
DC4
331
DCC
331
DCD
331
FF0
331
FF1
331
100A
331
100B
331
1015
331
1016
331
FFC
331
FFD
331
FD8
331
FD9
331
FE4
331
FE5
331
FCC
331
FCD
331
F8E
331
F8F
331
FA8
331
FA9
331
FB3
331
FB4
331
FC1
331
FC2
331
F6A
331
F6B
331
F76
331
F77
331
F9A
331
F9B
331
F5E
331
F5F
331
F82
331
F83
331
F52
331
F53
331
F46
331
F47
331
F3A
331
F3B
331
F2E
331
F2F
331
E5D
331
E5E
331
E51
331
E52
331
E45
331
E46
331
E39
331
E3A
331
E2D
331
E2E
331
E21
331
E22
331
E15
331
E16
331
E09
331
E0A
331
DFD
331
DFE
331
F22
331
F23
331
F17
331
F18
331
F0A
331
F0B
331
EFC
331
EFD
331
EF0
331
EF1
331
EE5
331
EE6
331
ED8
331
ED9
331
ECA
331
ECB
331
EBF
331
EC0
331
EB1
331
EB2
331
EA5
331
EA6
331
E99
331
E9A
331
E8D
331
E8E
331
E81
331
E82
331
E75
331
E76
331
E69
331
E6A
331
103A
331
103B
331
1021
331
1022
331
102F
331
1030
331
16C2
331
16C3
331
16CB
331
16CC
331
16D4
331
16D5
331
16DD
331
16DE
331
16E6
331
16E7
331
16EF
331
16F0
331
16F8
331
16F9
331
1703
331
1704
331
170B
331
170C
331
1716
331
1717
331
1720
331
1721
331
1728
331
1729
331
1731
331
1732
331
173C
331
173D
331
1746
331
1747
331
174E
331
174F
331
1757
331
1758
331
1760
331
1761
331
1769
331
176A
331
1772
331
1773
331
177B
331
177C
331
1784
331
1785
331
178D
331
178E
331
1796
331
1797
331
179F
331
17A0
331
1956
331
1957
331
195F
331
1960
331
1968
331
1969
331
1971
331
1972
331
197A
331
197B
331
1983
331
1984
331
198C
331
198D
331
1995
331
1996
331
199E
331
199F
331
19A9
331
19AA
331
19B1
331
19B2
331
19BC
331
19BD
331
19C4
331
19C5
331
19CD
331
19CE
331
19D6
331
19D7
331
19DF
331
19E0
331
19E8
331
19E9
331
19F1
331
19F2
331
19FC
331
19FD
331
1A04
331
1A05
331
1A0F
331
1A10
331
1A17
331
1A18
331
1A20
331
1A21
331
1A29
331
1A2A
331
1A32
331
1A33
331
1A3B
331
1A3C
331
1A44
331
1A45
331
1A4D
331
1A4E
331
1A58
331
1A59
331
1A60
331
1A61
331
1A69
331
1A6A
331
1A72
331
1A73
331
1A7B
331
1A7C
331
1A84
331
1A85
331
1A8D
331
1A8E
331
1A96
331
1A97
331
1A9F
331
1AA0
331
1AA8
331
1AA9
331
1AB1
331
1AB2
331
1ABC
331
1ABD
331
1AC4
331
1AC5
331
1ACD
331
1ACE
331
1AD6
331
1AD7
331
1ADF
331
1AE0
331
1AE8
331
1AE9
331
1AF1
331
1AF2
331
1AFA
331
1AFB
102
}
  0
BLOCK_RECORD
  5
9DC
330
1
100
AcDbSymbolTableRecord
100
AcDbBlockTableRecord
  2
*D123
340
0
  0
BLOCK_RECORD
  5
9E8
330
1
100
AcDbSymbolTableRecord
100
AcDbBlockTableRecord
  2
*D124
340
0
  0
BLOCK_RECORD
  5
9F4
330
1
100
AcDbSymbolTableRecord
100
AcDbBlockTableRecord
  2
*D125
340
0
  0
BLOCK_RECORD
  5
A00
330
1
100
AcDbSymbolTableRecord
100
AcDbBlockTableRecord
  2
*D126
340
0
  0
BLOCK_RECORD
  5
A0C
330
1
100
AcDbSymbolTableRecord
100
AcDbBlockTableRecord
  2
*D127
340
0
  0
BLOCK_RECORD
  5
A18
330
1
100
AcDbSymbolTableRecord
100
AcDbBlockTableRecord
  2
*D128
340
0
  0
BLOCK_RECORD
  5
A24
330
1
100
AcDbSymbolTableRecord
100
AcDbBlockTableRecord
  2
*D129
340
0
  0
BLOCK_RECORD
  5
A31
330
1
100
AcDbSymbolTableRecord
100
AcDbBlockTableRecord
  2
*D130
340
0
  0
BLOCK_RECORD
  5
A3D
330
1
100
AcDbSymbolTableRecord
100
AcDbBlockTableRecord
  2
*D131
340
0
  0
BLOCK_RECORD
  5
A4A
330
1
100
AcDbSymbolTableRecord
100
AcDbBlockTableRecord
  2
*D132
340
0
  0
BLOCK_RECORD
  5
A56
330
1
100
AcDbSymbolTableRecord
100
AcDbBlockTableRecord
  2
*D133
340
0
  0
BLOCK_RECORD
  5
A62
330
1
100
AcDbSymbolTableRecord
100
AcDbBlockTableRecord
  2
*D134
340
0
  0
BLOCK_RECORD
  5
A6E
330
1
100
AcDbSymbolTableRecord
100
AcDbBlockTableRecord
  2
*D135
340
0
  0
BLOCK_RECORD
  5
A7A
330
1
100
AcDbSymbolTableRecord
100
AcDbBlockTableRecord
  2
*D136
340
0
  0
BLOCK_RECORD
  5
A86
330
1
100
AcDbSymbolTableRecord
100
AcDbBlockTableRecord
  2
*D137
340
0
  0
BLOCK_RECORD
  5
A92
330
1
100
AcDbSymbolTableRecord
100
AcDbBlockTableRecord
  2
*D138
340
0
  0
BLOCK_RECORD
  5
A9E
330
1
100
AcDbSymbolTableRecord
100
AcDbBlockTableRecord
  2
*D139
340
0
  0
BLOCK_RECORD
  5
AAA
330
1
100
AcDbSymbolTableRecord
100
AcDbBlockTableRecord
  2
*D140
340
0
  0
BLOCK_RECORD
  5
AB6
330
1
100
AcDbSymbolTableRecord
100
AcDbBlockTableRecord
  2
*D141
340
0
  0
BLOCK_RECORD
  5
AC2
330
1
100
AcDbSymbolTableRecord
100
AcDbBlockTableRecord
  2
*D142
340
0
  0
BLOCK_RECORD
  5
ACE
330
1
100
AcDbSymbolTableRecord
100
AcDbBlockTableRecord
  2
*D143
340
0
  0
BLOCK_RECORD
  5
ADB
330
1
100
AcDbSymbolTableRecord
100
AcDbBlockTableRecord
  2
*D144
340
0
  0
BLOCK_RECORD
  5
AE7
330
1
100
AcDbSymbolTableRecord
100
AcDbBlockTableRecord
  2
*D145
340
0
  0
BLOCK_RECORD
  5
AF3
330
1
100
AcDbSymbolTableRecord
100
AcDbBlockTableRecord
  2
*D146
340
0
  0
BLOCK_RECORD
  5
AFF
330
1
100
AcDbSymbolTableRecord
100
AcDbBlockTableRecord
  2
*D147
340
0
  0
BLOCK_RECORD
  5
B0B
330
1
100
AcDbSymbolTableRecord
100
AcDbBlockTableRecord
  2
*D148
340
0
  0
BLOCK_RECORD
  5
B17
330
1
100
AcDbSymbolTableRecord
100
AcDbBlockTableRecord
  2
*D149
340
0
  0
BLOCK_RECORD
  5
B23
330
1
100
AcDbSymbolTableRecord
100
AcDbBlockTableRecord
  2
*D150
340
0
  0
BLOCK_RECORD
  5
B2F
330
1
100
AcDbSymbolTableRecord
100
AcDbBlockTableRecord
  2
*D151
340
0
  0
BLOCK_RECORD
  5
B3B
330
1
100
AcDbSymbolTableRecord
100
AcDbBlockTableRecord
  2
*D152
340
0
  0
BLOCK_RECORD
  5
B47
330
1
100
AcDbSymbolTableRecord
100
AcDbBlockTableRecord
  2
*D153
340
0
  0
BLOCK_RECORD
  5
B53
330
1
100
AcDbSymbolTableRecord
100
AcDbBlockTableRecord
  2
*D154
340
0
  0
BLOCK_RECORD
  5
B60
330
1
100
AcDbSymbolTableRecord
100
AcDbBlockTableRecord
  2
*D155
340
0
  0
BLOCK_RECORD
  5
B6C
330
1
100
AcDbSymbolTableRecord
100
AcDbBlockTableRecord
  2
*D156
340
0
  0
BLOCK_RECORD
  5
B78
330
1
100
AcDbSymbolTableRecord
100
AcDbBlockTableRecord
  2
*D157
340
0
  0
BLOCK_RECORD
  5
B84
330
1
100
AcDbSymbolTableRecord
100
AcDbBlockTableRecord
  2
*D158
340
0
  0
BLOCK_RECORD
  5
B90
330
1
100
AcDbSymbolTableRecord
100
AcDbBlockTableRecord
  2
*D159
340
0
  0
BLOCK_RECORD
  5
B9C
330
1
100
AcDbSymbolTableRecord
100
AcDbBlockTableRecord
  2
*D160
340
0
  0
BLOCK_RECORD
  5
BA8
330
1
100
AcDbSymbolTableRecord
100
AcDbBlockTableRecord
  2
*D161
340
0
  0
BLOCK_RECORD
  5
BB4
330
1
100
AcDbSymbolTableRecord
100
AcDbBlockTableRecord
  2
*D162
340
0
  0
BLOCK_RECORD
  5
BC0
330
1
100
AcDbSymbolTableRecord
100
AcDbBlockTableRecord
  2
*D163
340
0
  0
BLOCK_RECORD
  5
BCC
330
1
100
AcDbSymbolTableRecord
100
AcDbBlockTableRecord
  2
*D164
340
0
  0
BLOCK_RECORD
  5
BD9
330
1
100
AcDbSymbolTableRecord
100
AcDbBlockTableRecord
  2
*D165
340
0
  0
BLOCK_RECORD
  5
BE5
330
1
100
AcDbSymbolTableRecord
100
AcDbBlockTableRecord
  2
*D166
340
0
  0
BLOCK_RECORD
  5
BF2
330
1
100
AcDbSymbolTableRecord
100
AcDbBlockTableRecord
  2
*D167
340
0
  0
BLOCK_RECORD
  5
BFE
330
1
100
AcDbSymbolTableRecord
100
AcDbBlockTableRecord
  2
*D168
340
0
  0
BLOCK_RECORD
  5
C0A
330
1
100
AcDbSymbolTableRecord
100
AcDbBlockTableRecord
  2
*D169
340
0
  0
BLOCK_RECORD
  5
C16
330
1
100
AcDbSymbolTableRecord
100
AcDbBlockTableRecord
  2
*D170
340
0
  0
BLOCK_RECORD
  5
C22
330
1
100
AcDbSymbolTableRecord
100
AcDbBlockTableRecord
  2
*D171
340
0
  0
BLOCK_RECORD
  5
11D3
330
1
100
AcDbSymbolTableRecord
100
AcDbBlockTableRecord
  2
*D220
340
0
  0
BLOCK_RECORD
  5
11DF
330
1
100
AcDbSymbolTableRecord
100
AcDbBlockTableRecord
  2
*D221
340
0
  0
BLOCK_RECORD
  5
11EB
330
1
100
AcDbSymbolTableRecord
100
AcDbBlockTableRecord
  2
*D222
340
0
  0
BLOCK_RECORD
  5
11F8
330
1
100
AcDbSymbolTableRecord
100
AcDbBlockTableRecord
  2
*D223
340
0
  0
BLOCK_RECORD
  5
1204
330
1
100
AcDbSymbolTableRecord
100
AcDbBlockTableRecord
  2
*D224
340
0
  0
BLOCK_RECORD
  5
1211
330
1
100
AcDbSymbolTableRecord
100
AcDbBlockTableRecord
  2
*D225
340
0
  0
BLOCK_RECORD
  5
121D
330
1
100
AcDbSymbolTableRecord
100
AcDbBlockTableRecord
  2
*D226
340
0
  0
BLOCK_RECORD
  5
1229
330
1
100
AcDbSymbolTableRecord
100
AcDbBlockTableRecord
  2
*D227
340
0
  0
BLOCK_RECORD
  5
1235
330
1
100
AcDbSymbolTableRecord
100
AcDbBlockTableRecord
  2
*D228
340
0
  0
BLOCK_RECORD
  5
1241
330
1
100
AcDbSymbolTableRecord
100
AcDbBlockTableRecord
  2
*D229
340
0
  0
BLOCK_RECORD
  5
124D
330
1
100
AcDbSymbolTableRecord
100
AcDbBlockTableRecord
  2
*D230
340
0
  0
BLOCK_RECORD
  5
1259
330
1
100
AcDbSymbolTableRecord
100
AcDbBlockTableRecord
  2
*D231
340
0
  0
BLOCK_RECORD
  5
1266
330
1
100
AcDbSymbolTableRecord
100
AcDbBlockTableRecord
  2
*D232
340
0
  0
BLOCK_RECORD
  5
1272
330
1
100
AcDbSymbolTableRecord
100
AcDbBlockTableRecord
  2
*D233
340
0
  0
BLOCK_RECORD
  5
127F
330
1
100
AcDbSymbolTableRecord
100
AcDbBlockTableRecord
  2
*D234
340
0
  0
BLOCK_RECORD
  5
128B
330
1
100
AcDbSymbolTableRecord
100
AcDbBlockTableRecord
  2
*D235
340
0
  0
BLOCK_RECORD
  5
1297
330
1
100
AcDbSymbolTableRecord
100
AcDbBlockTableRecord
  2
*D236
340
0
  0
BLOCK_RECORD
  5
12A3
330
1
100
AcDbSymbolTableRecord
100
AcDbBlockTableRecord
  2
*D237
340
0
  0
BLOCK_RECORD
  5
12AF
330
1
100
AcDbSymbolTableRecord
100
AcDbBlockTableRecord
  2
*D238
340
0
  0
BLOCK_RECORD
  5
12BB
330
1
100
AcDbSymbolTableRecord
100
AcDbBlockTableRecord
  2
*D239
340
0
  0
BLOCK_RECORD
  5
12C7
330
1
100
AcDbSymbolTableRecord
100
AcDbBlockTableRecord
  2
*D240
340
0
  0
BLOCK_RECORD
  5
12D3
330
1
100
AcDbSymbolTableRecord
100
AcDbBlockTableRecord
  2
*D241
340
0
  0
BLOCK_RECORD
  5
12DF
330
1
100
AcDbSymbolTableRecord
100
AcDbBlockTableRecord
  2
*D242
340
0
  0
BLOCK_RECORD
  5
12EB
330
1
100
AcDbSymbolTableRecord
100
AcDbBlockTableRecord
  2
*D243
340
0
  0
BLOCK_RECORD
  5
12F7
330
1
100
AcDbSymbolTableRecord
100
AcDbBlockTableRecord
  2
*D244
340
0
  0
BLOCK_RECORD
  5
1303
330
1
100
AcDbSymbolTableRecord
100
AcDbBlockTableRecord
  2
*D245
340
0
  0
BLOCK_RECORD
  5
130F
330
1
100
AcDbSymbolTableRecord
100
AcDbBlockTableRecord
  2
*D246
340
0
  0
BLOCK_RECORD
  5
131B
330
1
100
AcDbSymbolTableRecord
100
AcDbBlockTableRecord
  2
*D247
340
0
  0
BLOCK_RECORD
  5
1327
330
1
100
AcDbSymbolTableRecord
100
AcDbBlockTableRecord
  2
*D248
340
0
  0
BLOCK_RECORD
  5
1333
330
1
100
AcDbSymbolTableRecord
100
AcDbBlockTableRecord
  2
*D249
340
0
  0
BLOCK_RECORD
  5
133F
330
1
100
AcDbSymbolTableRecord
100
AcDbBlockTableRecord
  2
*D250
340
0
  0
BLOCK_RECORD
  5
134B
330
1
100
AcDbSymbolTableRecord
100
AcDbBlockTableRecord
  2
*D251
340
0
  0
BLOCK_RECORD
  5
1357
330
1
100
AcDbSymbolTableRecord
100
AcDbBlockTableRecord
  2
*D252
340
0
  0
BLOCK_RECORD
  5
1363
330
1
100
AcDbSymbolTableRecord
100
AcDbBlockTableRecord
  2
*D253
340
0
  0
BLOCK_RECORD
  5
1370
330
1
100
AcDbSymbolTableRecord
100
AcDbBlockTableRecord
  2
*D254
340
0
  0
BLOCK_RECORD
  5
137D
330
1
100
AcDbSymbolTableRecord
100
AcDbBlockTableRecord
  2
*D255
340
0
  0
BLOCK_RECORD
  5
1389
330
1
100
AcDbSymbolTableRecord
100
AcDbBlockTableRecord
  2
*D256
340
0
  0
BLOCK_RECORD
  5
1395
330
1
100
AcDbSymbolTableRecord
100
AcDbBlockTableRecord
  2
*D257
340
0
  0
BLOCK_RECORD
  5
13A2
330
1
100
AcDbSymbolTableRecord
100
AcDbBlockTableRecord
  2
*D258
340
0
  0
BLOCK_RECORD
  5
13AF
330
1
100
AcDbSymbolTableRecord
100
AcDbBlockTableRecord
  2
*D259
340
0
  0
BLOCK_RECORD
  5
13BB
330
1
100
AcDbSymbolTableRecord
100
AcDbBlockTableRecord
  2
*D260
340
0
  0
BLOCK_RECORD
  5
13C8
330
1
100
AcDbSymbolTableRecord
100
AcDbBlockTableRecord
  2
*D261
340
0
  0
BLOCK_RECORD
  5
13D4
330
1
100
AcDbSymbolTableRecord
100
AcDbBlockTableRecord
  2
*D262
340
0
  0
BLOCK_RECORD
  5
13E0
330
1
100
AcDbSymbolTableRecord
100
AcDbBlockTableRecord
  2
*D263
340
0
  0
BLOCK_RECORD
  5
13EC
330
1
100
AcDbSymbolTableRecord
100
AcDbBlockTableRecord
  2
*D264
340
0
  0
BLOCK_RECORD
  5
13F8
330
1
100
AcDbSymbolTableRecord
100
AcDbBlockTableRecord
  2
*D265
340
0
  0
BLOCK_RECORD
  5
1404
330
1
100
AcDbSymbolTableRecord
100
AcDbBlockTableRecord
  2
*D266
340
0
  0
BLOCK_RECORD
  5
1410
330
1
100
AcDbSymbolTableRecord
100
AcDbBlockTableRecord
  2
*D267
340
0
  0
ENDTAB
  0
ENDSEC
  0
SECTION
  2
BLOCKS
  0
BLOCK
  5
22
330
21
100
AcDbEntity
  8
0
100
AcDbBlockBegin
  2
*Model_Space
 70
     0
 10
0.0
 20
0.0
 30
0.0
  3
*Model_Space
  1

  0
ENDBLK
  5
23
330
21
100
AcDbEntity
  8
0
100
AcDbBlockEnd
  0
BLOCK
  5
1E
330
1D
100
AcDbEntity
 67
     1
  8
0
100
AcDbBlockBegin
  2
*Paper_Space
 70
     0
 10
0.0
 20
0.0
 30
0.0
  3
*Paper_Space
  1

  0
ENDBLK
  5
1F
330
1D
100
AcDbEntity
 67
     1
  8
0
100
AcDbBlockEnd
  0
BLOCK
  5
26
330
25
100
AcDbEntity
  8
0
100
AcDbBlockBegin
  2
*Paper_Space0
 70
     0
 10
0.0
 20
0.0
 30
0.0
  3
*Paper_Space0
  1

  0
ENDBLK
  5
27
330
25
100
AcDbEntity
  8
0
100
AcDbBlockEnd
  0
BLOCK
  5
2E
330
2D
100
AcDbEntity
  8
0
100
AcDbBlockBegin
  2
_OPEN
 70
     0
 10
0.0
 20
0.0
 30
0.0
  3
_OPEN
  1

  0
LINE
  5
2F
330
2D
100
AcDbEntity
  8
0
  6
ByBlock
 62
     0
100
AcDbLine
 10
-1.0
 20
0.1666666666666666
 30
0.0
 11
0.0
 21
0.0
 31
0.0
  0
LINE
  5
30
330
2D
100
AcDbEntity
  8
0
  6
ByBlock
 62
     0
100
AcDbLine
 10
0.0
 20
0.0
 30
0.0
 11
-1.0
 21
-0.1666666666666666
 31
0.0
  0
LINE
  5
31
330
2D
100
AcDbEntity
  8
0
  6
ByBlock
 62
     0
100
AcDbLine
 10
0.0
 20
0.0
 30
0.0
 11
-1.0
 21
0.0
 31
0.0
  0
ENDBLK
  5
32
330
2D
100
AcDbEntity
  8
0
100
AcDbBlockEnd
  0
BLOCK
  5
9E6
330
9DC
100
AcDbEntity
  8
0
100
AcDbBlockBegin
  2
*D123
 70
     1
 10
0.0
 20
0.0
 30
0.0
  3
*D123
  1

  0
LINE
  5
C2E
330
9DC
100
AcDbEntity
  8
sunpo
 62
     0
370
    -2
100
AcDbLine
 10
3953.805712293913
 20
1110.576420801772
 30
0.0
 11
3953.805712293913
 21
1296.438049572552
 31
0.0
  0
LINE
  5
C2F
330
9DC
100
AcDbEntity
  8
sunpo
 62
     0
370
    -2
100
AcDbLine
 10
4668.805712293913
 20
1120.576420801771
 30
0.0
 11
4668.805712293913
 21
1296.438049572552
 31
0.0
  0
LINE
  5
C30
330
9DC
100
AcDbEntity
  8
sunpo
 62
     0
370
    -2
100
AcDbLine
 10
3983.805712293913
 20
1277.688049572552
 30
0.0
 11
4638.805712293914
 21
1277.688049572552
 31
0.0
  0
INSERT
  5
C31
330
9DC
100
AcDbEntity
  8
sunpo
 62
     0
370
    -2
100
AcDbBlockReference
  2
_OPEN
 10
3953.805712293913
 20
1277.688049572552
 30
0.0
 41
30.0
 42
30.0
 43
30.0
 50
180.0
  0
INSERT
  5
C32
330
9DC
100
AcDbEntity
  8
sunpo
 62
     0
370
    -2
100
AcDbBlockReference
  2
_OPEN
 10
4668.805712293913
 20
1277.688049572552
 30
0.0
 41
30.0
 42
30.0
 43
30.0
  0
MTEXT
  5
C33
330
9DC
100
AcDbEntity
  8
sunpo
 62
     0
370
    20
100
AcDbMText
 10
4311.305712293914
 20
1305.813049572553
 30
0.0
 40
37.5
 41
0.0
 71
     5
 72
     1
  1
\A1;715
 73
     1
 44
1.0
1001
ACAD
1000
MTEXTBEGIN
1070
    73
1070
     1
1070
    44
1040
1.0
1070
    74
1070
     0
1000
MTEXTEND
  0
POINT
  5
C34
330
9DC
100
AcDbEntity
  8
DEFPOINTS
 62
     0
100
AcDbPoint
 10
3953.805712293913
 20
1073.076420801772
 30
0.0
  0
POINT
  5
C35
330
9DC
100
AcDbEntity
  8
DEFPOINTS
 62
     0
100
AcDbPoint
 10
4668.805712293913
 20
1083.076420801772
 30
0.0
  0
POINT
  5
C36
330
9DC
100
AcDbEntity
  8
DEFPOINTS
 62
     0
100
AcDbPoint
 10
4668.805712293913
 20
1277.688049572552
 30
0.0
  0
ENDBLK
  5
9E7
330
9DC
100
AcDbEntity
  8
0
100
AcDbBlockEnd
  0
BLOCK
  5
9F2
330
9E8
100
AcDbEntity
  8
0
100
AcDbBlockBegin
  2
*D124
 70
     1
 10
0.0
 20
0.0
 30
0.0
  3
*D124
  1

  0
LINE
  5
C37
330
9E8
100
AcDbEntity
  8
sunpo
 62
     0
370
    -2
100
AcDbLine
 10
603.9164059052345
 20
1110.576420801772
 30
0.0
 11
603.9164059052345
 21
1296.438049572552
 31
0.0
  0
LINE
  5
C38
330
9E8
100
AcDbEntity
  8
sunpo
 62
     0
370
    -2
100
AcDbLine
 10
1218.916405905234
 20
1120.576420801771
 30
0.0
 11
1218.916405905234
 21
1296.438049572552
 31
0.0
  0
LINE
  5
C39
330
9E8
100
AcDbEntity
  8
sunpo
 62
     0
370
    -2
100
AcDbLine
 10
633.9164059052345
 20
1277.688049572552
 30
0.0
 11
1188.916405905234
 21
1277.688049572552
 31
0.0
  0
INSERT
  5
C3A
330
9E8
100
AcDbEntity
  8
sunpo
 62
     0
370
    -2
100
AcDbBlockReference
  2
_OPEN
 10
603.9164059052345
 20
1277.688049572552
 30
0.0
 41
30.0
 42
30.0
 43
30.0
 50
180.0
  0
INSERT
  5
C3B
330
9E8
100
AcDbEntity
  8
sunpo
 62
     0
370
    -2
100
AcDbBlockReference
  2
_OPEN
 10
1218.916405905234
 20
1277.688049572552
 30
0.0
 41
30.0
 42
30.0
 43
30.0
  0
MTEXT
  5
C3C
330
9E8
100
AcDbEntity
  8
sunpo
 62
     0
370
    20
100
AcDbMText
 10
911.4164059052345
 20
1305.813049572553
 30
0.0
 40
37.5
 41
0.0
 71
     5
 72
     1
  1
\A1;615
 73
     1
 44
1.0
1001
ACAD
1000
MTEXTBEGIN
1070
    73
1070
     1
1070
    44
1040
1.0
1070
    74
1070
     0
1000
MTEXTEND
  0
POINT
  5
C3D
330
9E8
100
AcDbEntity
  8
DEFPOINTS
 62
     0
100
AcDbPoint
 10
603.9164059052345
 20
1073.076420801772
 30
0.0
  0
POINT
  5
C3E
330
9E8
100
AcDbEntity
  8
DEFPOINTS
 62
     0
100
AcDbPoint
 10
1218.916405905234
 20
1083.076420801772
 30
0.0
  0
POINT
  5
C3F
330
9E8
100
AcDbEntity
  8
DEFPOINTS
 62
     0
100
AcDbPoint
 10
1218.916405905234
 20
1277.688049572552
 30
0.0
  0
ENDBLK
  5
9F3
330
9E8
100
AcDbEntity
  8
0
100
AcDbBlockEnd
  0
BLOCK
  5
9FE
330
9F4
100
AcDbEntity
  8
0
100
AcDbBlockBegin
  2
*D125
 70
     1
 10
0.0
 20
0.0
 30
0.0
  3
*D125
  1

  0
LINE
  5
C40
330
9F4
100
AcDbEntity
  8
sunpo
 62
     0
370
    -2
100
AcDbLine
 10
3916.305712293914
 20
1083.076420801774
 30
0.0
 11
3758.952986619821
 21
1083.076420801774
 31
0.0
  0
LINE
  5
C41
330
9F4
100
AcDbEntity
  8
sunpo
 62
     0
370
    -2
100
AcDbLine
 10
3916.305712293914
 20
483.0764208017717
 30
0.0
 11
3758.952986619821
 21
483.0764208017717
 31
0.0
  0
LINE
  5
C42
330
9F4
100
AcDbEntity
  8
sunpo
 62
     0
370
    -2
100
AcDbLine
 10
3777.702986619821
 20
1053.076420801773
 30
0.0
 11
3777.702986619821
 21
513.0764208017718
 31
0.0
  0
INSERT
  5
C43
330
9F4
100
AcDbEntity
  8
sunpo
 62
     0
370
    -2
100
AcDbBlockReference
  2
_OPEN
 10
3777.702986619821
 20
1083.076420801774
 30
0.0
 41
30.0
 42
30.0
 43
30.0
 50
90.0
  0
INSERT
  5
C44
330
9F4
100
AcDbEntity
  8
sunpo
 62
     0
370
    -2
100
AcDbBlockReference
  2
_OPEN
 10
3777.702986619821
 20
483.0764208017717
 30
0.0
 41
30.0
 42
30.0
 43
30.0
 50
270.0
  0
MTEXT
  5
C45
330
9F4
100
AcDbEntity
  8
sunpo
 62
     0
370
    20
100
AcDbMText
 10
3749.577986619821
 20
783.0764208017733
 30
0.0
 40
37.5
 41
0.0
 71
     5
 72
     1
  1
\A1;600
 11
0.0000000000000001
 21
1.0
 31
0.0
 73
     1
 44
1.0
1001
ACAD
1000
MTEXTBEGIN
1070
    73
1070
     1
1070
    44
1040
1.0
1070
    74
1070
     0
1000
MTEXTEND
  0
POINT
  5
C46
330
9F4
100
AcDbEntity
  8
DEFPOINTS
 62
     0
100
AcDbPoint
 10
3953.805712293913
 20
1083.076420801774
 30
0.0
  0
POINT
  5
C47
330
9F4
100
AcDbEntity
  8
DEFPOINTS
 62
     0
100
AcDbPoint
 10
3953.805712293913
 20
483.0764208017717
 30
0.0
  0
POINT
  5
C48
330
9F4
100
AcDbEntity
  8
DEFPOINTS
 62
     0
100
AcDbPoint
 10
3777.702986619821
 20
483.0764208017717
 30
0.0
  0
ENDBLK
  5
9FF
330
9F4
100
AcDbEntity
  8
0
100
AcDbBlockEnd
  0
BLOCK
  5
A0A
330
A00
100
AcDbEntity
  8
0
100
AcDbBlockBegin
  2
*D126
 70
     1
 10
0.0
 20
0.0
 30
0.0
  3
*D126
  1

  0
LINE
  5
C49
330
A00
100
AcDbEntity
  8
sunpo
 62
     0
370
    -2
100
AcDbLine
 10
5165.183016880721
 20
1459.739645493559
 30
0.0
 11
5003.483069602538
 21
1459.739645493559
 31
0.0
  0
LINE
  5
C4A
330
A00
100
AcDbEntity
  8
sunpo
 62
     0
370
    -2
100
AcDbLine
 10
5165.183016880721
 20
1629.739645493559
 30
0.0
 11
5003.483069602538
 21
1629.739645493559
 31
0.0
  0
LINE
  5
C4B
330
A00
100
AcDbEntity
  8
sunpo
 62
     0
370
    -2
100
AcDbLine
 10
5022.233069602538
 20
1489.739645493559
 30
0.0
 11
5022.233069602538
 21
1599.739645493559
 31
0.0
  0
INSERT
  5
C4C
330
A00
100
AcDbEntity
  8
sunpo
 62
     0
370
    -2
100
AcDbBlockReference
  2
_OPEN
 10
5022.233069602538
 20
1459.739645493559
 30
0.0
 41
30.0
 42
30.0
 43
30.0
 50
270.0
  0
INSERT
  5
C4D
330
A00
100
AcDbEntity
  8
sunpo
 62
     0
370
    -2
100
AcDbBlockReference
  2
_OPEN
 10
5022.233069602538
 20
1629.739645493559
 30
0.0
 41
30.0
 42
30.0
 43
30.0
 50
90.0
  0
MTEXT
  5
C4E
330
A00
100
AcDbEntity
  8
sunpo
 62
     0
370
    20
100
AcDbMText
 10
4994.108069602538
 20
1544.739645493559
 30
0.0
 40
37.5
 41
0.0
 71
     5
 72
     1
  1
\A1;170
 11
0.0000000000000001
 21
1.0
 31
0.0
 73
     1
 44
1.0
1001
ACAD
1000
MTEXTBEGIN
1070
    73
1070
     1
1070
    44
1040
1.0
1070
    74
1070
     0
1000
MTEXTEND
  0
POINT
  5
C4F
330
A00
100
AcDbEntity
  8
DEFPOINTS
 62
     0
100
AcDbPoint
 10
5202.683016880721
 20
1459.739645493559
 30
0.0
  0
POINT
  5
C50
330
A00
100
AcDbEntity
  8
DEFPOINTS
 62
     0
100
AcDbPoint
 10
5202.683016880721
 20
1629.739645493559
 30
0.0
  0
POINT
  5
C51
330
A00
100
AcDbEntity
  8
DEFPOINTS
 62
     0
100
AcDbPoint
 10
5022.233069602538
 20
1629.739645493559
 30
0.0
  0
ENDBLK
  5
A0B
330
A00
100
AcDbEntity
  8
0
100
AcDbBlockEnd
  0
BLOCK
  5
A16
330
A0C
100
AcDbEntity
  8
0
100
AcDbBlockBegin
  2
*D127
 70
     1
 10
0.0
 20
0.0
 30
0.0
  3
*D127
  1

  0
LINE
  5
C52
330
A0C
100
AcDbEntity
  8
sunpo
 62
     0
370
    -2
100
AcDbLine
 10
5165.183016880721
 20
1459.739645493559
 30
0.0
 11
5073.107448634277
 21
1459.739645493559
 31
0.0
  0
LINE
  5
C53
330
A0C
100
AcDbEntity
  8
sunpo
 62
     0
370
    -2
100
AcDbLine
 10
5165.183016880721
 20
1609.739645493559
 30
0.0
 11
5073.107448634277
 21
1609.739645493559
 31
0.0
  0
LINE
  5
C54
330
A0C
100
AcDbEntity
  8
sunpo
 62
     0
370
    -2
100
AcDbLine
 10
5091.857448634277
 20
1489.739645493559
 30
0.0
 11
5091.857448634277
 21
1579.739645493559
 31
0.0
  0
INSERT
  5
C55
330
A0C
100
AcDbEntity
  8
sunpo
 62
     0
370
    -2
100
AcDbBlockReference
  2
_OPEN
 10
5091.857448634277
 20
1459.739645493559
 30
0.0
 41
30.0
 42
30.0
 43
30.0
 50
270.0
  0
INSERT
  5
C56
330
A0C
100
AcDbEntity
  8
sunpo
 62
     0
370
    -2
100
AcDbBlockReference
  2
_OPEN
 10
5091.857448634277
 20
1609.739645493559
 30
0.0
 41
30.0
 42
30.0
 43
30.0
 50
90.0
  0
MTEXT
  5
C57
330
A0C
100
AcDbEntity
  8
sunpo
 62
     0
370
    20
100
AcDbMText
 10
5063.732448634277
 20
1534.73964549356
 30
0.0
 40
37.5
 41
0.0
 71
     5
 72
     1
  1
\A1;150
 11
0.0000000000000001
 21
1.0
 31
0.0
 73
     1
 44
1.0
1001
ACAD
1000
MTEXTBEGIN
1070
    73
1070
     1
1070
    44
1040
1.0
1070
    74
1070
     0
1000
MTEXTEND
  0
POINT
  5
C58
330
A0C
100
AcDbEntity
  8
DEFPOINTS
 62
     0
100
AcDbPoint
 10
5202.683016880721
 20
1459.739645493559
 30
0.0
  0
POINT
  5
C59
330
A0C
100
AcDbEntity
  8
DEFPOINTS
 62
     0
100
AcDbPoint
 10
5202.683016880721
 20
1609.739645493559
 30
0.0
  0
POINT
  5
C5A
330
A0C
100
AcDbEntity
  8
DEFPOINTS
 62
     0
100
AcDbPoint
 10
5091.857448634277
 20
1609.739645493559
 30
0.0
  0
ENDBLK
  5
A17
330
A0C
100
AcDbEntity
  8
0
100
AcDbBlockEnd
  0
BLOCK
  5
A22
330
A18
100
AcDbEntity
  8
0
100
AcDbBlockBegin
  2
*D128
 70
     1
 10
0.0
 20
0.0
 30
0.0
  3
*D128
  1

  0
LINE
  5
C5B
330
A18
100
AcDbEntity
  8
sunpo
 62
     0
370
    -2
100
AcDbLine
 10
4706.305712293914
 20
1609.739645493559
 30
0.0
 11
4870.725469710909
 21
1609.739645493559
 31
0.0
  0
LINE
  5
C5C
330
A18
100
AcDbEntity
  8
sunpo
 62
     0
370
    -2
100
AcDbLine
 10
4706.305712293914
 20
1459.739645493559
 30
0.0
 11
4870.725469710909
 21
1459.739645493559
 31
0.0
  0
LINE
  5
C5D
330
A18
100
AcDbEntity
  8
sunpo
 62
     0
370
    -2
100
AcDbLine
 10
4851.975469710909
 20
1579.739645493559
 30
0.0
 11
4851.975469710909
 21
1489.739645493559
 31
0.0
  0
INSERT
  5
C5E
330
A18
100
AcDbEntity
  8
sunpo
 62
     0
370
    -2
100
AcDbBlockReference
  2
_OPEN
 10
4851.975469710909
 20
1609.739645493559
 30
0.0
 41
30.0
 42
30.0
 43
30.0
 50
90.0
  0
INSERT
  5
C5F
330
A18
100
AcDbEntity
  8
sunpo
 62
     0
370
    -2
100
AcDbBlockReference
  2
_OPEN
 10
4851.975469710909
 20
1459.739645493559
 30
0.0
 41
30.0
 42
30.0
 43
30.0
 50
270.0
  0
MTEXT
  5
C60
330
A18
100
AcDbEntity
  8
sunpo
 62
     0
370
    20
100
AcDbMText
 10
4823.850469710909
 20
1534.73964549356
 30
0.0
 40
37.5
 41
0.0
 71
     5
 72
     1
  1
\A1;150
 11
0.0000000000000001
 21
1.0
 31
0.0
 73
     1
 44
1.0
1001
ACAD
1000
MTEXTBEGIN
1070
    73
1070
     1
1070
    44
1040
1.0
1070
    74
1070
     0
1000
MTEXTEND
  0
POINT
  5
C61
330
A18
100
AcDbEntity
  8
DEFPOINTS
 62
     0
100
AcDbPoint
 10
4668.805712293913
 20
1609.739645493559
 30
0.0
  0
POINT
  5
C62
330
A18
100
AcDbEntity
  8
DEFPOINTS
 62
     0
100
AcDbPoint
 10
4668.805712293913
 20
1459.739645493559
 30
0.0
  0
POINT
  5
C63
330
A18
100
AcDbEntity
  8
DEFPOINTS
 62
     0
100
AcDbPoint
 10
4851.975469710909
 20
1459.739645493559
 30
0.0
  0
ENDBLK
  5
A23
330
A18
100
AcDbEntity
  8
0
100
AcDbBlockEnd
  0
BLOCK
  5
A2F
330
A24
100
AcDbEntity
  8
0
100
AcDbBlockBegin
  2
*D129
 70
     1
 10
0.0
 20
0.0
 30
0.0
  3
*D129
  1

  0
LINE
  5
C64
330
A24
100
AcDbEntity
  8
sunpo
 62
     0
370
    -2
100
AcDbLine
 10
4148.805712293913
 20
1636.285976800838
 30
0.0
 11
4148.805712293913
 21
1745.037807176431
 31
0.0
  0
LINE
  5
C65
330
A24
100
AcDbEntity
  8
sunpo
 62
     0
370
    -2
100
AcDbLine
 10
4168.805712293913
 20
1618.316040762198
 30
0.0
 11
4168.805712293913
 21
1745.037807176431
 31
0.0
  0
LINE
  5
C66
330
A24
100
AcDbEntity
  8
sunpo
 62
     0
370
    -2
100
AcDbLine
 10
4118.805712293913
 20
1726.287807176431
 30
0.0
 11
4088.805712293914
 21
1726.287807176431
 31
0.0
  0
LINE
  5
C67
330
A24
100
AcDbEntity
  8
sunpo
 62
     0
370
    -2
100
AcDbLine
 10
4198.805712293913
 20
1726.287807176431
 30
0.0
 11
4228.805712293913
 21
1726.287807176431
 31
0.0
  0
MTEXT
  5
C68
330
A24
100
AcDbEntity
  8
sunpo
 62
     0
370
    20
100
AcDbMText
 10
4158.805712293913
 20
1777.850307176431
 30
0.0
 40
37.5
 41
0.0
 71
     5
 72
     1
  1
\A1;20
 73
     1
 44
1.0
1001
ACAD
1000
MTEXTBEGIN
1070
    73
1070
     1
1070
    44
1040
1.0
1070
    74
1070
     0
1000
MTEXTEND
  0
INSERT
  5
C69
330
A24
100
AcDbEntity
  8
sunpo
 62
     0
370
    -2
100
AcDbBlockReference
  2
_OPEN
 10
4148.805712293913
 20
1726.287807176431
 30
0.0
 41
30.0
 42
30.0
 43
30.0
  0
INSERT
  5
C6A
330
A24
100
AcDbEntity
  8
sunpo
 62
     0
370
    -2
100
AcDbBlockReference
  2
_OPEN
 10
4168.805712293913
 20
1726.287807176431
 30
0.0
 41
30.0
 42
30.0
 43
30.0
 50
180.0
  0
POINT
  5
C6B
330
A24
100
AcDbEntity
  8
DEFPOINTS
 62
     0
100
AcDbPoint
 10
4148.805712293913
 20
1598.785976800838
 30
0.0
  0
POINT
  5
C6C
330
A24
100
AcDbEntity
  8
DEFPOINTS
 62
     0
100
AcDbPoint
 10
4168.805712293913
 20
1580.816040762198
 30
0.0
  0
POINT
  5
C6D
330
A24
100
AcDbEntity
  8
DEFPOINTS
 62
     0
100
AcDbPoint
 10
4168.805712293913
 20
1726.287807176431
 30
0.0
  0
ENDBLK
  5
A30
330
A24
100
AcDbEntity
  8
0
100
AcDbBlockEnd
  0
BLOCK
  5
A3B
330
A31
100
AcDbEntity
  8
0
100
AcDbBlockBegin
  2
*D130
 70
     1
 10
0.0
 20
0.0
 30
0.0
  3
*D130
  1

  0
LINE
  5
C6E
330
A31
100
AcDbEntity
  8
sunpo
 62
     0
370
    -2
100
AcDbLine
 10
4013.805712293914
 20
1667.239645493558
 30
0.0
 11
4013.805712293914
 21
1745.037807176431
 31
0.0
  0
LINE
  5
C6F
330
A31
100
AcDbEntity
  8
sunpo
 62
     0
370
    -2
100
AcDbLine
 10
4148.805712293913
 20
1636.285976800838
 30
0.0
 11
4148.805712293913
 21
1745.037807176431
 31
0.0
  0
LINE
  5
C70
330
A31
100
AcDbEntity
  8
sunpo
 62
     0
370
    -2
100
AcDbLine
 10
4043.805712293913
 20
1726.287807176431
 30
0.0
 11
4118.805712293913
 21
1726.287807176431
 31
0.0
  0
INSERT
  5
C71
330
A31
100
AcDbEntity
  8
sunpo
 62
     0
370
    -2
100
AcDbBlockReference
  2
_OPEN
 10
4013.805712293914
 20
1726.287807176431
 30
0.0
 41
30.0
 42
30.0
 43
30.0
 50
180.0
  0
INSERT
  5
C72
330
A31
100
AcDbEntity
  8
sunpo
 62
     0
370
    -2
100
AcDbBlockReference
  2
_OPEN
 10
4148.805712293913
 20
1726.287807176431
 30
0.0
 41
30.0
 42
30.0
 43
30.0
  0
MTEXT
  5
C73
330
A31
100
AcDbEntity
  8
sunpo
 62
     0
370
    20
100
AcDbMText
 10
4081.305712293914
 20
1754.412807176431
 30
0.0
 40
37.5
 41
0.0
 71
     5
 72
     1
  1
\A1;135
 73
     1
 44
1.0
1001
ACAD
1000
MTEXTBEGIN
1070
    73
1070
     1
1070
    44
1040
1.0
1070
    74
1070
     0
1000
MTEXTEND
  0
POINT
  5
C74
330
A31
100
AcDbEntity
  8
DEFPOINTS
 62
     0
100
AcDbPoint
 10
4013.805712293914
 20
1629.739645493559
 30
0.0
  0
POINT
  5
C75
330
A31
100
AcDbEntity
  8
DEFPOINTS
 62
     0
100
AcDbPoint
 10
4148.805712293913
 20
1598.785976800838
 30
0.0
  0
POINT
  5
C76
330
A31
100
AcDbEntity
  8
DEFPOINTS
 62
     0
100
AcDbPoint
 10
4148.805712293913
 20
1726.287807176431
 30
0.0
  0
ENDBLK
  5
A3C
330
A31
100
AcDbEntity
  8
0
100
AcDbBlockEnd
  0
BLOCK
  5
A48
330
A3D
100
AcDbEntity
  8
0
100
AcDbBlockBegin
  2
*D131
 70
     1
 10
0.0
 20
0.0
 30
0.0
  3
*D131
  1

  0
LINE
  5
C77
330
A3D
100
AcDbEntity
  8
sunpo
 62
     0
370
    -2
100
AcDbLine
 10
3953.805712293913
 20
1667.239645493558
 30
0.0
 11
3953.805712293913
 21
1745.037807176431
 31
0.0
  0
LINE
  5
C78
330
A3D
100
AcDbEntity
  8
sunpo
 62
     0
370
    -2
100
AcDbLine
 10
4013.805712293914
 20
1667.239645493558
 30
0.0
 11
4013.805712293914
 21
1745.037807176431
 31
0.0
  0
LINE
  5
C79
330
A3D
100
AcDbEntity
  8
sunpo
 62
     0
370
    -2
100
AcDbLine
 10
3923.805712293914
 20
1726.287807176431
 30
0.0
 11
3893.805712293914
 21
1726.287807176431
 31
0.0
  0
LINE
  5
C7A
330
A3D
100
AcDbEntity
  8
sunpo
 62
     0
370
    -2
100
AcDbLine
 10
4043.805712293913
 20
1726.287807176431
 30
0.0
 11
4073.805712293913
 21
1726.287807176431
 31
0.0
  0
MTEXT
  5
C7B
330
A3D
100
AcDbEntity
  8
sunpo
 62
     0
370
    20
100
AcDbMText
 10
3983.805712293913
 20
1777.850307176431
 30
0.0
 40
37.5
 41
0.0
 71
     5
 72
     1
  1
\A1;60
 73
     1
 44
1.0
1001
ACAD
1000
MTEXTBEGIN
1070
    73
1070
     1
1070
    44
1040
1.0
1070
    74
1070
     0
1000
MTEXTEND
  0
INSERT
  5
C7C
330
A3D
100
AcDbEntity
  8
sunpo
 62
     0
370
    -2
100
AcDbBlockReference
  2
_OPEN
 10
3953.805712293913
 20
1726.287807176431
 30
0.0
 41
30.0
 42
30.0
 43
30.0
  0
INSERT
  5
C7D
330
A3D
100
AcDbEntity
  8
sunpo
 62
     0
370
    -2
100
AcDbBlockReference
  2
_OPEN
 10
4013.805712293914
 20
1726.287807176431
 30
0.0
 41
30.0
 42
30.0
 43
30.0
 50
180.0
  0
POINT
  5
C7E
330
A3D
100
AcDbEntity
  8
DEFPOINTS
 62
     0
100
AcDbPoint
 10
3953.805712293913
 20
1629.739645493559
 30
0.0
  0
POINT
  5
C7F
330
A3D
100
AcDbEntity
  8
DEFPOINTS
 62
     0
100
AcDbPoint
 10
4013.805712293914
 20
1629.739645493559
 30
0.0
  0
POINT
  5
C80
330
A3D
100
AcDbEntity
  8
DEFPOINTS
 62
     0
100
AcDbPoint
 10
4013.805712293914
 20
1726.287807176431
 30
0.0
  0
ENDBLK
  5
A49
330
A3D
100
AcDbEntity
  8
0
100
AcDbBlockEnd
  0
BLOCK
  5
A54
330
A4A
100
AcDbEntity
  8
0
100
AcDbBlockBegin
  2
*D132
 70
     1
 10
0.0
 20
0.0
 30
0.0
  3
*D132
  1

  0
LINE
  5
C81
330
A4A
100
AcDbEntity
  8
sunpo
 62
     0
370
    -2
100
AcDbLine
 10
4168.805712293913
 20
1618.316040762198
 30
0.0
 11
4168.805712293913
 21
1745.037807176431
 31
0.0
  0
LINE
  5
C82
330
A4A
100
AcDbEntity
  8
sunpo
 62
     0
370
    -2
100
AcDbLine
 10
4668.805712293913
 20
1647.239645493559
 30
0.0
 11
4668.805712293913
 21
1745.037807176431
 31
0.0
  0
LINE
  5
C83
330
A4A
100
AcDbEntity
  8
sunpo
 62
     0
370
    -2
100
AcDbLine
 10
4198.805712293913
 20
1726.287807176431
 30
0.0
 11
4638.805712293914
 21
1726.287807176431
 31
0.0
  0
INSERT
  5
C84
330
A4A
100
AcDbEntity
  8
sunpo
 62
     0
370
    -2
100
AcDbBlockReference
  2
_OPEN
 10
4168.805712293913
 20
1726.287807176431
 30
0.0
 41
30.0
 42
30.0
 43
30.0
 50
180.0
  0
INSERT
  5
C85
330
A4A
100
AcDbEntity
  8
sunpo
 62
     0
370
    -2
100
AcDbBlockReference
  2
_OPEN
 10
4668.805712293913
 20
1726.287807176431
 30
0.0
 41
30.0
 42
30.0
 43
30.0
  0
MTEXT
  5
C86
330
A4A
100
AcDbEntity
  8
sunpo
 62
     0
370
    20
100
AcDbMText
 10
4418.805712293913
 20
1754.412807176431
 30
0.0
 40
37.5
 41
0.0
 71
     5
 72
     1
  1
\A1;500
 73
     1
 44
1.0
1001
ACAD
1000
MTEXTBEGIN
1070
    73
1070
     1
1070
    44
1040
1.0
1070
    74
1070
     0
1000
MTEXTEND
  0
POINT
  5
C87
330
A4A
100
AcDbEntity
  8
DEFPOINTS
 62
     0
100
AcDbPoint
 10
4168.805712293913
 20
1580.816040762198
 30
0.0
  0
POINT
  5
C88
330
A4A
100
AcDbEntity
  8
DEFPOINTS
 62
     0
100
AcDbPoint
 10
4668.805712293913
 20
1609.739645493559
 30
0.0
  0
POINT
  5
C89
330
A4A
100
AcDbEntity
  8
DEFPOINTS
 62
     0
100
AcDbPoint
 10
4668.805712293913
 20
1726.287807176431
 30
0.0
  0
ENDBLK
  5
A55
330
A4A
100
AcDbEntity
  8
0
100
AcDbBlockEnd
  0
BLOCK
  5
A60
330
A56
100
AcDbEntity
  8
0
100
AcDbBlockBegin
  2
*D133
 70
     1
 10
0.0
 20
0.0
 30
0.0
  3
*D133
  1

  0
LINE
  5
C8A
330
A56
100
AcDbEntity
  8
sunpo
 62
     0
370
    -2
100
AcDbLine
 10
3953.805712293913
 20
1667.239645493558
 30
0.0
 11
3953.805712293913
 21
1909.552807176431
 31
0.0
  0
LINE
  5
C8B
330
A56
100
AcDbEntity
  8
sunpo
 62
     0
370
    -2
100
AcDbLine
 10
4668.805712293913
 20
1647.239645493559
 30
0.0
 11
4668.805712293913
 21
1909.552807176431
 31
0.0
  0
LINE
  5
C8C
330
A56
100
AcDbEntity
  8
sunpo
 62
     0
370
    -2
100
AcDbLine
 10
3983.805712293913
 20
1890.802807176431
 30
0.0
 11
4638.805712293914
 21
1890.802807176431
 31
0.0
  0
INSERT
  5
C8D
330
A56
100
AcDbEntity
  8
sunpo
 62
     0
370
    -2
100
AcDbBlockReference
  2
_OPEN
 10
3953.805712293913
 20
1890.802807176431
 30
0.0
 41
30.0
 42
30.0
 43
30.0
 50
180.0
  0
INSERT
  5
C8E
330
A56
100
AcDbEntity
  8
sunpo
 62
     0
370
    -2
100
AcDbBlockReference
  2
_OPEN
 10
4668.805712293913
 20
1890.802807176431
 30
0.0
 41
30.0
 42
30.0
 43
30.0
  0
MTEXT
  5
C8F
330
A56
100
AcDbEntity
  8
sunpo
 62
     0
370
    20
100
AcDbMText
 10
4311.305712293914
 20
1918.927807176431
 30
0.0
 40
37.5
 41
0.0
 71
     5
 72
     1
  1
\A1;715
 73
     1
 44
1.0
1001
ACAD
1000
MTEXTBEGIN
1070
    73
1070
     1
1070
    44
1040
1.0
1070
    74
1070
     0
1000
MTEXTEND
  0
POINT
  5
C90
330
A56
100
AcDbEntity
  8
DEFPOINTS
 62
     0
100
AcDbPoint
 10
3953.805712293913
 20
1629.739645493559
 30
0.0
  0
POINT
  5
C91
330
A56
100
AcDbEntity
  8
DEFPOINTS
 62
     0
100
AcDbPoint
 10
4668.805712293913
 20
1609.739645493559
 30
0.0
  0
POINT
  5
C92
330
A56
100
AcDbEntity
  8
DEFPOINTS
 62
     0
100
AcDbPoint
 10
4668.805712293913
 20
1890.802807176431
 30
0.0
  0
ENDBLK
  5
A61
330
A56
100
AcDbEntity
  8
0
100
AcDbBlockEnd
  0
BLOCK
  5
A6C
330
A62
100
AcDbEntity
  8
0
100
AcDbBlockBegin
  2
*D134
 70
     1
 10
0.0
 20
0.0
 30
0.0
  3
*D134
  1

  0
LINE
  5
C93
330
A62
100
AcDbEntity
  8
sunpo
 62
     0
370
    -2
100
AcDbLine
 10
3916.305712293914
 20
1629.739645493559
 30
0.0
 11
3757.22546971091
 21
1629.739645493559
 31
0.0
  0
LINE
  5
C94
330
A62
100
AcDbEntity
  8
sunpo
 62
     0
370
    -2
100
AcDbLine
 10
3916.305712293914
 20
1459.739645493559
 30
0.0
 11
3757.22546971091
 21
1459.739645493559
 31
0.0
  0
LINE
  5
C95
330
A62
100
AcDbEntity
  8
sunpo
 62
     0
370
    -2
100
AcDbLine
 10
3775.97546971091
 20
1599.739645493559
 30
0.0
 11
3775.97546971091
 21
1489.739645493559
 31
0.0
  0
INSERT
  5
C96
330
A62
100
AcDbEntity
  8
sunpo
 62
     0
370
    -2
100
AcDbBlockReference
  2
_OPEN
 10
3775.97546971091
 20
1629.739645493559
 30
0.0
 41
30.0
 42
30.0
 43
30.0
 50
90.0
  0
INSERT
  5
C97
330
A62
100
AcDbEntity
  8
sunpo
 62
     0
370
    -2
100
AcDbBlockReference
  2
_OPEN
 10
3775.97546971091
 20
1459.739645493559
 30
0.0
 41
30.0
 42
30.0
 43
30.0
 50
270.0
  0
MTEXT
  5
C98
330
A62
100
AcDbEntity
  8
sunpo
 62
     0
370
    20
100
AcDbMText
 10
3747.850469710909
 20
1544.739645493559
 30
0.0
 40
37.5
 41
0.0
 71
     5
 72
     1
  1
\A1;170
 11
0.0000000000000001
 21
1.0
 31
0.0
 73
     1
 44
1.0
1001
ACAD
1000
MTEXTBEGIN
1070
    73
1070
     1
1070
    44
1040
1.0
1070
    74
1070
     0
1000
MTEXTEND
  0
POINT
  5
C99
330
A62
100
AcDbEntity
  8
DEFPOINTS
 62
     0
100
AcDbPoint
 10
3953.805712293913
 20
1629.739645493559
 30
0.0
  0
POINT
  5
C9A
330
A62
100
AcDbEntity
  8
DEFPOINTS
 62
     0
100
AcDbPoint
 10
3953.805712293913
 20
1459.739645493559
 30
0.0
  0
POINT
  5
C9B
330
A62
100
AcDbEntity
  8
DEFPOINTS
 62
     0
100
AcDbPoint
 10
3775.97546971091
 20
1459.739645493559
 30
0.0
  0
ENDBLK
  5
A6D
330
A62
100
AcDbEntity
  8
0
100
AcDbBlockEnd
  0
BLOCK
  5
A78
330
A6E
100
AcDbEntity
  8
0
100
AcDbBlockBegin
  2
*D135
 70
     1
 10
0.0
 20
0.0
 30
0.0
  3
*D135
  1

  0
LINE
  5
C9C
330
A6E
100
AcDbEntity
  8
sunpo
 62
     0
370
    -2
100
AcDbLine
 10
3916.305712293914
 20
1579.739645493559
 30
0.0
 11
3843.22546971091
 21
1579.739645493559
 31
0.0
  0
LINE
  5
C9D
330
A6E
100
AcDbEntity
  8
sunpo
 62
     0
370
    -2
100
AcDbLine
 10
3916.305712293914
 20
1459.739645493559
 30
0.0
 11
3843.22546971091
 21
1459.739645493559
 31
0.0
  0
LINE
  5
C9E
330
A6E
100
AcDbEntity
  8
sunpo
 62
     0
370
    -2
100
AcDbLine
 10
3861.975469710909
 20
1549.739645493558
 30
0.0
 11
3861.975469710909
 21
1489.739645493559
 31
0.0
  0
INSERT
  5
C9F
330
A6E
100
AcDbEntity
  8
sunpo
 62
     0
370
    -2
100
AcDbBlockReference
  2
_OPEN
 10
3861.975469710909
 20
1579.739645493559
 30
0.0
 41
30.0
 42
30.0
 43
30.0
 50
90.0
  0
INSERT
  5
CA0
330
A6E
100
AcDbEntity
  8
sunpo
 62
     0
370
    -2
100
AcDbBlockReference
  2
_OPEN
 10
3861.975469710909
 20
1459.739645493559
 30
0.0
 41
30.0
 42
30.0
 43
30.0
 50
270.0
  0
MTEXT
  5
CA1
330
A6E
100
AcDbEntity
  8
sunpo
 62
     0
370
    20
100
AcDbMText
 10
3833.850469710909
 20
1519.739645493559
 30
0.0
 40
37.5
 41
0.0
 71
     5
 72
     1
  1
\A1;120
 11
0.0000000000000001
 21
1.0
 31
0.0
 73
     1
 44
1.0
1001
ACAD
1000
MTEXTBEGIN
1070
    73
1070
     1
1070
    44
1040
1.0
1070
    74
1070
     0
1000
MTEXTEND
  0
POINT
  5
CA2
330
A6E
100
AcDbEntity
  8
DEFPOINTS
 62
     0
100
AcDbPoint
 10
3953.805712293913
 20
1579.739645493559
 30
0.0
  0
POINT
  5
CA3
330
A6E
100
AcDbEntity
  8
DEFPOINTS
 62
     0
100
AcDbPoint
 10
3953.805712293913
 20
1459.739645493559
 30
0.0
  0
POINT
  5
CA4
330
A6E
100
AcDbEntity
  8
DEFPOINTS
 62
     0
100
AcDbPoint
 10
3861.975469710909
 20
1459.739645493559
 30
0.0
  0
ENDBLK
  5
A79
330
A6E
100
AcDbEntity
  8
0
100
AcDbBlockEnd
  0
BLOCK
  5
A84
330
A7A
100
AcDbEntity
  8
0
100
AcDbBlockBegin
  2
*D136
 70
     1
 10
0.0
 20
0.0
 30
0.0
  3
*D136
  1

  0
LINE
  5
1AF7
330
A7A
100
AcDbEntity
  8
sunpo
 62
     0
370
    -2
100
AcDbLine
 10
5211.686211185055
 20
6406.174170265909
 30
0.0
 11
5020.777339713748
 21
6406.174170265909
 31
0.0
  0
LINE
  5
1AF8
330
A7A
100
AcDbEntity
  8
sunpo
 62
     0
370
    -2
100
AcDbLine
 10
5211.686211185055
 20
6256.174170265909
 30
0.0
 11
5020.777339713748
 21
6256.174170265909
 31
0.0
  0
LINE
  5
1AF9
330
A7A
100
AcDbEntity
  8
sunpo
 62
     0
370
    -2
100
AcDbLine
 10
5039.527339713748
 20
6376.174170265909
 30
0.0
 11
5039.527339713748
 21
6286.174170265909
 31
0.0
  0
INSERT
  5
1AFA
330
A7A
100
AcDbEntity
  8
sunpo
 62
     0
370
    -2
100
AcDbBlockReference
  2
_OPEN
 10
5039.527339713748
 20
6406.174170265909
 30
0.0
 41
30.0
 42
30.0
 43
30.0
 50
90.0
  0
INSERT
  5
1AFB
330
A7A
100
AcDbEntity
  8
sunpo
 62
     0
370
    -2
100
AcDbBlockReference
  2
_OPEN
 10
5039.527339713748
 20
6256.174170265909
 30
0.0
 41
30.0
 42
30.0
 43
30.0
 50
270.0
  0
MTEXT
  5
1AFC
330
A7A
100
AcDbEntity
  8
sunpo
 62
     0
370
    20
100
AcDbMText
 10
5011.402339713747
 20
6331.17417026591
 30
0.0
 40
37.5
 41
0.0
 71
     5
 72
     1
  1
\A1;150
 11
0.0000000000000001
 21
1.0
 31
0.0
 73
     1
 44
1.0
1001
ACAD
1000
MTEXTBEGIN
1070
    73
1070
     1
1070
    44
1040
1.0
1070
    74
1070
     0
1000
MTEXTEND
  0
POINT
  5
1AFD
330
A7A
100
AcDbEntity
  8
DEFPOINTS
 62
     0
100
AcDbPoint
 10
5249.186211185055
 20
6406.174170265909
 30
0.0
  0
POINT
  5
1AFE
330
A7A
100
AcDbEntity
  8
DEFPOINTS
 62
     0
100
AcDbPoint
 10
5249.186211185055
 20
6256.174170265909
 30
0.0
  0
POINT
  5
1AFF
330
A7A
100
AcDbEntity
  8
DEFPOINTS
 62
     0
100
AcDbPoint
 10
5039.527339713748
 20
6256.174170265909
 30
0.0
  0
ENDBLK
  5
A85
330
A7A
100
AcDbEntity
  8
0
100
AcDbBlockEnd
  0
BLOCK
  5
A90
330
A86
100
AcDbEntity
  8
0
100
AcDbBlockBegin
  2
*D137
 70
     1
 10
0.0
 20
0.0
 30
0.0
  3
*D137
  1

  0
LINE
  5
1AEE
330
A86
100
AcDbEntity
  8
sunpo
 62
     0
370
    -2
100
AcDbLine
 10
5211.686211185055
 20
6376.277787341631
 30
0.0
 11
5114.300076982765
 21
6376.277787341631
 31
0.0
  0
LINE
  5
1AEF
330
A86
100
AcDbEntity
  8
sunpo
 62
     0
370
    -2
100
AcDbLine
 10
5211.686211185055
 20
6256.174170265909
 30
0.0
 11
5114.300076982765
 21
6256.174170265909
 31
0.0
  0
LINE
  5
1AF0
330
A86
100
AcDbEntity
  8
sunpo
 62
     0
370
    -2
100
AcDbLine
 10
5133.050076982765
 20
6346.27778734163
 30
0.0
 11
5133.050076982765
 21
6286.174170265909
 31
0.0
  0
INSERT
  5
1AF1
330
A86
100
AcDbEntity
  8
sunpo
 62
     0
370
    -2
100
AcDbBlockReference
  2
_OPEN
 10
5133.050076982765
 20
6376.277787341631
 30
0.0
 41
30.0
 42
30.0
 43
30.0
 50
90.0
  0
INSERT
  5
1AF2
330
A86
100
AcDbEntity
  8
sunpo
 62
     0
370
    -2
100
AcDbBlockReference
  2
_OPEN
 10
5133.050076982765
 20
6256.174170265909
 30
0.0
 41
30.0
 42
30.0
 43
30.0
 50
270.0
  0
MTEXT
  5
1AF3
330
A86
100
AcDbEntity
  8
sunpo
 62
     0
370
    20
100
AcDbMText
 10
5104.925076982762
 20
6316.225978803771
 30
0.0
 40
37.5
 41
0.0
 71
     5
 72
     1
  1
\A1;120
 11
0.0000000000000001
 21
1.0
 31
0.0
 73
     1
 44
1.0
1001
ACAD
1000
MTEXTBEGIN
1070
    73
1070
     1
1070
    44
1040
1.0
1070
    74
1070
     0
1000
MTEXTEND
  0
POINT
  5
1AF4
330
A86
100
AcDbEntity
  8
DEFPOINTS
 62
     0
100
AcDbPoint
 10
5249.186211185055
 20
6376.277787341631
 30
0.0
  0
POINT
  5
1AF5
330
A86
100
AcDbEntity
  8
DEFPOINTS
 62
     0
100
AcDbPoint
 10
5249.186211185055
 20
6256.174170265909
 30
0.0
  0
POINT
  5
1AF6
330
A86
100
AcDbEntity
  8
DEFPOINTS
 62
     0
100
AcDbPoint
 10
5133.050076982765
 20
6256.174170265909
 30
0.0
  0
ENDBLK
  5
A91
330
A86
100
AcDbEntity
  8
0
100
AcDbBlockEnd
  0
BLOCK
  5
A9C
330
A92
100
AcDbEntity
  8
0
100
AcDbBlockBegin
  2
*D138
 70
     1
 10
0.0
 20
0.0
 30
0.0
  3
*D138
  1

  0
LINE
  5
1AE5
330
A92
100
AcDbEntity
  8
sunpo
 62
     0
370
    -2
100
AcDbLine
 10
5249.186211185055
 20
6443.674170265909
 30
0.0
 11
5249.186211185055
 21
6623.350604540018
 31
0.0
  0
LINE
  5
1AE6
330
A92
100
AcDbEntity
  8
sunpo
 62
     0
370
    -2
100
AcDbLine
 10
5849.186211185055
 20
6443.674170265909
 30
0.0
 11
5849.186211185055
 21
6623.350604540018
 31
0.0
  0
LINE
  5
1AE7
330
A92
100
AcDbEntity
  8
sunpo
 62
     0
370
    -2
100
AcDbLine
 10
5279.186211185055
 20
6604.600604540017
 30
0.0
 11
5819.186211185055
 21
6604.600604540017
 31
0.0
  0
INSERT
  5
1AE8
330
A92
100
AcDbEntity
  8
sunpo
 62
     0
370
    -2
100
AcDbBlockReference
  2
_OPEN
 10
5249.186211185055
 20
6604.600604540017
 30
0.0
 41
30.0
 42
30.0
 43
30.0
 50
180.0
  0
INSERT
  5
1AE9
330
A92
100
AcDbEntity
  8
sunpo
 62
     0
370
    -2
100
AcDbBlockReference
  2
_OPEN
 10
5849.186211185055
 20
6604.600604540017
 30
0.0
 41
30.0
 42
30.0
 43
30.0
  0
MTEXT
  5
1AEA
330
A92
100
AcDbEntity
  8
sunpo
 62
     0
370
    20
100
AcDbMText
 10
5549.186211185055
 20
6632.725604540017
 30
0.0
 40
37.5
 41
0.0
 71
     5
 72
     1
  1
\A1;L
 73
     1
 44
1.0
1001
ACAD
1000
MTEXTBEGIN
1070
    73
1070
     1
1070
    44
1040
1.0
1070
    74
1070
     0
1000
MTEXTEND
  0
POINT
  5
1AEB
330
A92
100
AcDbEntity
  8
DEFPOINTS
 62
     0
100
AcDbPoint
 10
5249.186211185055
 20
6406.174170265909
 30
0.0
  0
POINT
  5
1AEC
330
A92
100
AcDbEntity
  8
DEFPOINTS
 62
     0
100
AcDbPoint
 10
5849.186211185055
 20
6406.174170265909
 30
0.0
  0
POINT
  5
1AED
330
A92
100
AcDbEntity
  8
DEFPOINTS
 62
     0
100
AcDbPoint
 10
5849.186211185055
 20
6604.600604540017
 30
0.0
  0
ENDBLK
  5
A9D
330
A92
100
AcDbEntity
  8
0
100
AcDbBlockEnd
  0
BLOCK
  5
AA8
330
A9E
100
AcDbEntity
  8
0
100
AcDbBlockBegin
  2
*D139
 70
     1
 10
0.0
 20
0.0
 30
0.0
  3
*D139
  1

  0
LINE
  5
1ADC
330
A9E
100
AcDbEntity
  8
sunpo
 62
     0
370
    -2
100
AcDbLine
 10
4757.129372651501
 20
6256.174170265909
 30
0.0
 11
4881.42099215889
 21
6256.174170265909
 31
0.0
  0
LINE
  5
1ADD
330
A9E
100
AcDbEntity
  8
sunpo
 62
     0
370
    -2
100
AcDbLine
 10
4757.129372651501
 20
6406.174170265909
 30
0.0
 11
4881.42099215889
 21
6406.174170265909
 31
0.0
  0
LINE
  5
1ADE
330
A9E
100
AcDbEntity
  8
sunpo
 62
     0
370
    -2
100
AcDbLine
 10
4862.670992158889
 20
6286.174170265909
 30
0.0
 11
4862.670992158889
 21
6376.174170265909
 31
0.0
  0
INSERT
  5
1ADF
330
A9E
100
AcDbEntity
  8
sunpo
 62
     0
370
    -2
100
AcDbBlockReference
  2
_OPEN
 10
4862.670992158889
 20
6256.174170265909
 30
0.0
 41
30.0
 42
30.0
 43
30.0
 50
270.0
  0
INSERT
  5
1AE0
330
A9E
100
AcDbEntity
  8
sunpo
 62
     0
370
    -2
100
AcDbBlockReference
  2
_OPEN
 10
4862.670992158889
 20
6406.174170265909
 30
0.0
 41
30.0
 42
30.0
 43
30.0
 50
90.0
  0
MTEXT
  5
1AE1
330
A9E
100
AcDbEntity
  8
sunpo
 62
     0
370
    20
100
AcDbMText
 10
4834.545992158888
 20
6331.17417026591
 30
0.0
 40
37.5
 41
0.0
 71
     5
 72
     1
  1
\A1;150
 11
0.0000000000000001
 21
1.0
 31
0.0
 73
     1
 44
1.0
1001
ACAD
1000
MTEXTBEGIN
1070
    73
1070
     1
1070
    44
1040
1.0
1070
    74
1070
     0
1000
MTEXTEND
  0
POINT
  5
1AE2
330
A9E
100
AcDbEntity
  8
DEFPOINTS
 62
     0
100
AcDbPoint
 10
4719.629372651501
 20
6256.174170265909
 30
0.0
  0
POINT
  5
1AE3
330
A9E
100
AcDbEntity
  8
DEFPOINTS
 62
     0
100
AcDbPoint
 10
4719.629372651501
 20
6406.174170265909
 30
0.0
  0
POINT
  5
1AE4
330
A9E
100
AcDbEntity
  8
DEFPOINTS
 62
     0
100
AcDbPoint
 10
4862.670992158889
 20
6406.174170265909
 30
0.0
  0
ENDBLK
  5
AA9
330
A9E
100
AcDbEntity
  8
0
100
AcDbBlockEnd
  0
BLOCK
  5
AB4
330
AAA
100
AcDbEntity
  8
0
100
AcDbBlockBegin
  2
*D140
 70
     1
 10
0.0
 20
0.0
 30
0.0
  3
*D140
  1

  0
LINE
  5
1AD3
330
AAA
100
AcDbEntity
  8
sunpo
 62
     0
370
    -2
100
AcDbLine
 10
3967.129372651502
 20
6396.174170265909
 30
0.0
 11
3746.340968068964
 21
6396.174170265909
 31
0.0
  0
LINE
  5
1AD4
330
AAA
100
AcDbEntity
  8
sunpo
 62
     0
370
    -2
100
AcDbLine
 10
3967.129372651502
 20
6256.174170265909
 30
0.0
 11
3746.340968068964
 21
6256.174170265909
 31
0.0
  0
LINE
  5
1AD5
330
AAA
100
AcDbEntity
  8
sunpo
 62
     0
370
    -2
100
AcDbLine
 10
3765.090968068964
 20
6366.174170265909
 30
0.0
 11
3765.090968068964
 21
6286.174170265909
 31
0.0
  0
INSERT
  5
1AD6
330
AAA
100
AcDbEntity
  8
sunpo
 62
     0
370
    -2
100
AcDbBlockReference
  2
_OPEN
 10
3765.090968068964
 20
6396.174170265909
 30
0.0
 41
30.0
 42
30.0
 43
30.0
 50
90.0
  0
INSERT
  5
1AD7
330
AAA
100
AcDbEntity
  8
sunpo
 62
     0
370
    -2
100
AcDbBlockReference
  2
_OPEN
 10
3765.090968068964
 20
6256.174170265909
 30
0.0
 41
30.0
 42
30.0
 43
30.0
 50
270.0
  0
MTEXT
  5
1AD8
330
AAA
100
AcDbEntity
  8
sunpo
 62
     0
370
    20
100
AcDbMText
 10
3736.965968068963
 20
6326.17417026591
 30
0.0
 40
37.5
 41
0.0
 71
     5
 72
     1
  1
\A1;140
 11
0.0000000000000001
 21
1.0
 31
0.0
 73
     1
 44
1.0
1001
ACAD
1000
MTEXTBEGIN
1070
    73
1070
     1
1070
    44
1040
1.0
1070
    74
1070
     0
1000
MTEXTEND
  0
POINT
  5
1AD9
330
AAA
100
AcDbEntity
  8
DEFPOINTS
 62
     0
100
AcDbPoint
 10
4004.629372651502
 20
6396.174170265909
 30
0.0
  0
POINT
  5
1ADA
330
AAA
100
AcDbEntity
  8
DEFPOINTS
 62
     0
100
AcDbPoint
 10
4004.629372651502
 20
6256.174170265909
 30
0.0
  0
POINT
  5
1ADB
330
AAA
100
AcDbEntity
  8
DEFPOINTS
 62
     0
100
AcDbPoint
 10
3765.090968068964
 20
6256.174170265909
 30
0.0
  0
ENDBLK
  5
AB5
330
AAA
100
AcDbEntity
  8
0
100
AcDbBlockEnd
  0
BLOCK
  5
AC0
330
AB6
100
AcDbEntity
  8
0
100
AcDbBlockBegin
  2
*D141
 70
     1
 10
0.0
 20
0.0
 30
0.0
  3
*D141
  1

  0
LINE
  5
1ACA
330
AB6
100
AcDbEntity
  8
sunpo
 62
     0
370
    -2
100
AcDbLine
 10
3967.129372651502
 20
6376.277787341631
 30
0.0
 11
3869.743238449211
 21
6376.277787341631
 31
0.0
  0
LINE
  5
1ACB
330
AB6
100
AcDbEntity
  8
sunpo
 62
     0
370
    -2
100
AcDbLine
 10
3967.129372651502
 20
6256.174170265909
 30
0.0
 11
3869.743238449211
 21
6256.174170265909
 31
0.0
  0
LINE
  5
1ACC
330
AB6
100
AcDbEntity
  8
sunpo
 62
     0
370
    -2
100
AcDbLine
 10
3888.493238449211
 20
6346.27778734163
 30
0.0
 11
3888.493238449211
 21
6286.174170265909
 31
0.0
  0
INSERT
  5
1ACD
330
AB6
100
AcDbEntity
  8
sunpo
 62
     0
370
    -2
100
AcDbBlockReference
  2
_OPEN
 10
3888.493238449211
 20
6376.277787341631
 30
0.0
 41
30.0
 42
30.0
 43
30.0
 50
90.0
  0
INSERT
  5
1ACE
330
AB6
100
AcDbEntity
  8
sunpo
 62
     0
370
    -2
100
AcDbBlockReference
  2
_OPEN
 10
3888.493238449211
 20
6256.174170265909
 30
0.0
 41
30.0
 42
30.0
 43
30.0
 50
270.0
  0
MTEXT
  5
1ACF
330
AB6
100
AcDbEntity
  8
sunpo
 62
     0
370
    20
100
AcDbMText
 10
3860.36823844921
 20
6316.225978803771
 30
0.0
 40
37.5
 41
0.0
 71
     5
 72
     1
  1
\A1;120
 11
0.0000000000000001
 21
1.0
 31
0.0
 73
     1
 44
1.0
1001
ACAD
1000
MTEXTBEGIN
1070
    73
1070
     1
1070
    44
1040
1.0
1070
    74
1070
     0
1000
MTEXTEND
  0
POINT
  5
1AD0
330
AB6
100
AcDbEntity
  8
DEFPOINTS
 62
     0
100
AcDbPoint
 10
4004.629372651502
 20
6376.277787341631
 30
0.0
  0
POINT
  5
1AD1
330
AB6
100
AcDbEntity
  8
DEFPOINTS
 62
     0
100
AcDbPoint
 10
4004.629372651502
 20
6256.174170265909
 30
0.0
  0
POINT
  5
1AD2
330
AB6
100
AcDbEntity
  8
DEFPOINTS
 62
     0
100
AcDbPoint
 10
3888.493238449211
 20
6256.174170265909
 30
0.0
  0
ENDBLK
  5
AC1
330
AB6
100
AcDbEntity
  8
0
100
AcDbBlockEnd
  0
BLOCK
  5
ACC
330
AC2
100
AcDbEntity
  8
0
100
AcDbBlockBegin
  2
*D142
 70
     1
 10
0.0
 20
0.0
 30
0.0
  3
*D142
  1

  0
LINE
  5
1AC1
330
AC2
100
AcDbEntity
  8
sunpo
 62
     0
370
    -2
100
AcDbLine
 10
4064.629372651501
 20
6433.674170265909
 30
0.0
 11
4064.629372651501
 21
6602.334713626449
 31
0.0
  0
LINE
  5
1AC2
330
AC2
100
AcDbEntity
  8
sunpo
 62
     0
370
    -2
100
AcDbLine
 10
4219.63214317098
 20
6413.777787341631
 30
0.0
 11
4219.63214317098
 21
6602.334713626449
 31
0.0
  0
LINE
  5
1AC3
330
AC2
100
AcDbEntity
  8
sunpo
 62
     0
370
    -2
100
AcDbLine
 10
4094.629372651501
 20
6583.584713626449
 30
0.0
 11
4189.63214317098
 21
6583.584713626449
 31
0.0
  0
INSERT
  5
1AC4
330
AC2
100
AcDbEntity
  8
sunpo
 62
     0
370
    -2
100
AcDbBlockReference
  2
_OPEN
 10
4064.629372651501
 20
6583.584713626449
 30
0.0
 41
30.0
 42
30.0
 43
30.0
 50
180.0
  0
INSERT
  5
1AC5
330
AC2
100
AcDbEntity
  8
sunpo
 62
     0
370
    -2
100
AcDbBlockReference
  2
_OPEN
 10
4219.63214317098
 20
6583.584713626449
 30
0.0
 41
30.0
 42
30.0
 43
30.0
  0
MTEXT
  5
1AC6
330
AC2
100
AcDbEntity
  8
sunpo
 62
     0
370
    20
100
AcDbMText
 10
4142.130757911241
 20
6611.709713626449
 30
0.0
 40
37.5
 41
0.0
 71
     5
 72
     1
  1
\A1;155
 73
     1
 44
1.0
1001
ACAD
1000
MTEXTBEGIN
1070
    73
1070
     1
1070
    44
1040
1.0
1070
    74
1070
     0
1000
MTEXTEND
  0
POINT
  5
1AC7
330
AC2
100
AcDbEntity
  8
DEFPOINTS
 62
     0
100
AcDbPoint
 10
4064.629372651501
 20
6396.174170265909
 30
0.0
  0
POINT
  5
1AC8
330
AC2
100
AcDbEntity
  8
DEFPOINTS
 62
     0
100
AcDbPoint
 10
4219.63214317098
 20
6376.277787341631
 30
0.0
  0
POINT
  5
1AC9
330
AC2
100
AcDbEntity
  8
DEFPOINTS
 62
     0
100
AcDbPoint
 10
4219.63214317098
 20
6583.584713626449
 30
0.0
  0
ENDBLK
  5
ACD
330
AC2
100
AcDbEntity
  8
0
100
AcDbBlockEnd
  0
BLOCK
  5
AD9
330
ACE
100
AcDbEntity
  8
0
100
AcDbBlockBegin
  2
*D143
 70
     1
 10
0.0
 20
0.0
 30
0.0
  3
*D143
  1

  0
LINE
  5
1AB7
330
ACE
100
AcDbEntity
  8
sunpo
 62
     0
370
    -2
100
AcDbLine
 10
4004.629372651502
 20
6433.674170265909
 30
0.0
 11
4004.629372651502
 21
6602.334713626449
 31
0.0
  0
LINE
  5
1AB8
330
ACE
100
AcDbEntity
  8
sunpo
 62
     0
370
    -2
100
AcDbLine
 10
4064.629372651501
 20
6433.674170265909
 30
0.0
 11
4064.629372651501
 21
6602.334713626449
 31
0.0
  0
LINE
  5
1AB9
330
ACE
100
AcDbEntity
  8
sunpo
 62
     0
370
    -2
100
AcDbLine
 10
3974.629372651501
 20
6583.584713626449
 30
0.0
 11
3944.629372651501
 21
6583.584713626449
 31
0.0
  0
LINE
  5
1ABA
330
ACE
100
AcDbEntity
  8
sunpo
 62
     0
370
    -2
100
AcDbLine
 10
4094.629372651501
 20
6583.584713626449
 30
0.0
 11
4124.629372651501
 21
6583.584713626449
 31
0.0
  0
MTEXT
  5
1ABB
330
ACE
100
AcDbEntity
  8
sunpo
 62
     0
370
    20
100
AcDbMText
 10
4034.629372651501
 20
6635.147213626449
 30
0.0
 40
37.5
 41
0.0
 71
     5
 72
     1
  1
\A1;60
 73
     1
 44
1.0
1001
ACAD
1000
MTEXTBEGIN
1070
    73
1070
     1
1070
    44
1040
1.0
1070
    74
1070
     0
1000
MTEXTEND
  0
INSERT
  5
1ABC
330
ACE
100
AcDbEntity
  8
sunpo
 62
     0
370
    -2
100
AcDbBlockReference
  2
_OPEN
 10
4004.629372651502
 20
6583.584713626449
 30
0.0
 41
30.0
 42
30.0
 43
30.0
  0
INSERT
  5
1ABD
330
ACE
100
AcDbEntity
  8
sunpo
 62
     0
370
    -2
100
AcDbBlockReference
  2
_OPEN
 10
4064.629372651501
 20
6583.584713626449
 30
0.0
 41
30.0
 42
30.0
 43
30.0
 50
180.0
  0
POINT
  5
1ABE
330
ACE
100
AcDbEntity
  8
DEFPOINTS
 62
     0
100
AcDbPoint
 10
4004.629372651502
 20
6396.174170265909
 30
0.0
  0
POINT
  5
1ABF
330
ACE
100
AcDbEntity
  8
DEFPOINTS
 62
     0
100
AcDbPoint
 10
4064.629372651501
 20
6396.174170265909
 30
0.0
  0
POINT
  5
1AC0
330
ACE
100
AcDbEntity
  8
DEFPOINTS
 62
     0
100
AcDbPoint
 10
4064.629372651501
 20
6583.584713626449
 30
0.0
  0
ENDBLK
  5
ADA
330
ACE
100
AcDbEntity
  8
0
100
AcDbBlockEnd
  0
BLOCK
  5
AE5
330
ADB
100
AcDbEntity
  8
0
100
AcDbBlockBegin
  2
*D144
 70
     1
 10
0.0
 20
0.0
 30
0.0
  3
*D144
  1

  0
LINE
  5
1AAE
330
ADB
100
AcDbEntity
  8
sunpo
 62
     0
370
    -2
100
AcDbLine
 10
4004.629372651502
 20
6433.674170265909
 30
0.0
 11
4004.629372651502
 21
6720.689426841025
 31
0.0
  0
LINE
  5
1AAF
330
ADB
100
AcDbEntity
  8
sunpo
 62
     0
370
    -2
100
AcDbLine
 10
4719.629372651501
 20
6443.674170265909
 30
0.0
 11
4719.629372651501
 21
6720.689426841025
 31
0.0
  0
LINE
  5
1AB0
330
ADB
100
AcDbEntity
  8
sunpo
 62
     0
370
    -2
100
AcDbLine
 10
4034.629372651501
 20
6701.939426841025
 30
0.0
 11
4689.629372651501
 21
6701.939426841025
 31
0.0
  0
INSERT
  5
1AB1
330
ADB
100
AcDbEntity
  8
sunpo
 62
     0
370
    -2
100
AcDbBlockReference
  2
_OPEN
 10
4004.629372651502
 20
6701.939426841025
 30
0.0
 41
30.0
 42
30.0
 43
30.0
 50
180.0
  0
INSERT
  5
1AB2
330
ADB
100
AcDbEntity
  8
sunpo
 62
     0
370
    -2
100
AcDbBlockReference
  2
_OPEN
 10
4719.629372651501
 20
6701.939426841025
 30
0.0
 41
30.0
 42
30.0
 43
30.0
  0
MTEXT
  5
1AB3
330
ADB
100
AcDbEntity
  8
sunpo
 62
     0
370
    20
100
AcDbMText
 10
4362.129372651501
 20
6730.064426841025
 30
0.0
 40
37.5
 41
0.0
 71
     5
 72
     1
  1
\A1;715
 73
     1
 44
1.0
1001
ACAD
1000
MTEXTBEGIN
1070
    73
1070
     1
1070
    44
1040
1.0
1070
    74
1070
     0
1000
MTEXTEND
  0
POINT
  5
1AB4
330
ADB
100
AcDbEntity
  8
DEFPOINTS
 62
     0
100
AcDbPoint
 10
4004.629372651502
 20
6396.174170265909
 30
0.0
  0
POINT
  5
1AB5
330
ADB
100
AcDbEntity
  8
DEFPOINTS
 62
     0
100
AcDbPoint
 10
4719.629372651501
 20
6406.174170265909
 30
0.0
  0
POINT
  5
1AB6
330
ADB
100
AcDbEntity
  8
DEFPOINTS
 62
     0
100
AcDbPoint
 10
4719.629372651501
 20
6701.939426841025
 30
0.0
  0
ENDBLK
  5
AE6
330
ADB
100
AcDbEntity
  8
0
100
AcDbBlockEnd
  0
BLOCK
  5
AF1
330
AE7
100
AcDbEntity
  8
0
100
AcDbBlockBegin
  2
*D145
 70
     1
 10
0.0
 20
0.0
 30
0.0
  3
*D145
  1

  0
LINE
  5
1AA5
330
AE7
100
AcDbEntity
  8
sunpo
 62
     0
370
    -2
100
AcDbLine
 10
4219.63214317098
 20
6413.777787341631
 30
0.0
 11
4219.63214317098
 21
6602.334713626449
 31
0.0
  0
LINE
  5
1AA6
330
AE7
100
AcDbEntity
  8
sunpo
 62
     0
370
    -2
100
AcDbLine
 10
4719.629372651501
 20
6443.674170265909
 30
0.0
 11
4719.629372651501
 21
6602.334713626449
 31
0.0
  0
LINE
  5
1AA7
330
AE7
100
AcDbEntity
  8
sunpo
 62
     0
370
    -2
100
AcDbLine
 10
4249.63214317098
 20
6583.584713626449
 30
0.0
 11
4689.629372651501
 21
6583.584713626449
 31
0.0
  0
INSERT
  5
1AA8
330
AE7
100
AcDbEntity
  8
sunpo
 62
     0
370
    -2
100
AcDbBlockReference
  2
_OPEN
 10
4219.63214317098
 20
6583.584713626449
 30
0.0
 41
30.0
 42
30.0
 43
30.0
 50
180.0
  0
INSERT
  5
1AA9
330
AE7
100
AcDbEntity
  8
sunpo
 62
     0
370
    -2
100
AcDbBlockReference
  2
_OPEN
 10
4719.629372651501
 20
6583.584713626449
 30
0.0
 41
30.0
 42
30.0
 43
30.0
  0
MTEXT
  5
1AAA
330
AE7
100
AcDbEntity
  8
sunpo
 62
     0
370
    20
100
AcDbMText
 10
4469.63075791124
 20
6611.709713626449
 30
0.0
 40
37.5
 41
0.0
 71
     5
 72
     1
  1
\A1;500
 73
     1
 44
1.0
1001
ACAD
1000
MTEXTBEGIN
1070
    73
1070
     1
1070
    44
1040
1.0
1070
    74
1070
     0
1000
MTEXTEND
  0
POINT
  5
1AAB
330
AE7
100
AcDbEntity
  8
DEFPOINTS
 62
     0
100
AcDbPoint
 10
4219.63214317098
 20
6376.277787341631
 30
0.0
  0
POINT
  5
1AAC
330
AE7
100
AcDbEntity
  8
DEFPOINTS
 62
     0
100
AcDbPoint
 10
4719.629372651501
 20
6406.174170265909
 30
0.0
  0
POINT
  5
1AAD
330
AE7
100
AcDbEntity
  8
DEFPOINTS
 62
     0
100
AcDbPoint
 10
4719.629372651501
 20
6583.584713626449
 30
0.0
  0
ENDBLK
  5
AF2
330
AE7
100
AcDbEntity
  8
0
100
AcDbBlockEnd
  0
BLOCK
  5
AFD
330
AF3
100
AcDbEntity
  8
0
100
AcDbBlockBegin
  2
*D146
 70
     1
 10
0.0
 20
0.0
 30
0.0
  3
*D146
  1

  0
LINE
  5
1A9C
330
AF3
100
AcDbEntity
  8
sunpo
 62
     0
370
    -2
100
AcDbLine
 10
3967.129372651502
 20
5879.510945574122
 30
0.0
 11
3809.776646977405
 21
5879.510945574122
 31
0.0
  0
LINE
  5
1A9D
330
AF3
100
AcDbEntity
  8
sunpo
 62
     0
370
    -2
100
AcDbLine
 10
3967.129372651502
 20
5279.510945574123
 30
0.0
 11
3809.776646977405
 21
5279.510945574123
 31
0.0
  0
LINE
  5
1A9E
330
AF3
100
AcDbEntity
  8
sunpo
 62
     0
370
    -2
100
AcDbLine
 10
3828.526646977405
 20
5849.510945574122
 30
0.0
 11
3828.526646977405
 21
5309.510945574122
 31
0.0
  0
INSERT
  5
1A9F
330
AF3
100
AcDbEntity
  8
sunpo
 62
     0
370
    -2
100
AcDbBlockReference
  2
_OPEN
 10
3828.526646977405
 20
5879.510945574122
 30
0.0
 41
30.0
 42
30.0
 43
30.0
 50
90.0
  0
INSERT
  5
1AA0
330
AF3
100
AcDbEntity
  8
sunpo
 62
     0
370
    -2
100
AcDbBlockReference
  2
_OPEN
 10
3828.526646977405
 20
5279.510945574123
 30
0.0
 41
30.0
 42
30.0
 43
30.0
 50
270.0
  0
MTEXT
  5
1AA1
330
AF3
100
AcDbEntity
  8
sunpo
 62
     0
370
    20
100
AcDbMText
 10
3800.401646977404
 20
5579.510945574123
 30
0.0
 40
37.5
 41
0.0
 71
     5
 72
     1
  1
\A1;600
 11
0.0000000000000001
 21
1.0
 31
0.0
 73
     1
 44
1.0
1001
ACAD
1000
MTEXTBEGIN
1070
    73
1070
     1
1070
    44
1040
1.0
1070
    74
1070
     0
1000
MTEXTEND
  0
POINT
  5
1AA2
330
AF3
100
AcDbEntity
  8
DEFPOINTS
 62
     0
100
AcDbPoint
 10
4004.629372651502
 20
5879.510945574122
 30
0.0
  0
POINT
  5
1AA3
330
AF3
100
AcDbEntity
  8
DEFPOINTS
 62
     0
100
AcDbPoint
 10
4004.629372651502
 20
5279.510945574123
 30
0.0
  0
POINT
  5
1AA4
330
AF3
100
AcDbEntity
  8
DEFPOINTS
 62
     0
100
AcDbPoint
 10
3828.526646977405
 20
5279.510945574123
 30
0.0
  0
ENDBLK
  5
AFE
330
AF3
100
AcDbEntity
  8
0
100
AcDbBlockEnd
  0
BLOCK
  5
B09
330
AFF
100
AcDbEntity
  8
0
100
AcDbBlockBegin
  2
*D147
 70
     1
 10
0.0
 20
0.0
 30
0.0
  3
*D147
  1

  0
LINE
  5
1A93
330
AFF
100
AcDbEntity
  8
sunpo
 62
     0
370
    -2
100
AcDbLine
 10
4004.629372651502
 20
5907.010945574122
 30
0.0
 11
4004.629372651502
 21
6092.872574344903
 31
0.0
  0
LINE
  5
1A94
330
AFF
100
AcDbEntity
  8
sunpo
 62
     0
370
    -2
100
AcDbLine
 10
4719.629372651501
 20
5917.010945574123
 30
0.0
 11
4719.629372651501
 21
6092.872574344903
 31
0.0
  0
LINE
  5
1A95
330
AFF
100
AcDbEntity
  8
sunpo
 62
     0
370
    -2
100
AcDbLine
 10
4034.629372651501
 20
6074.122574344904
 30
0.0
 11
4689.629372651501
 21
6074.122574344904
 31
0.0
  0
INSERT
  5
1A96
330
AFF
100
AcDbEntity
  8
sunpo
 62
     0
370
    -2
100
AcDbBlockReference
  2
_OPEN
 10
4004.629372651502
 20
6074.122574344904
 30
0.0
 41
30.0
 42
30.0
 43
30.0
 50
180.0
  0
INSERT
  5
1A97
330
AFF
100
AcDbEntity
  8
sunpo
 62
     0
370
    -2
100
AcDbBlockReference
  2
_OPEN
 10
4719.629372651501
 20
6074.122574344904
 30
0.0
 41
30.0
 42
30.0
 43
30.0
  0
MTEXT
  5
1A98
330
AFF
100
AcDbEntity
  8
sunpo
 62
     0
370
    20
100
AcDbMText
 10
4362.129372651501
 20
6102.247574344904
 30
0.0
 40
37.5
 41
0.0
 71
     5
 72
     1
  1
\A1;715
 73
     1
 44
1.0
1001
ACAD
1000
MTEXTBEGIN
1070
    73
1070
     1
1070
    44
1040
1.0
1070
    74
1070
     0
1000
MTEXTEND
  0
POINT
  5
1A99
330
AFF
100
AcDbEntity
  8
DEFPOINTS
 62
     0
100
AcDbPoint
 10
4004.629372651502
 20
5869.510945574123
 30
0.0
  0
POINT
  5
1A9A
330
AFF
100
AcDbEntity
  8
DEFPOINTS
 62
     0
100
AcDbPoint
 10
4719.629372651501
 20
5879.510945574122
 30
0.0
  0
POINT
  5
1A9B
330
AFF
100
AcDbEntity
  8
DEFPOINTS
 62
     0
100
AcDbPoint
 10
4719.629372651501
 20
6074.122574344904
 30
0.0
  0
ENDBLK
  5
B0A
330
AFF
100
AcDbEntity
  8
0
100
AcDbBlockEnd
  0
BLOCK
  5
B15
330
B0B
100
AcDbEntity
  8
0
100
AcDbBlockBegin
  2
*D148
 70
     1
 10
0.0
 20
0.0
 30
0.0
  3
*D148
  1

  0
LINE
  5
1A8A
330
B0B
100
AcDbEntity
  8
sunpo
 62
     0
370
    -2
100
AcDbLine
 10
617.2400662628224
 20
6376.277787341632
 30
0.0
 11
519.8539320605332
 21
6376.277787341632
 31
0.0
  0
LINE
  5
1A8B
330
B0B
100
AcDbEntity
  8
sunpo
 62
     0
370
    -2
100
AcDbLine
 10
617.2400662628224
 20
6256.174170265911
 30
0.0
 11
519.8539320605332
 21
6256.174170265911
 31
0.0
  0
LINE
  5
1A8C
330
B0B
100
AcDbEntity
  8
sunpo
 62
     0
370
    -2
100
AcDbLine
 10
538.6039320605332
 20
6346.277787341633
 30
0.0
 11
538.6039320605332
 21
6286.174170265911
 31
0.0
  0
INSERT
  5
1A8D
330
B0B
100
AcDbEntity
  8
sunpo
 62
     0
370
    -2
100
AcDbBlockReference
  2
_OPEN
 10
538.6039320605332
 20
6376.277787341632
 30
0.0
 41
30.0
 42
30.0
 43
30.0
 50
90.0
  0
INSERT
  5
1A8E
330
B0B
100
AcDbEntity
  8
sunpo
 62
     0
370
    -2
100
AcDbBlockReference
  2
_OPEN
 10
538.6039320605332
 20
6256.174170265911
 30
0.0
 41
30.0
 42
30.0
 43
30.0
 50
270.0
  0
MTEXT
  5
1A8F
330
B0B
100
AcDbEntity
  8
sunpo
 62
     0
370
    20
100
AcDbMText
 10
510.4789320605322
 20
6316.225978803772
 30
0.0
 40
37.5
 41
0.0
 71
     5
 72
     1
  1
\A1;120
 11
0.0000000000000001
 21
1.0
 31
0.0
 73
     1
 44
1.0
1001
ACAD
1000
MTEXTBEGIN
1070
    73
1070
     1
1070
    44
1040
1.0
1070
    74
1070
     0
1000
MTEXTEND
  0
POINT
  5
1A90
330
B0B
100
AcDbEntity
  8
DEFPOINTS
 62
     0
100
AcDbPoint
 10
654.7400662628224
 20
6376.277787341632
 30
0.0
  0
POINT
  5
1A91
330
B0B
100
AcDbEntity
  8
DEFPOINTS
 62
     0
100
AcDbPoint
 10
654.7400662628224
 20
6256.174170265911
 30
0.0
  0
POINT
  5
1A92
330
B0B
100
AcDbEntity
  8
DEFPOINTS
 62
     0
100
AcDbPoint
 10
538.6039320605332
 20
6256.174170265911
 30
0.0
  0
ENDBLK
  5
B16
330
B0B
100
AcDbEntity
  8
0
100
AcDbBlockEnd
  0
BLOCK
  5
B21
330
B17
100
AcDbEntity
  8
0
100
AcDbBlockBegin
  2
*D149
 70
     1
 10
0.0
 20
0.0
 30
0.0
  3
*D149
  1

  0
LINE
  5
1A81
330
B17
100
AcDbEntity
  8
sunpo
 62
     0
370
    -2
100
AcDbLine
 10
617.2400662628224
 20
6396.174170265911
 30
0.0
 11
396.4516616802858
 21
6396.174170265911
 31
0.0
  0
LINE
  5
1A82
330
B17
100
AcDbEntity
  8
sunpo
 62
     0
370
    -2
100
AcDbLine
 10
617.2400662628224
 20
6256.174170265911
 30
0.0
 11
396.4516616802857
 21
6256.174170265911
 31
0.0
  0
LINE
  5
1A83
330
B17
100
AcDbEntity
  8
sunpo
 62
     0
370
    -2
100
AcDbLine
 10
415.2016616802858
 20
6366.174170265911
 30
0.0
 11
415.2016616802858
 21
6286.174170265911
 31
0.0
  0
INSERT
  5
1A84
330
B17
100
AcDbEntity
  8
sunpo
 62
     0
370
    -2
100
AcDbBlockReference
  2
_OPEN
 10
415.2016616802858
 20
6396.174170265911
 30
0.0
 41
30.0
 42
30.0
 43
30.0
 50
90.0
  0
INSERT
  5
1A85
330
B17
100
AcDbEntity
  8
sunpo
 62
     0
370
    -2
100
AcDbBlockReference
  2
_OPEN
 10
415.2016616802857
 20
6256.174170265911
 30
0.0
 41
30.0
 42
30.0
 43
30.0
 50
270.0
  0
MTEXT
  5
1A86
330
B17
100
AcDbEntity
  8
sunpo
 62
     0
370
    20
100
AcDbMText
 10
387.0766616802848
 20
6326.174170265911
 30
0.0
 40
37.5
 41
0.0
 71
     5
 72
     1
  1
\A1;140
 11
0.0000000000000001
 21
1.0
 31
0.0
 73
     1
 44
1.0
1001
ACAD
1000
MTEXTBEGIN
1070
    73
1070
     1
1070
    44
1040
1.0
1070
    74
1070
     0
1000
MTEXTEND
  0
POINT
  5
1A87
330
B17
100
AcDbEntity
  8
DEFPOINTS
 62
     0
100
AcDbPoint
 10
654.7400662628224
 20
6396.174170265911
 30
0.0
  0
POINT
  5
1A88
330
B17
100
AcDbEntity
  8
DEFPOINTS
 62
     0
100
AcDbPoint
 10
654.7400662628224
 20
6256.174170265911
 30
0.0
  0
POINT
  5
1A89
330
B17
100
AcDbEntity
  8
DEFPOINTS
 62
     0
100
AcDbPoint
 10
415.2016616802857
 20
6256.174170265911
 30
0.0
  0
ENDBLK
  5
B22
330
B17
100
AcDbEntity
  8
0
100
AcDbBlockEnd
  0
BLOCK
  5
B2D
330
B23
100
AcDbEntity
  8
0
100
AcDbBlockBegin
  2
*D150
 70
     1
 10
0.0
 20
0.0
 30
0.0
  3
*D150
  1

  0
LINE
  5
1A78
330
B23
100
AcDbEntity
  8
sunpo
 62
     0
370
    -2
100
AcDbLine
 10
869.7428367823022
 20
6413.777787341633
 30
0.0
 11
869.7428367823022
 21
6602.334713626451
 31
0.0
  0
LINE
  5
1A79
330
B23
100
AcDbEntity
  8
sunpo
 62
     0
370
    -2
100
AcDbLine
 10
1269.740066262821
 20
6443.674170265911
 30
0.0
 11
1269.740066262821
 21
6602.334713626451
 31
0.0
  0
LINE
  5
1A7A
330
B23
100
AcDbEntity
  8
sunpo
 62
     0
370
    -2
100
AcDbLine
 10
899.7428367823022
 20
6583.58471362645
 30
0.0
 11
1239.740066262821
 21
6583.58471362645
 31
0.0
  0
INSERT
  5
1A7B
330
B23
100
AcDbEntity
  8
sunpo
 62
     0
370
    -2
100
AcDbBlockReference
  2
_OPEN
 10
869.7428367823022
 20
6583.58471362645
 30
0.0
 41
30.0
 42
30.0
 43
30.0
 50
180.0
  0
INSERT
  5
1A7C
330
B23
100
AcDbEntity
  8
sunpo
 62
     0
370
    -2
100
AcDbBlockReference
  2
_OPEN
 10
1269.740066262821
 20
6583.58471362645
 30
0.0
 41
30.0
 42
30.0
 43
30.0
  0
MTEXT
  5
1A7D
330
B23
100
AcDbEntity
  8
sunpo
 62
     0
370
    20
100
AcDbMText
 10
1069.741451522562
 20
6611.70971362645
 30
0.0
 40
37.5
 41
0.0
 71
     5
 72
     1
  1
\A1;400
 73
     1
 44
1.0
1001
ACAD
1000
MTEXTBEGIN
1070
    73
1070
     1
1070
    44
1040
1.0
1070
    74
1070
     0
1000
MTEXTEND
  0
POINT
  5
1A7E
330
B23
100
AcDbEntity
  8
DEFPOINTS
 62
     0
100
AcDbPoint
 10
869.7428367823022
 20
6376.277787341632
 30
0.0
  0
POINT
  5
1A7F
330
B23
100
AcDbEntity
  8
DEFPOINTS
 62
     0
100
AcDbPoint
 10
1269.740066262821
 20
6406.17417026591
 30
0.0
  0
POINT
  5
1A80
330
B23
100
AcDbEntity
  8
DEFPOINTS
 62
     0
100
AcDbPoint
 10
1269.740066262821
 20
6583.58471362645
 30
0.0
  0
ENDBLK
  5
B2E
330
B23
100
AcDbEntity
  8
0
100
AcDbBlockEnd
  0
BLOCK
  5
B39
330
B2F
100
AcDbEntity
  8
0
100
AcDbBlockBegin
  2
*D151
 70
     1
 10
0.0
 20
0.0
 30
0.0
  3
*D151
  1

  0
LINE
  5
1A6F
330
B2F
100
AcDbEntity
  8
sunpo
 62
     0
370
    -2
100
AcDbLine
 10
1799.296904796376
 20
6443.674170265911
 30
0.0
 11
1799.296904796376
 21
6623.350604540019
 31
0.0
  0
LINE
  5
1A70
330
B2F
100
AcDbEntity
  8
sunpo
 62
     0
370
    -2
100
AcDbLine
 10
2399.296904796376
 20
6443.674170265911
 30
0.0
 11
2399.296904796376
 21
6623.350604540019
 31
0.0
  0
LINE
  5
1A71
330
B2F
100
AcDbEntity
  8
sunpo
 62
     0
370
    -2
100
AcDbLine
 10
1829.296904796376
 20
6604.600604540019
 30
0.0
 11
2369.296904796376
 21
6604.600604540019
 31
0.0
  0
INSERT
  5
1A72
330
B2F
100
AcDbEntity
  8
sunpo
 62
     0
370
    -2
100
AcDbBlockReference
  2
_OPEN
 10
1799.296904796376
 20
6604.600604540019
 30
0.0
 41
30.0
 42
30.0
 43
30.0
 50
180.0
  0
INSERT
  5
1A73
330
B2F
100
AcDbEntity
  8
sunpo
 62
     0
370
    -2
100
AcDbBlockReference
  2
_OPEN
 10
2399.296904796376
 20
6604.600604540019
 30
0.0
 41
30.0
 42
30.0
 43
30.0
  0
MTEXT
  5
1A74
330
B2F
100
AcDbEntity
  8
sunpo
 62
     0
370
    20
100
AcDbMText
 10
2099.296904796376
 20
6632.725604540019
 30
0.0
 40
37.5
 41
0.0
 71
     5
 72
     1
  1
\A1;L
 73
     1
 44
1.0
1001
ACAD
1000
MTEXTBEGIN
1070
    73
1070
     1
1070
    44
1040
1.0
1070
    74
1070
     0
1000
MTEXTEND
  0
POINT
  5
1A75
330
B2F
100
AcDbEntity
  8
DEFPOINTS
 62
     0
100
AcDbPoint
 10
1799.296904796376
 20
6406.17417026591
 30
0.0
  0
POINT
  5
1A76
330
B2F
100
AcDbEntity
  8
DEFPOINTS
 62
     0
100
AcDbPoint
 10
2399.296904796376
 20
6406.17417026591
 30
0.0
  0
POINT
  5
1A77
330
B2F
100
AcDbEntity
  8
DEFPOINTS
 62
     0
100
AcDbPoint
 10
2399.296904796376
 20
6604.600604540019
 30
0.0
  0
ENDBLK
  5
B3A
330
B2F
100
AcDbEntity
  8
0
100
AcDbBlockEnd
  0
BLOCK
  5
B45
330
B3B
100
AcDbEntity
  8
0
100
AcDbBlockBegin
  2
*D152
 70
     1
 10
0.0
 20
0.0
 30
0.0
  3
*D152
  1

  0
LINE
  5
1A66
330
B3B
100
AcDbEntity
  8
sunpo
 62
     0
370
    -2
100
AcDbLine
 10
654.7400662628224
 20
6433.674170265911
 30
0.0
 11
654.7400662628224
 21
6720.689426841026
 31
0.0
  0
LINE
  5
1A67
330
B3B
100
AcDbEntity
  8
sunpo
 62
     0
370
    -2
100
AcDbLine
 10
1269.740066262821
 20
6443.674170265911
 30
0.0
 11
1269.740066262821
 21
6720.689426841026
 31
0.0
  0
LINE
  5
1A68
330
B3B
100
AcDbEntity
  8
sunpo
 62
     0
370
    -2
100
AcDbLine
 10
684.7400662628224
 20
6701.939426841026
 30
0.0
 11
1239.740066262821
 21
6701.939426841026
 31
0.0
  0
INSERT
  5
1A69
330
B3B
100
AcDbEntity
  8
sunpo
 62
     0
370
    -2
100
AcDbBlockReference
  2
_OPEN
 10
654.7400662628224
 20
6701.939426841026
 30
0.0
 41
30.0
 42
30.0
 43
30.0
 50
180.0
  0
INSERT
  5
1A6A
330
B3B
100
AcDbEntity
  8
sunpo
 62
     0
370
    -2
100
AcDbBlockReference
  2
_OPEN
 10
1269.740066262821
 20
6701.939426841026
 30
0.0
 41
30.0
 42
30.0
 43
30.0
  0
MTEXT
  5
1A6B
330
B3B
100
AcDbEntity
  8
sunpo
 62
     0
370
    20
100
AcDbMText
 10
962.2400662628219
 20
6730.064426841027
 30
0.0
 40
37.5
 41
0.0
 71
     5
 72
     1
  1
\A1;615
 73
     1
 44
1.0
1001
ACAD
1000
MTEXTBEGIN
1070
    73
1070
     1
1070
    44
1040
1.0
1070
    74
1070
     0
1000
MTEXTEND
  0
POINT
  5
1A6C
330
B3B
100
AcDbEntity
  8
DEFPOINTS
 62
     0
100
AcDbPoint
 10
654.7400662628224
 20
6396.174170265911
 30
0.0
  0
POINT
  5
1A6D
330
B3B
100
AcDbEntity
  8
DEFPOINTS
 62
     0
100
AcDbPoint
 10
1269.740066262821
 20
6406.17417026591
 30
0.0
  0
POINT
  5
1A6E
330
B3B
100
AcDbEntity
  8
DEFPOINTS
 62
     0
100
AcDbPoint
 10
1269.740066262821
 20
6701.939426841026
 30
0.0
  0
ENDBLK
  5
B46
330
B3B
100
AcDbEntity
  8
0
100
AcDbBlockEnd
  0
BLOCK
  5
B51
330
B47
100
AcDbEntity
  8
0
100
AcDbBlockBegin
  2
*D153
 70
     1
 10
0.0
 20
0.0
 30
0.0
  3
*D153
  1

  0
LINE
  5
1A5D
330
B47
100
AcDbEntity
  8
sunpo
 62
     0
370
    -2
100
AcDbLine
 10
617.2400662628206
 20
5879.510945574124
 30
0.0
 11
459.8873405887262
 21
5879.510945574124
 31
0.0
  0
LINE
  5
1A5E
330
B47
100
AcDbEntity
  8
sunpo
 62
     0
370
    -2
100
AcDbLine
 10
617.2400662628206
 20
5279.510945574124
 30
0.0
 11
459.8873405887261
 21
5279.510945574124
 31
0.0
  0
LINE
  5
1A5F
330
B47
100
AcDbEntity
  8
sunpo
 62
     0
370
    -2
100
AcDbLine
 10
478.6373405887262
 20
5849.510945574124
 30
0.0
 11
478.6373405887261
 21
5309.510945574124
 31
0.0
  0
INSERT
  5
1A60
330
B47
100
AcDbEntity
  8
sunpo
 62
     0
370
    -2
100
AcDbBlockReference
  2
_OPEN
 10
478.6373405887262
 20
5879.510945574124
 30
0.0
 41
30.0
 42
30.0
 43
30.0
 50
90.0
  0
INSERT
  5
1A61
330
B47
100
AcDbEntity
  8
sunpo
 62
     0
370
    -2
100
AcDbBlockReference
  2
_OPEN
 10
478.6373405887261
 20
5279.510945574124
 30
0.0
 41
30.0
 42
30.0
 43
30.0
 50
270.0
  0
MTEXT
  5
1A62
330
B47
100
AcDbEntity
  8
sunpo
 62
     0
370
    20
100
AcDbMText
 10
450.5123405887252
 20
5579.510945574124
 30
0.0
 40
37.5
 41
0.0
 71
     5
 72
     1
  1
\A1;600
 11
0.0000000000000001
 21
1.0
 31
0.0
 73
     1
 44
1.0
1001
ACAD
1000
MTEXTBEGIN
1070
    73
1070
     1
1070
    44
1040
1.0
1070
    74
1070
     0
1000
MTEXTEND
  0
POINT
  5
1A63
330
B47
100
AcDbEntity
  8
DEFPOINTS
 62
     0
100
AcDbPoint
 10
654.7400662628206
 20
5879.510945574124
 30
0.0
  0
POINT
  5
1A64
330
B47
100
AcDbEntity
  8
DEFPOINTS
 62
     0
100
AcDbPoint
 10
654.7400662628206
 20
5279.510945574124
 30
0.0
  0
POINT
  5
1A65
330
B47
100
AcDbEntity
  8
DEFPOINTS
 62
     0
100
AcDbPoint
 10
478.6373405887261
 20
5279.510945574124
 30
0.0
  0
ENDBLK
  5
B52
330
B47
100
AcDbEntity
  8
0
100
AcDbBlockEnd
  0
BLOCK
  5
B5E
330
B53
100
AcDbEntity
  8
0
100
AcDbBlockBegin
  2
*D154
 70
     1
 10
0.0
 20
0.0
 30
0.0
  3
*D154
  1

  0
LINE
  5
1A53
330
B53
100
AcDbEntity
  8
sunpo
 62
     0
370
    -2
100
AcDbLine
 10
654.7400662628224
 20
6433.674170265911
 30
0.0
 11
654.7400662628224
 21
6602.334713626451
 31
0.0
  0
LINE
  5
1A54
330
B53
100
AcDbEntity
  8
sunpo
 62
     0
370
    -2
100
AcDbLine
 10
714.7400662628224
 20
6433.674170265911
 30
0.0
 11
714.7400662628224
 21
6602.334713626451
 31
0.0
  0
LINE
  5
1A55
330
B53
100
AcDbEntity
  8
sunpo
 62
     0
370
    -2
100
AcDbLine
 10
624.7400662628224
 20
6583.58471362645
 30
0.0
 11
594.7400662628224
 21
6583.58471362645
 31
0.0
  0
LINE
  5
1A56
330
B53
100
AcDbEntity
  8
sunpo
 62
     0
370
    -2
100
AcDbLine
 10
744.7400662628224
 20
6583.58471362645
 30
0.0
 11
774.7400662628224
 21
6583.58471362645
 31
0.0
  0
MTEXT
  5
1A57
330
B53
100
AcDbEntity
  8
sunpo
 62
     0
370
    20
100
AcDbMText
 10
684.7400662628224
 20
6635.14721362645
 30
0.0
 40
37.5
 41
0.0
 71
     5
 72
     1
  1
\A1;60
 73
     1
 44
1.0
1001
ACAD
1000
MTEXTBEGIN
1070
    73
1070
     1
1070
    44
1040
1.0
1070
    74
1070
     0
1000
MTEXTEND
  0
INSERT
  5
1A58
330
B53
100
AcDbEntity
  8
sunpo
 62
     0
370
    -2
100
AcDbBlockReference
  2
_OPEN
 10
654.7400662628224
 20
6583.58471362645
 30
0.0
 41
30.0
 42
30.0
 43
30.0
  0
INSERT
  5
1A59
330
B53
100
AcDbEntity
  8
sunpo
 62
     0
370
    -2
100
AcDbBlockReference
  2
_OPEN
 10
714.7400662628224
 20
6583.58471362645
 30
0.0
 41
30.0
 42
30.0
 43
30.0
 50
180.0
  0
POINT
  5
1A5A
330
B53
100
AcDbEntity
  8
DEFPOINTS
 62
     0
100
AcDbPoint
 10
654.7400662628224
 20
6396.174170265911
 30
0.0
  0
POINT
  5
1A5B
330
B53
100
AcDbEntity
  8
DEFPOINTS
 62
     0
100
AcDbPoint
 10
714.7400662628224
 20
6396.174170265911
 30
0.0
  0
POINT
  5
1A5C
330
B53
100
AcDbEntity
  8
DEFPOINTS
 62
     0
100
AcDbPoint
 10
714.7400662628224
 20
6583.58471362645
 30
0.0
  0
ENDBLK
  5
B5F
330
B53
100
AcDbEntity
  8
0
100
AcDbBlockEnd
  0
BLOCK
  5
B6A
330
B60
100
AcDbEntity
  8
0
100
AcDbBlockBegin
  2
*D155
 70
     1
 10
0.0
 20
0.0
 30
0.0
  3
*D155
  1

  0
LINE
  5
1A4A
330
B60
100
AcDbEntity
  8
sunpo
 62
     0
370
    -2
100
AcDbLine
 10
714.7400662628224
 20
6433.674170265911
 30
0.0
 11
714.7400662628224
 21
6602.334713626451
 31
0.0
  0
LINE
  5
1A4B
330
B60
100
AcDbEntity
  8
sunpo
 62
     0
370
    -2
100
AcDbLine
 10
869.7428367823022
 20
6413.777787341633
 30
0.0
 11
869.7428367823022
 21
6602.334713626451
 31
0.0
  0
LINE
  5
1A4C
330
B60
100
AcDbEntity
  8
sunpo
 62
     0
370
    -2
100
AcDbLine
 10
744.7400662628224
 20
6583.58471362645
 30
0.0
 11
839.7428367823021
 21
6583.58471362645
 31
0.0
  0
INSERT
  5
1A4D
330
B60
100
AcDbEntity
  8
sunpo
 62
     0
370
    -2
100
AcDbBlockReference
  2
_OPEN
 10
714.7400662628224
 20
6583.58471362645
 30
0.0
 41
30.0
 42
30.0
 43
30.0
 50
180.0
  0
INSERT
  5
1A4E
330
B60
100
AcDbEntity
  8
sunpo
 62
     0
370
    -2
100
AcDbBlockReference
  2
_OPEN
 10
869.7428367823022
 20
6583.58471362645
 30
0.0
 41
30.0
 42
30.0
 43
30.0
  0
MTEXT
  5
1A4F
330
B60
100
AcDbEntity
  8
sunpo
 62
     0
370
    20
100
AcDbMText
 10
792.2414515225623
 20
6611.70971362645
 30
0.0
 40
37.5
 41
0.0
 71
     5
 72
     1
  1
\A1;155
 73
     1
 44
1.0
1001
ACAD
1000
MTEXTBEGIN
1070
    73
1070
     1
1070
    44
1040
1.0
1070
    74
1070
     0
1000
MTEXTEND
  0
POINT
  5
1A50
330
B60
100
AcDbEntity
  8
DEFPOINTS
 62
     0
100
AcDbPoint
 10
714.7400662628224
 20
6396.174170265911
 30
0.0
  0
POINT
  5
1A51
330
B60
100
AcDbEntity
  8
DEFPOINTS
 62
     0
100
AcDbPoint
 10
869.7428367823022
 20
6376.277787341632
 30
0.0
  0
POINT
  5
1A52
330
B60
100
AcDbEntity
  8
DEFPOINTS
 62
     0
100
AcDbPoint
 10
869.7428367823022
 20
6583.58471362645
 30
0.0
  0
ENDBLK
  5
B6B
330
B60
100
AcDbEntity
  8
0
100
AcDbBlockEnd
  0
BLOCK
  5
B76
330
B6C
100
AcDbEntity
  8
0
100
AcDbBlockBegin
  2
*D156
 70
     1
 10
0.0
 20
0.0
 30
0.0
  3
*D156
  1

  0
LINE
  5
1A41
330
B6C
100
AcDbEntity
  8
sunpo
 62
     0
370
    -2
100
AcDbLine
 10
654.7400662628224
 20
5907.010945574124
 30
0.0
 11
654.7400662628224
 21
6092.872574344905
 31
0.0
  0
LINE
  5
1A42
330
B6C
100
AcDbEntity
  8
sunpo
 62
     0
370
    -2
100
AcDbLine
 10
1269.740066262821
 20
5917.010945574124
 30
0.0
 11
1269.740066262821
 21
6092.872574344905
 31
0.0
  0
LINE
  5
1A43
330
B6C
100
AcDbEntity
  8
sunpo
 62
     0
370
    -2
100
AcDbLine
 10
684.7400662628224
 20
6074.122574344904
 30
0.0
 11
1239.740066262821
 21
6074.122574344904
 31
0.0
  0
INSERT
  5
1A44
330
B6C
100
AcDbEntity
  8
sunpo
 62
     0
370
    -2
100
AcDbBlockReference
  2
_OPEN
 10
654.7400662628224
 20
6074.122574344904
 30
0.0
 41
30.0
 42
30.0
 43
30.0
 50
180.0
  0
INSERT
  5
1A45
330
B6C
100
AcDbEntity
  8
sunpo
 62
     0
370
    -2
100
AcDbBlockReference
  2
_OPEN
 10
1269.740066262821
 20
6074.122574344904
 30
0.0
 41
30.0
 42
30.0
 43
30.0
  0
MTEXT
  5
1A46
330
B6C
100
AcDbEntity
  8
sunpo
 62
     0
370
    20
100
AcDbMText
 10
962.2400662628219
 20
6102.247574344905
 30
0.0
 40
37.5
 41
0.0
 71
     5
 72
     1
  1
\A1;615
 73
     1
 44
1.0
1001
ACAD
1000
MTEXTBEGIN
1070
    73
1070
     1
1070
    44
1040
1.0
1070
    74
1070
     0
1000
MTEXTEND
  0
POINT
  5
1A47
330
B6C
100
AcDbEntity
  8
DEFPOINTS
 62
     0
100
AcDbPoint
 10
654.7400662628224
 20
5869.510945574123
 30
0.0
  0
POINT
  5
1A48
330
B6C
100
AcDbEntity
  8
DEFPOINTS
 62
     0
100
AcDbPoint
 10
1269.740066262821
 20
5879.510945574124
 30
0.0
  0
POINT
  5
1A49
330
B6C
100
AcDbEntity
  8
DEFPOINTS
 62
     0
100
AcDbPoint
 10
1269.740066262821
 20
6074.122574344904
 30
0.0
  0
ENDBLK
  5
B77
330
B6C
100
AcDbEntity
  8
0
100
AcDbBlockEnd
  0
BLOCK
  5
B82
330
B78
100
AcDbEntity
  8
0
100
AcDbBlockBegin
  2
*D157
 70
     1
 10
0.0
 20
0.0
 30
0.0
  3
*D157
  1

  0
LINE
  5
D64
330
B78
100
AcDbEntity
  8
sunpo
 62
     0
370
    -2
100
AcDbLine
 10
566.4164059052345
 20
1579.739645493559
 30
0.0
 11
493.3361633222302
 21
1579.739645493559
 31
0.0
  0
LINE
  5
D65
330
B78
100
AcDbEntity
  8
sunpo
 62
     0
370
    -2
100
AcDbLine
 10
566.4164059052345
 20
1459.739645493559
 30
0.0
 11
493.3361633222302
 21
1459.739645493559
 31
0.0
  0
LINE
  5
D66
330
B78
100
AcDbEntity
  8
sunpo
 62
     0
370
    -2
100
AcDbLine
 10
512.0861633222302
 20
1549.739645493558
 30
0.0
 11
512.0861633222302
 21
1489.739645493559
 31
0.0
  0
INSERT
  5
D67
330
B78
100
AcDbEntity
  8
sunpo
 62
     0
370
    -2
100
AcDbBlockReference
  2
_OPEN
 10
512.0861633222302
 20
1579.739645493559
 30
0.0
 41
30.0
 42
30.0
 43
30.0
 50
90.0
  0
INSERT
  5
D68
330
B78
100
AcDbEntity
  8
sunpo
 62
     0
370
    -2
100
AcDbBlockReference
  2
_OPEN
 10
512.0861633222302
 20
1459.739645493559
 30
0.0
 41
30.0
 42
30.0
 43
30.0
 50
270.0
  0
MTEXT
  5
D69
330
B78
100
AcDbEntity
  8
sunpo
 62
     0
370
    20
100
AcDbMText
 10
483.96116332223
 20
1519.739645493559
 30
0.0
 40
37.5
 41
0.0
 71
     5
 72
     1
  1
\A1;120
 11
0.0000000000000001
 21
1.0
 31
0.0
 73
     1
 44
1.0
1001
ACAD
1000
MTEXTBEGIN
1070
    73
1070
     1
1070
    44
1040
1.0
1070
    74
1070
     0
1000
MTEXTEND
  0
POINT
  5
D6A
330
B78
100
AcDbEntity
  8
DEFPOINTS
 62
     0
100
AcDbPoint
 10
603.9164059052345
 20
1579.739645493559
 30
0.0
  0
POINT
  5
D6B
330
B78
100
AcDbEntity
  8
DEFPOINTS
 62
     0
100
AcDbPoint
 10
603.9164059052345
 20
1459.739645493559
 30
0.0
  0
POINT
  5
D6C
330
B78
100
AcDbEntity
  8
DEFPOINTS
 62
     0
100
AcDbPoint
 10
512.0861633222302
 20
1459.739645493559
 30
0.0
  0
ENDBLK
  5
B83
330
B78
100
AcDbEntity
  8
0
100
AcDbBlockEnd
  0
BLOCK
  5
B8E
330
B84
100
AcDbEntity
  8
0
100
AcDbBlockBegin
  2
*D158
 70
     1
 10
0.0
 20
0.0
 30
0.0
  3
*D158
  1

  0
LINE
  5
D6D
330
B84
100
AcDbEntity
  8
sunpo
 62
     0
370
    -2
100
AcDbLine
 10
603.9164059052345
 20
1667.239645493558
 30
0.0
 11
603.9164059052345
 21
1909.552807176431
 31
0.0
  0
LINE
  5
D6E
330
B84
100
AcDbEntity
  8
sunpo
 62
     0
370
    -2
100
AcDbLine
 10
1218.916405905234
 20
1647.239645493559
 30
0.0
 11
1218.916405905234
 21
1909.552807176431
 31
0.0
  0
LINE
  5
D6F
330
B84
100
AcDbEntity
  8
sunpo
 62
     0
370
    -2
100
AcDbLine
 10
633.9164059052345
 20
1890.802807176431
 30
0.0
 11
1188.916405905234
 21
1890.802807176431
 31
0.0
  0
INSERT
  5
D70
330
B84
100
AcDbEntity
  8
sunpo
 62
     0
370
    -2
100
AcDbBlockReference
  2
_OPEN
 10
603.9164059052345
 20
1890.802807176431
 30
0.0
 41
30.0
 42
30.0
 43
30.0
 50
180.0
  0
INSERT
  5
D71
330
B84
100
AcDbEntity
  8
sunpo
 62
     0
370
    -2
100
AcDbBlockReference
  2
_OPEN
 10
1218.916405905234
 20
1890.802807176431
 30
0.0
 41
30.0
 42
30.0
 43
30.0
  0
MTEXT
  5
D72
330
B84
100
AcDbEntity
  8
sunpo
 62
     0
370
    20
100
AcDbMText
 10
911.4164059052345
 20
1918.927807176431
 30
0.0
 40
37.5
 41
0.0
 71
     5
 72
     1
  1
\A1;615
 73
     1
 44
1.0
1001
ACAD
1000
MTEXTBEGIN
1070
    73
1070
     1
1070
    44
1040
1.0
1070
    74
1070
     0
1000
MTEXTEND
  0
POINT
  5
D73
330
B84
100
AcDbEntity
  8
DEFPOINTS
 62
     0
100
AcDbPoint
 10
603.9164059052345
 20
1629.739645493559
 30
0.0
  0
POINT
  5
D74
330
B84
100
AcDbEntity
  8
DEFPOINTS
 62
     0
100
AcDbPoint
 10
1218.916405905234
 20
1609.739645493559
 30
0.0
  0
POINT
  5
D75
330
B84
100
AcDbEntity
  8
DEFPOINTS
 62
     0
100
AcDbPoint
 10
1218.916405905234
 20
1890.802807176431
 30
0.0
  0
ENDBLK
  5
B8F
330
B84
100
AcDbEntity
  8
0
100
AcDbBlockEnd
  0
BLOCK
  5
B9A
330
B90
100
AcDbEntity
  8
0
100
AcDbBlockBegin
  2
*D159
 70
     1
 10
0.0
 20
0.0
 30
0.0
  3
*D159
  1

  0
LINE
  5
D76
330
B90
100
AcDbEntity
  8
sunpo
 62
     0
370
    -2
100
AcDbLine
 10
1256.416405905234
 20
1609.739645493559
 30
0.0
 11
1420.83616332223
 21
1609.739645493559
 31
0.0
  0
LINE
  5
D77
330
B90
100
AcDbEntity
  8
sunpo
 62
     0
370
    -2
100
AcDbLine
 10
1256.416405905234
 20
1459.739645493559
 30
0.0
 11
1420.83616332223
 21
1459.739645493559
 31
0.0
  0
LINE
  5
D78
330
B90
100
AcDbEntity
  8
sunpo
 62
     0
370
    -2
100
AcDbLine
 10
1402.08616332223
 20
1579.739645493559
 30
0.0
 11
1402.08616332223
 21
1489.739645493559
 31
0.0
  0
INSERT
  5
D79
330
B90
100
AcDbEntity
  8
sunpo
 62
     0
370
    -2
100
AcDbBlockReference
  2
_OPEN
 10
1402.08616332223
 20
1609.739645493559
 30
0.0
 41
30.0
 42
30.0
 43
30.0
 50
90.0
  0
INSERT
  5
D7A
330
B90
100
AcDbEntity
  8
sunpo
 62
     0
370
    -2
100
AcDbBlockReference
  2
_OPEN
 10
1402.08616332223
 20
1459.739645493559
 30
0.0
 41
30.0
 42
30.0
 43
30.0
 50
270.0
  0
MTEXT
  5
D7B
330
B90
100
AcDbEntity
  8
sunpo
 62
     0
370
    20
100
AcDbMText
 10
1373.96116332223
 20
1534.739645493559
 30
0.0
 40
37.5
 41
0.0
 71
     5
 72
     1
  1
\A1;150
 11
0.0000000000000001
 21
1.0
 31
0.0
 73
     1
 44
1.0
1001
ACAD
1000
MTEXTBEGIN
1070
    73
1070
     1
1070
    44
1040
1.0
1070
    74
1070
     0
1000
MTEXTEND
  0
POINT
  5
D7C
330
B90
100
AcDbEntity
  8
DEFPOINTS
 62
     0
100
AcDbPoint
 10
1218.916405905234
 20
1609.739645493559
 30
0.0
  0
POINT
  5
D7D
330
B90
100
AcDbEntity
  8
DEFPOINTS
 62
     0
100
AcDbPoint
 10
1218.916405905234
 20
1459.739645493559
 30
0.0
  0
POINT
  5
D7E
330
B90
100
AcDbEntity
  8
DEFPOINTS
 62
     0
100
AcDbPoint
 10
1402.08616332223
 20
1459.739645493559
 30
0.0
  0
ENDBLK
  5
B9B
330
B90
100
AcDbEntity
  8
0
100
AcDbBlockEnd
  0
BLOCK
  5
BA6
330
B9C
100
AcDbEntity
  8
0
100
AcDbBlockBegin
  2
*D160
 70
     1
 10
0.0
 20
0.0
 30
0.0
  3
*D160
  1

  0
LINE
  5
D7F
330
B9C
100
AcDbEntity
  8
sunpo
 62
     0
370
    -2
100
AcDbLine
 10
818.9164059052345
 20
1618.316040762198
 30
0.0
 11
818.9164059052345
 21
1745.037807176431
 31
0.0
  0
LINE
  5
D80
330
B9C
100
AcDbEntity
  8
sunpo
 62
     0
370
    -2
100
AcDbLine
 10
1218.916405905234
 20
1647.239645493559
 30
0.0
 11
1218.916405905234
 21
1745.037807176431
 31
0.0
  0
LINE
  5
D81
330
B9C
100
AcDbEntity
  8
sunpo
 62
     0
370
    -2
100
AcDbLine
 10
848.9164059052345
 20
1726.287807176431
 30
0.0
 11
1188.916405905234
 21
1726.287807176431
 31
0.0
  0
INSERT
  5
D82
330
B9C
100
AcDbEntity
  8
sunpo
 62
     0
370
    -2
100
AcDbBlockReference
  2
_OPEN
 10
818.9164059052345
 20
1726.287807176431
 30
0.0
 41
30.0
 42
30.0
 43
30.0
 50
180.0
  0
INSERT
  5
D83
330
B9C
100
AcDbEntity
  8
sunpo
 62
     0
370
    -2
100
AcDbBlockReference
  2
_OPEN
 10
1218.916405905234
 20
1726.287807176431
 30
0.0
 41
30.0
 42
30.0
 43
30.0
  0
MTEXT
  5
D84
330
B9C
100
AcDbEntity
  8
sunpo
 62
     0
370
    20
100
AcDbMText
 10
1018.916405905234
 20
1754.412807176431
 30
0.0
 40
37.5
 41
0.0
 71
     5
 72
     1
  1
\A1;400
 73
     1
 44
1.0
1001
ACAD
1000
MTEXTBEGIN
1070
    73
1070
     1
1070
    44
1040
1.0
1070
    74
1070
     0
1000
MTEXTEND
  0
POINT
  5
D85
330
B9C
100
AcDbEntity
  8
DEFPOINTS
 62
     0
100
AcDbPoint
 10
818.9164059052345
 20
1580.816040762198
 30
0.0
  0
POINT
  5
D86
330
B9C
100
AcDbEntity
  8
DEFPOINTS
 62
     0
100
AcDbPoint
 10
1218.916405905234
 20
1609.739645493559
 30
0.0
  0
POINT
  5
D87
330
B9C
100
AcDbEntity
  8
DEFPOINTS
 62
     0
100
AcDbPoint
 10
1218.916405905234
 20
1726.287807176431
 30
0.0
  0
ENDBLK
  5
BA7
330
B9C
100
AcDbEntity
  8
0
100
AcDbBlockEnd
  0
BLOCK
  5
BB2
330
BA8
100
AcDbEntity
  8
0
100
AcDbBlockBegin
  2
*D161
 70
     1
 10
0.0
 20
0.0
 30
0.0
  3
*D161
  1

  0
LINE
  5
D88
330
BA8
100
AcDbEntity
  8
sunpo
 62
     0
370
    -2
100
AcDbLine
 10
566.4164059052345
 20
1629.739645493559
 30
0.0
 11
407.3361633222303
 21
1629.739645493559
 31
0.0
  0
LINE
  5
D89
330
BA8
100
AcDbEntity
  8
sunpo
 62
     0
370
    -2
100
AcDbLine
 10
566.4164059052345
 20
1459.739645493559
 30
0.0
 11
407.3361633222303
 21
1459.739645493559
 31
0.0
  0
LINE
  5
D8A
330
BA8
100
AcDbEntity
  8
sunpo
 62
     0
370
    -2
100
AcDbLine
 10
426.0861633222303
 20
1599.739645493559
 30
0.0
 11
426.0861633222303
 21
1489.739645493559
 31
0.0
  0
INSERT
  5
D8B
330
BA8
100
AcDbEntity
  8
sunpo
 62
     0
370
    -2
100
AcDbBlockReference
  2
_OPEN
 10
426.0861633222303
 20
1629.739645493559
 30
0.0
 41
30.0
 42
30.0
 43
30.0
 50
90.0
  0
INSERT
  5
D8C
330
BA8
100
AcDbEntity
  8
sunpo
 62
     0
370
    -2
100
AcDbBlockReference
  2
_OPEN
 10
426.0861633222303
 20
1459.739645493559
 30
0.0
 41
30.0
 42
30.0
 43
30.0
 50
270.0
  0
MTEXT
  5
D8D
330
BA8
100
AcDbEntity
  8
sunpo
 62
     0
370
    20
100
AcDbMText
 10
397.9611633222301
 20
1544.739645493559
 30
0.0
 40
37.5
 41
0.0
 71
     5
 72
     1
  1
\A1;170
 11
0.0000000000000001
 21
1.0
 31
0.0
 73
     1
 44
1.0
1001
ACAD
1000
MTEXTBEGIN
1070
    73
1070
     1
1070
    44
1040
1.0
1070
    74
1070
     0
1000
MTEXTEND
  0
POINT
  5
D8E
330
BA8
100
AcDbEntity
  8
DEFPOINTS
 62
     0
100
AcDbPoint
 10
603.9164059052345
 20
1629.739645493559
 30
0.0
  0
POINT
  5
D8F
330
BA8
100
AcDbEntity
  8
DEFPOINTS
 62
     0
100
AcDbPoint
 10
603.9164059052345
 20
1459.739645493559
 30
0.0
  0
POINT
  5
D90
330
BA8
100
AcDbEntity
  8
DEFPOINTS
 62
     0
100
AcDbPoint
 10
426.0861633222303
 20
1459.739645493559
 30
0.0
  0
ENDBLK
  5
BB3
330
BA8
100
AcDbEntity
  8
0
100
AcDbBlockEnd
  0
BLOCK
  5
BBE
330
BB4
100
AcDbEntity
  8
0
100
AcDbBlockBegin
  2
*D162
 70
     1
 10
0.0
 20
0.0
 30
0.0
  3
*D162
  1

  0
LINE
  5
D91
330
BB4
100
AcDbEntity
  8
sunpo
 62
     0
370
    -2
100
AcDbLine
 10
1752.793710492042
 20
1667.239645493558
 30
0.0
 11
1752.793710492042
 21
1878.802807176431
 31
0.0
  0
LINE
  5
D92
330
BB4
100
AcDbEntity
  8
sunpo
 62
     0
370
    -2
100
AcDbLine
 10
2352.793710492042
 20
1667.239645493558
 30
0.0
 11
2352.793710492042
 21
1878.802807176431
 31
0.0
  0
LINE
  5
D93
330
BB4
100
AcDbEntity
  8
sunpo
 62
     0
370
    -2
100
AcDbLine
 10
1782.793710492042
 20
1860.052807176431
 30
0.0
 11
2322.793710492042
 21
1860.052807176431
 31
0.0
  0
INSERT
  5
D94
330
BB4
100
AcDbEntity
  8
sunpo
 62
     0
370
    -2
100
AcDbBlockReference
  2
_OPEN
 10
1752.793710492042
 20
1860.052807176431
 30
0.0
 41
30.0
 42
30.0
 43
30.0
 50
180.0
  0
INSERT
  5
D95
330
BB4
100
AcDbEntity
  8
sunpo
 62
     0
370
    -2
100
AcDbBlockReference
  2
_OPEN
 10
2352.793710492042
 20
1860.052807176431
 30
0.0
 41
30.0
 42
30.0
 43
30.0
  0
MTEXT
  5
D96
330
BB4
100
AcDbEntity
  8
sunpo
 62
     0
370
    20
100
AcDbMText
 10
2052.793710492042
 20
1888.177807176431
 30
0.0
 40
37.5
 41
0.0
 71
     5
 72
     1
  1
\A1;600
 73
     1
 44
1.0
1001
ACAD
1000
MTEXTBEGIN
1070
    73
1070
     1
1070
    44
1040
1.0
1070
    74
1070
     0
1000
MTEXTEND
  0
POINT
  5
D97
330
BB4
100
AcDbEntity
  8
DEFPOINTS
 62
     0
100
AcDbPoint
 10
1752.793710492042
 20
1629.739645493559
 30
0.0
  0
POINT
  5
D98
330
BB4
100
AcDbEntity
  8
DEFPOINTS
 62
     0
100
AcDbPoint
 10
2352.793710492042
 20
1629.739645493559
 30
0.0
  0
POINT
  5
D99
330
BB4
100
AcDbEntity
  8
DEFPOINTS
 62
     0
100
AcDbPoint
 10
2352.793710492042
 20
1860.052807176431
 30
0.0
  0
ENDBLK
  5
BBF
330
BB4
100
AcDbEntity
  8
0
100
AcDbBlockEnd
  0
BLOCK
  5
BCA
330
BC0
100
AcDbEntity
  8
0
100
AcDbBlockBegin
  2
*D163
 70
     1
 10
0.0
 20
0.0
 30
0.0
  3
*D163
  1

  0
LINE
  5
D9A
330
BC0
100
AcDbEntity
  8
sunpo
 62
     0
370
    -2
100
AcDbLine
 10
566.4164059052327
 20
1083.076420801772
 30
0.0
 11
409.0636802311402
 21
1083.076420801772
 31
0.0
  0
LINE
  5
D9B
330
BC0
100
AcDbEntity
  8
sunpo
 62
     0
370
    -2
100
AcDbLine
 10
566.4164059052327
 20
483.0764208017699
 30
0.0
 11
409.0636802311401
 21
483.0764208017699
 31
0.0
  0
LINE
  5
D9C
330
BC0
100
AcDbEntity
  8
sunpo
 62
     0
370
    -2
100
AcDbLine
 10
427.8136802311402
 20
1053.076420801772
 30
0.0
 11
427.8136802311401
 21
513.0764208017699
 31
0.0
  0
INSERT
  5
D9D
330
BC0
100
AcDbEntity
  8
sunpo
 62
     0
370
    -2
100
AcDbBlockReference
  2
_OPEN
 10
427.8136802311402
 20
1083.076420801772
 30
0.0
 41
30.0
 42
30.0
 43
30.0
 50
90.0
  0
INSERT
  5
D9E
330
BC0
100
AcDbEntity
  8
sunpo
 62
     0
370
    -2
100
AcDbBlockReference
  2
_OPEN
 10
427.8136802311401
 20
483.0764208017699
 30
0.0
 41
30.0
 42
30.0
 43
30.0
 50
270.0
  0
MTEXT
  5
D9F
330
BC0
100
AcDbEntity
  8
sunpo
 62
     0
370
    20
100
AcDbMText
 10
399.68868023114
 20
783.076420801771
 30
0.0
 40
37.5
 41
0.0
 71
     5
 72
     1
  1
\A1;600
 11
0.0000000000000001
 21
1.0
 31
0.0
 73
     1
 44
1.0
1001
ACAD
1000
MTEXTBEGIN
1070
    73
1070
     1
1070
    44
1040
1.0
1070
    74
1070
     0
1000
MTEXTEND
  0
POINT
  5
DA0
330
BC0
100
AcDbEntity
  8
DEFPOINTS
 62
     0
100
AcDbPoint
 10
603.9164059052327
 20
1083.076420801772
 30
0.0
  0
POINT
  5
DA1
330
BC0
100
AcDbEntity
  8
DEFPOINTS
 62
     0
100
AcDbPoint
 10
603.9164059052327
 20
483.0764208017699
 30
0.0
  0
POINT
  5
DA2
330
BC0
100
AcDbEntity
  8
DEFPOINTS
 62
     0
100
AcDbPoint
 10
427.8136802311401
 20
483.0764208017699
 30
0.0
  0
ENDBLK
  5
BCB
330
BC0
100
AcDbEntity
  8
0
100
AcDbBlockEnd
  0
BLOCK
  5
BD7
330
BCC
100
AcDbEntity
  8
0
100
AcDbBlockBegin
  2
*D164
 70
     1
 10
0.0
 20
0.0
 30
0.0
  3
*D164
  1

  0
LINE
  5
DA3
330
BCC
100
AcDbEntity
  8
sunpo
 62
     0
370
    -2
100
AcDbLine
 10
603.9164059052345
 20
1667.239645493558
 30
0.0
 11
603.9164059052345
 21
1745.037807176431
 31
0.0
  0
LINE
  5
DA4
330
BCC
100
AcDbEntity
  8
sunpo
 62
     0
370
    -2
100
AcDbLine
 10
663.9164059052346
 20
1667.239645493558
 30
0.0
 11
663.9164059052346
 21
1745.037807176431
 31
0.0
  0
LINE
  5
DA5
330
BCC
100
AcDbEntity
  8
sunpo
 62
     0
370
    -2
100
AcDbLine
 10
573.9164059052345
 20
1726.287807176431
 30
0.0
 11
543.9164059052346
 21
1726.287807176431
 31
0.0
  0
LINE
  5
DA6
330
BCC
100
AcDbEntity
  8
sunpo
 62
     0
370
    -2
100
AcDbLine
 10
693.9164059052346
 20
1726.287807176431
 30
0.0
 11
723.9164059052345
 21
1726.287807176431
 31
0.0
  0
MTEXT
  5
DA7
330
BCC
100
AcDbEntity
  8
sunpo
 62
     0
370
    20
100
AcDbMText
 10
633.9164059052345
 20
1777.850307176431
 30
0.0
 40
37.5
 41
0.0
 71
     5
 72
     1
  1
\A1;60
 73
     1
 44
1.0
1001
ACAD
1000
MTEXTBEGIN
1070
    73
1070
     1
1070
    44
1040
1.0
1070
    74
1070
     0
1000
MTEXTEND
  0
INSERT
  5
DA8
330
BCC
100
AcDbEntity
  8
sunpo
 62
     0
370
    -2
100
AcDbBlockReference
  2
_OPEN
 10
603.9164059052345
 20
1726.287807176431
 30
0.0
 41
30.0
 42
30.0
 43
30.0
  0
INSERT
  5
DA9
330
BCC
100
AcDbEntity
  8
sunpo
 62
     0
370
    -2
100
AcDbBlockReference
  2
_OPEN
 10
663.9164059052346
 20
1726.287807176431
 30
0.0
 41
30.0
 42
30.0
 43
30.0
 50
180.0
  0
POINT
  5
DAA
330
BCC
100
AcDbEntity
  8
DEFPOINTS
 62
     0
100
AcDbPoint
 10
603.9164059052345
 20
1629.739645493559
 30
0.0
  0
POINT
  5
DAB
330
BCC
100
AcDbEntity
  8
DEFPOINTS
 62
     0
100
AcDbPoint
 10
663.9164059052346
 20
1629.739645493559
 30
0.0
  0
POINT
  5
DAC
330
BCC
100
AcDbEntity
  8
DEFPOINTS
 62
     0
100
AcDbPoint
 10
663.9164059052346
 20
1726.287807176431
 30
0.0
  0
ENDBLK
  5
BD8
330
BCC
100
AcDbEntity
  8
0
100
AcDbBlockEnd
  0
BLOCK
  5
BE3
330
BD9
100
AcDbEntity
  8
0
100
AcDbBlockBegin
  2
*D165
 70
     1
 10
0.0
 20
0.0
 30
0.0
  3
*D165
  1

  0
LINE
  5
DAD
330
BD9
100
AcDbEntity
  8
sunpo
 62
     0
370
    -2
100
AcDbLine
 10
663.9164059052346
 20
1667.239645493558
 30
0.0
 11
663.9164059052346
 21
1745.037807176431
 31
0.0
  0
LINE
  5
DAE
330
BD9
100
AcDbEntity
  8
sunpo
 62
     0
370
    -2
100
AcDbLine
 10
798.9164059052345
 20
1636.285976800838
 30
0.0
 11
798.9164059052345
 21
1745.037807176431
 31
0.0
  0
LINE
  5
DAF
330
BD9
100
AcDbEntity
  8
sunpo
 62
     0
370
    -2
100
AcDbLine
 10
693.9164059052346
 20
1726.287807176431
 30
0.0
 11
768.9164059052346
 21
1726.287807176431
 31
0.0
  0
INSERT
  5
DB0
330
BD9
100
AcDbEntity
  8
sunpo
 62
     0
370
    -2
100
AcDbBlockReference
  2
_OPEN
 10
663.9164059052346
 20
1726.287807176431
 30
0.0
 41
30.0
 42
30.0
 43
30.0
 50
180.0
  0
INSERT
  5
DB1
330
BD9
100
AcDbEntity
  8
sunpo
 62
     0
370
    -2
100
AcDbBlockReference
  2
_OPEN
 10
798.9164059052345
 20
1726.287807176431
 30
0.0
 41
30.0
 42
30.0
 43
30.0
  0
MTEXT
  5
DB2
330
BD9
100
AcDbEntity
  8
sunpo
 62
     0
370
    20
100
AcDbMText
 10
731.4164059052346
 20
1754.412807176431
 30
0.0
 40
37.5
 41
0.0
 71
     5
 72
     1
  1
\A1;135
 73
     1
 44
1.0
1001
ACAD
1000
MTEXTBEGIN
1070
    73
1070
     1
1070
    44
1040
1.0
1070
    74
1070
     0
1000
MTEXTEND
  0
POINT
  5
DB3
330
BD9
100
AcDbEntity
  8
DEFPOINTS
 62
     0
100
AcDbPoint
 10
663.9164059052346
 20
1629.739645493559
 30
0.0
  0
POINT
  5
DB4
330
BD9
100
AcDbEntity
  8
DEFPOINTS
 62
     0
100
AcDbPoint
 10
798.9164059052345
 20
1598.785976800838
 30
0.0
  0
POINT
  5
DB5
330
BD9
100
AcDbEntity
  8
DEFPOINTS
 62
     0
100
AcDbPoint
 10
798.9164059052345
 20
1726.287807176431
 30
0.0
  0
ENDBLK
  5
BE4
330
BD9
100
AcDbEntity
  8
0
100
AcDbBlockEnd
  0
BLOCK
  5
BF0
330
BE5
100
AcDbEntity
  8
0
100
AcDbBlockBegin
  2
*D166
 70
     1
 10
0.0
 20
0.0
 30
0.0
  3
*D166
  1

  0
LINE
  5
DB6
330
BE5
100
AcDbEntity
  8
sunpo
 62
     0
370
    -2
100
AcDbLine
 10
798.9164059052345
 20
1636.285976800838
 30
0.0
 11
798.9164059052345
 21
1745.037807176431
 31
0.0
  0
LINE
  5
DB7
330
BE5
100
AcDbEntity
  8
sunpo
 62
     0
370
    -2
100
AcDbLine
 10
818.9164059052345
 20
1618.316040762198
 30
0.0
 11
818.9164059052345
 21
1745.037807176431
 31
0.0
  0
LINE
  5
DB8
330
BE5
100
AcDbEntity
  8
sunpo
 62
     0
370
    -2
100
AcDbLine
 10
768.9164059052346
 20
1726.287807176431
 30
0.0
 11
738.9164059052346
 21
1726.287807176431
 31
0.0
  0
LINE
  5
DB9
330
BE5
100
AcDbEntity
  8
sunpo
 62
     0
370
    -2
100
AcDbLine
 10
848.9164059052345
 20
1726.287807176431
 30
0.0
 11
878.9164059052346
 21
1726.287807176431
 31
0.0
  0
MTEXT
  5
DBA
330
BE5
100
AcDbEntity
  8
sunpo
 62
     0
370
    20
100
AcDbMText
 10
808.9164059052345
 20
1777.850307176431
 30
0.0
 40
37.5
 41
0.0
 71
     5
 72
     1
  1
\A1;20
 73
     1
 44
1.0
1001
ACAD
1000
MTEXTBEGIN
1070
    73
1070
     1
1070
    44
1040
1.0
1070
    74
1070
     0
1000
MTEXTEND
  0
INSERT
  5
DBB
330
BE5
100
AcDbEntity
  8
sunpo
 62
     0
370
    -2
100
AcDbBlockReference
  2
_OPEN
 10
798.9164059052345
 20
1726.287807176431
 30
0.0
 41
30.0
 42
30.0
 43
30.0
  0
INSERT
  5
DBC
330
BE5
100
AcDbEntity
  8
sunpo
 62
     0
370
    -2
100
AcDbBlockReference
  2
_OPEN
 10
818.9164059052345
 20
1726.287807176431
 30
0.0
 41
30.0
 42
30.0
 43
30.0
 50
180.0
  0
POINT
  5
DBD
330
BE5
100
AcDbEntity
  8
DEFPOINTS
 62
     0
100
AcDbPoint
 10
798.9164059052345
 20
1598.785976800838
 30
0.0
  0
POINT
  5
DBE
330
BE5
100
AcDbEntity
  8
DEFPOINTS
 62
     0
100
AcDbPoint
 10
818.9164059052345
 20
1580.816040762198
 30
0.0
  0
POINT
  5
DBF
330
BE5
100
AcDbEntity
  8
DEFPOINTS
 62
     0
100
AcDbPoint
 10
818.9164059052345
 20
1726.287807176431
 30
0.0
  0
ENDBLK
  5
BF1
330
BE5
100
AcDbEntity
  8
0
100
AcDbBlockEnd
  0
BLOCK
  5
BFC
330
BF2
100
AcDbEntity
  8
0
100
AcDbBlockBegin
  2
*D167
 70
     1
 10
0.0
 20
0.0
 30
0.0
  3
*D167
  1

  0
LINE
  5
DC0
330
BF2
100
AcDbEntity
  8
sunpo
 62
     0
370
    -2
100
AcDbLine
 10
1715.293710492042
 20
1459.739645493559
 30
0.0
 11
1623.218142245598
 21
1459.739645493559
 31
0.0
  0
LINE
  5
DC1
330
BF2
100
AcDbEntity
  8
sunpo
 62
     0
370
    -2
100
AcDbLine
 10
1715.293710492042
 20
1609.739645493559
 30
0.0
 11
1623.218142245598
 21
1609.739645493559
 31
0.0
  0
LINE
  5
DC2
330
BF2
100
AcDbEntity
  8
sunpo
 62
     0
370
    -2
100
AcDbLine
 10
1641.968142245598
 20
1489.739645493559
 30
0.0
 11
1641.968142245598
 21
1579.739645493559
 31
0.0
  0
INSERT
  5
DC3
330
BF2
100
AcDbEntity
  8
sunpo
 62
     0
370
    -2
100
AcDbBlockReference
  2
_OPEN
 10
1641.968142245598
 20
1459.739645493559
 30
0.0
 41
30.0
 42
30.0
 43
30.0
 50
270.0
  0
INSERT
  5
DC4
330
BF2
100
AcDbEntity
  8
sunpo
 62
     0
370
    -2
100
AcDbBlockReference
  2
_OPEN
 10
1641.968142245598
 20
1609.739645493559
 30
0.0
 41
30.0
 42
30.0
 43
30.0
 50
90.0
  0
MTEXT
  5
DC5
330
BF2
100
AcDbEntity
  8
sunpo
 62
     0
370
    20
100
AcDbMText
 10
1613.843142245597
 20
1534.739645493559
 30
0.0
 40
37.5
 41
0.0
 71
     5
 72
     1
  1
\A1;150
 11
0.0000000000000001
 21
1.0
 31
0.0
 73
     1
 44
1.0
1001
ACAD
1000
MTEXTBEGIN
1070
    73
1070
     1
1070
    44
1040
1.0
1070
    74
1070
     0
1000
MTEXTEND
  0
POINT
  5
DC6
330
BF2
100
AcDbEntity
  8
DEFPOINTS
 62
     0
100
AcDbPoint
 10
1752.793710492042
 20
1459.739645493559
 30
0.0
  0
POINT
  5
DC7
330
BF2
100
AcDbEntity
  8
DEFPOINTS
 62
     0
100
AcDbPoint
 10
1752.793710492042
 20
1609.739645493559
 30
0.0
  0
POINT
  5
DC8
330
BF2
100
AcDbEntity
  8
DEFPOINTS
 62
     0
100
AcDbPoint
 10
1641.968142245598
 20
1609.739645493559
 30
0.0
  0
ENDBLK
  5
BFD
330
BF2
100
AcDbEntity
  8
0
100
AcDbBlockEnd
  0
BLOCK
  5
C08
330
BFE
100
AcDbEntity
  8
0
100
AcDbBlockBegin
  2
*D168
 70
     1
 10
0.0
 20
0.0
 30
0.0
  3
*D168
  1

  0
LINE
  5
DC9
330
BFE
100
AcDbEntity
  8
sunpo
 62
     0
370
    -2
100
AcDbLine
 10
1715.293710492042
 20
1459.739645493559
 30
0.0
 11
1553.593763213859
 21
1459.739645493559
 31
0.0
  0
LINE
  5
DCA
330
BFE
100
AcDbEntity
  8
sunpo
 62
     0
370
    -2
100
AcDbLine
 10
1715.293710492042
 20
1629.739645493559
 30
0.0
 11
1553.593763213859
 21
1629.739645493559
 31
0.0
  0
LINE
  5
DCB
330
BFE
100
AcDbEntity
  8
sunpo
 62
     0
370
    -2
100
AcDbLine
 10
1572.343763213859
 20
1489.739645493559
 30
0.0
 11
1572.343763213859
 21
1599.739645493559
 31
0.0
  0
INSERT
  5
DCC
330
BFE
100
AcDbEntity
  8
sunpo
 62
     0
370
    -2
100
AcDbBlockReference
  2
_OPEN
 10
1572.343763213859
 20
1459.739645493559
 30
0.0
 41
30.0
 42
30.0
 43
30.0
 50
270.0
  0
INSERT
  5
DCD
330
BFE
100
AcDbEntity
  8
sunpo
 62
     0
370
    -2
100
AcDbBlockReference
  2
_OPEN
 10
1572.343763213859
 20
1629.739645493559
 30
0.0
 41
30.0
 42
30.0
 43
30.0
 50
90.0
  0
MTEXT
  5
DCE
330
BFE
100
AcDbEntity
  8
sunpo
 62
     0
370
    20
100
AcDbMText
 10
1544.218763213859
 20
1544.739645493559
 30
0.0
 40
37.5
 41
0.0
 71
     5
 72
     1
  1
\A1;170
 11
0.0000000000000001
 21
1.0
 31
0.0
 73
     1
 44
1.0
1001
ACAD
1000
MTEXTBEGIN
1070
    73
1070
     1
1070
    44
1040
1.0
1070
    74
1070
     0
1000
MTEXTEND
  0
POINT
  5
DCF
330
BFE
100
AcDbEntity
  8
DEFPOINTS
 62
     0
100
AcDbPoint
 10
1752.793710492042
 20
1459.739645493559
 30
0.0
  0
POINT
  5
DD0
330
BFE
100
AcDbEntity
  8
DEFPOINTS
 62
     0
100
AcDbPoint
 10
1752.793710492042
 20
1629.739645493559
 30
0.0
  0
POINT
  5
DD1
330
BFE
100
AcDbEntity
  8
DEFPOINTS
 62
     0
100
AcDbPoint
 10
1572.343763213859
 20
1629.739645493559
 30
0.0
  0
ENDBLK
  5
C09
330
BFE
100
AcDbEntity
  8
0
100
AcDbBlockEnd
  0
BLOCK
  5
C14
330
C0A
100
AcDbEntity
  8
0
100
AcDbBlockBegin
  2
*D169
 70
     1
 10
0.0
 20
0.0
 30
0.0
  3
*D169
  1

  0
LINE
  5
1A38
330
C0A
100
AcDbEntity
  8
sunpo
 62
     0
370
    -2
100
AcDbLine
 10
1761.796904796376
 20
6406.17417026591
 30
0.0
 11
1570.888033325069
 21
6406.17417026591
 31
0.0
  0
LINE
  5
1A39
330
C0A
100
AcDbEntity
  8
sunpo
 62
     0
370
    -2
100
AcDbLine
 10
1761.796904796376
 20
6256.174170265911
 30
0.0
 11
1570.888033325069
 21
6256.174170265911
 31
0.0
  0
LINE
  5
1A3A
330
C0A
100
AcDbEntity
  8
sunpo
 62
     0
370
    -2
100
AcDbLine
 10
1589.638033325069
 20
6376.174170265911
 30
0.0
 11
1589.638033325069
 21
6286.174170265911
 31
0.0
  0
INSERT
  5
1A3B
330
C0A
100
AcDbEntity
  8
sunpo
 62
     0
370
    -2
100
AcDbBlockReference
  2
_OPEN
 10
1589.638033325069
 20
6406.17417026591
 30
0.0
 41
30.0
 42
30.0
 43
30.0
 50
90.0
  0
INSERT
  5
1A3C
330
C0A
100
AcDbEntity
  8
sunpo
 62
     0
370
    -2
100
AcDbBlockReference
  2
_OPEN
 10
1589.638033325069
 20
6256.174170265911
 30
0.0
 41
30.0
 42
30.0
 43
30.0
 50
270.0
  0
MTEXT
  5
1A3D
330
C0A
100
AcDbEntity
  8
sunpo
 62
     0
370
    20
100
AcDbMText
 10
1561.513033325068
 20
6331.174170265911
 30
0.0
 40
37.5
 41
0.0
 71
     5
 72
     1
  1
\A1;150
 11
0.0000000000000001
 21
1.0
 31
0.0
 73
     1
 44
1.0
1001
ACAD
1000
MTEXTBEGIN
1070
    73
1070
     1
1070
    44
1040
1.0
1070
    74
1070
     0
1000
MTEXTEND
  0
POINT
  5
1A3E
330
C0A
100
AcDbEntity
  8
DEFPOINTS
 62
     0
100
AcDbPoint
 10
1799.296904796376
 20
6406.17417026591
 30
0.0
  0
POINT
  5
1A3F
330
C0A
100
AcDbEntity
  8
DEFPOINTS
 62
     0
100
AcDbPoint
 10
1799.296904796376
 20
6256.174170265911
 30
0.0
  0
POINT
  5
1A40
330
C0A
100
AcDbEntity
  8
DEFPOINTS
 62
     0
100
AcDbPoint
 10
1589.638033325069
 20
6256.174170265911
 30
0.0
  0
ENDBLK
  5
C15
330
C0A
100
AcDbEntity
  8
0
100
AcDbBlockEnd
  0
BLOCK
  5
C20
330
C16
100
AcDbEntity
  8
0
100
AcDbBlockBegin
  2
*D170
 70
     1
 10
0.0
 20
0.0
 30
0.0
  3
*D170
  1

  0
LINE
  5
1A2F
330
C16
100
AcDbEntity
  8
sunpo
 62
     0
370
    -2
100
AcDbLine
 10
1761.796904796376
 20
6376.277787341632
 30
0.0
 11
1664.410770594086
 21
6376.277787341632
 31
0.0
  0
LINE
  5
1A30
330
C16
100
AcDbEntity
  8
sunpo
 62
     0
370
    -2
100
AcDbLine
 10
1761.796904796376
 20
6256.174170265911
 30
0.0
 11
1664.410770594086
 21
6256.174170265911
 31
0.0
  0
LINE
  5
1A31
330
C16
100
AcDbEntity
  8
sunpo
 62
     0
370
    -2
100
AcDbLine
 10
1683.160770594086
 20
6346.277787341633
 30
0.0
 11
1683.160770594086
 21
6286.174170265911
 31
0.0
  0
INSERT
  5
1A32
330
C16
100
AcDbEntity
  8
sunpo
 62
     0
370
    -2
100
AcDbBlockReference
  2
_OPEN
 10
1683.160770594086
 20
6376.277787341632
 30
0.0
 41
30.0
 42
30.0
 43
30.0
 50
90.0
  0
INSERT
  5
1A33
330
C16
100
AcDbEntity
  8
sunpo
 62
     0
370
    -2
100
AcDbBlockReference
  2
_OPEN
 10
1683.160770594086
 20
6256.174170265911
 30
0.0
 41
30.0
 42
30.0
 43
30.0
 50
270.0
  0
MTEXT
  5
1A34
330
C16
100
AcDbEntity
  8
sunpo
 62
     0
370
    20
100
AcDbMText
 10
1655.035770594085
 20
6316.225978803772
 30
0.0
 40
37.5
 41
0.0
 71
     5
 72
     1
  1
\A1;120
 11
0.0000000000000001
 21
1.0
 31
0.0
 73
     1
 44
1.0
1001
ACAD
1000
MTEXTBEGIN
1070
    73
1070
     1
1070
    44
1040
1.0
1070
    74
1070
     0
1000
MTEXTEND
  0
POINT
  5
1A35
330
C16
100
AcDbEntity
  8
DEFPOINTS
 62
     0
100
AcDbPoint
 10
1799.296904796376
 20
6376.277787341632
 30
0.0
  0
POINT
  5
1A36
330
C16
100
AcDbEntity
  8
DEFPOINTS
 62
     0
100
AcDbPoint
 10
1799.296904796376
 20
6256.174170265911
 30
0.0
  0
POINT
  5
1A37
330
C16
100
AcDbEntity
  8
DEFPOINTS
 62
     0
100
AcDbPoint
 10
1683.160770594086
 20
6256.174170265911
 30
0.0
  0
ENDBLK
  5
C21
330
C16
100
AcDbEntity
  8
0
100
AcDbBlockEnd
  0
BLOCK
  5
C2C
330
C22
100
AcDbEntity
  8
0
100
AcDbBlockBegin
  2
*D171
 70
     1
 10
0.0
 20
0.0
 30
0.0
  3
*D171
  1

  0
LINE
  5
1A26
330
C22
100
AcDbEntity
  8
sunpo
 62
     0
370
    -2
100
AcDbLine
 10
1307.240066262821
 20
6256.174170265911
 30
0.0
 11
1431.531685770212
 21
6256.174170265911
 31
0.0
  0
LINE
  5
1A27
330
C22
100
AcDbEntity
  8
sunpo
 62
     0
370
    -2
100
AcDbLine
 10
1307.240066262821
 20
6406.17417026591
 30
0.0
 11
1431.531685770212
 21
6406.17417026591
 31
0.0
  0
LINE
  5
1A28
330
C22
100
AcDbEntity
  8
sunpo
 62
     0
370
    -2
100
AcDbLine
 10
1412.781685770212
 20
6286.174170265911
 30
0.0
 11
1412.781685770212
 21
6376.174170265911
 31
0.0
  0
INSERT
  5
1A29
330
C22
100
AcDbEntity
  8
sunpo
 62
     0
370
    -2
100
AcDbBlockReference
  2
_OPEN
 10
1412.781685770212
 20
6256.174170265911
 30
0.0
 41
30.0
 42
30.0
 43
30.0
 50
270.0
  0
INSERT
  5
1A2A
330
C22
100
AcDbEntity
  8
sunpo
 62
     0
370
    -2
100
AcDbBlockReference
  2
_OPEN
 10
1412.781685770212
 20
6406.17417026591
 30
0.0
 41
30.0
 42
30.0
 43
30.0
 50
90.0
  0
MTEXT
  5
1A2B
330
C22
100
AcDbEntity
  8
sunpo
 62
     0
370
    20
100
AcDbMText
 10
1384.656685770211
 20
6331.174170265911
 30
0.0
 40
37.5
 41
0.0
 71
     5
 72
     1
  1
\A1;150
 11
0.0000000000000001
 21
1.0
 31
0.0
 73
     1
 44
1.0
1001
ACAD
1000
MTEXTBEGIN
1070
    73
1070
     1
1070
    44
1040
1.0
1070
    74
1070
     0
1000
MTEXTEND
  0
POINT
  5
1A2C
330
C22
100
AcDbEntity
  8
DEFPOINTS
 62
     0
100
AcDbPoint
 10
1269.740066262821
 20
6256.174170265911
 30
0.0
  0
POINT
  5
1A2D
330
C22
100
AcDbEntity
  8
DEFPOINTS
 62
     0
100
AcDbPoint
 10
1269.740066262821
 20
6406.17417026591
 30
0.0
  0
POINT
  5
1A2E
330
C22
100
AcDbEntity
  8
DEFPOINTS
 62
     0
100
AcDbPoint
 10
1412.781685770212
 20
6406.17417026591
 30
0.0
  0
ENDBLK
  5
C2D
330
C22
100
AcDbEntity
  8
0
100
AcDbBlockEnd
  0
BLOCK
  5
11DD
330
11D3
100
AcDbEntity
  8
0
100
AcDbBlockBegin
  2
*D220
 70
     1
 10
0.0
 20
0.0
 30
0.0
  3
*D220
  1

  0
LINE
  5
1A1D
330
11D3
100
AcDbEntity
  8
sunpo
 62
     0
370
    -2
100
AcDbLine
 10
6114.042893339813
 20
3959.646241024636
 30
0.0
 11
6256.406141861177
 21
3959.646241024636
 31
0.0
  0
LINE
  5
1A1E
330
11D3
100
AcDbEntity
  8
sunpo
 62
     0
370
    -2
100
AcDbLine
 10
6114.042893339813
 20
3809.646241024636
 30
0.0
 11
6256.406141861177
 21
3809.646241024636
 31
0.0
  0
LINE
  5
1A1F
330
11D3
100
AcDbEntity
  8
sunpo
 62
     0
370
    -2
100
AcDbLine
 10
6237.656141861176
 20
3929.646241024635
 30
0.0
 11
6237.656141861176
 21
3839.646241024635
 31
0.0
  0
INSERT
  5
1A20
330
11D3
100
AcDbEntity
  8
sunpo
 62
     0
370
    -2
100
AcDbBlockReference
  2
_OPEN
 10
6237.656141861176
 20
3959.646241024636
 30
0.0
 41
30.0
 42
30.0
 43
30.0
 50
90.0
  0
INSERT
  5
1A21
330
11D3
100
AcDbEntity
  8
sunpo
 62
     0
370
    -2
100
AcDbBlockReference
  2
_OPEN
 10
6237.656141861176
 20
3809.646241024636
 30
0.0
 41
30.0
 42
30.0
 43
30.0
 50
270.0
  0
MTEXT
  5
1A22
330
11D3
100
AcDbEntity
  8
sunpo
 62
     0
370
    20
100
AcDbMText
 10
6209.531141861176
 20
3884.646241024636
 30
0.0
 40
37.5
 41
0.0
 71
     5
 72
     1
  1
\A1;150
 11
0.0000000000000001
 21
1.0
 31
0.0
 73
     1
 44
1.0
1001
ACAD
1000
MTEXTBEGIN
1070
    73
1070
     1
1070
    44
1040
1.0
1070
    74
1070
     0
1000
MTEXTEND
  0
POINT
  5
1A23
330
11D3
100
AcDbEntity
  8
DEFPOINTS
 62
     0
100
AcDbPoint
 10
6076.542893339812
 20
3959.646241024636
 30
0.0
  0
POINT
  5
1A24
330
11D3
100
AcDbEntity
  8
DEFPOINTS
 62
     0
100
AcDbPoint
 10
6076.542893339812
 20
3809.646241024636
 30
0.0
  0
POINT
  5
1A25
330
11D3
100
AcDbEntity
  8
DEFPOINTS
 62
     0
100
AcDbPoint
 10
6237.656141861176
 20
3809.646241024636
 30
0.0
  0
ENDBLK
  5
11DE
330
11D3
100
AcDbEntity
  8
0
100
AcDbBlockEnd
  0
BLOCK
  5
11E9
330
11DF
100
AcDbEntity
  8
0
100
AcDbBlockBegin
  2
*D221
 70
     1
 10
0.0
 20
0.0
 30
0.0
  3
*D221
  1

  0
LINE
  5
1A14
330
11DF
100
AcDbEntity
  8
sunpo
 62
     0
370
    -2
100
AcDbLine
 10
5421.542893339813
 20
3987.146241024635
 30
0.0
 11
5421.542893339813
 21
4239.073465035657
 31
0.0
  0
LINE
  5
1A15
330
11DF
100
AcDbEntity
  8
sunpo
 62
     0
370
    -2
100
AcDbLine
 10
5576.545663859292
 20
3967.249858100357
 30
0.0
 11
5576.545663859292
 21
4239.073465035657
 31
0.0
  0
LINE
  5
1A16
330
11DF
100
AcDbEntity
  8
sunpo
 62
     0
370
    -2
100
AcDbLine
 10
5451.542893339812
 20
4220.323465035657
 30
0.0
 11
5546.545663859291
 21
4220.323465035657
 31
0.0
  0
INSERT
  5
1A17
330
11DF
100
AcDbEntity
  8
sunpo
 62
     0
370
    -2
100
AcDbBlockReference
  2
_OPEN
 10
5421.542893339813
 20
4220.323465035657
 30
0.0
 41
30.0
 42
30.0
 43
30.0
 50
180.0
  0
INSERT
  5
1A18
330
11DF
100
AcDbEntity
  8
sunpo
 62
     0
370
    -2
100
AcDbBlockReference
  2
_OPEN
 10
5576.545663859292
 20
4220.323465035657
 30
0.0
 41
30.0
 42
30.0
 43
30.0
  0
MTEXT
  5
1A19
330
11DF
100
AcDbEntity
  8
sunpo
 62
     0
370
    20
100
AcDbMText
 10
5499.044278599551
 20
4248.448465035656
 30
0.0
 40
37.5
 41
0.0
 71
     5
 72
     1
  1
\A1;155
 73
     1
 44
1.0
1001
ACAD
1000
MTEXTBEGIN
1070
    73
1070
     1
1070
    44
1040
1.0
1070
    74
1070
     0
1000
MTEXTEND
  0
POINT
  5
1A1A
330
11DF
100
AcDbEntity
  8
DEFPOINTS
 62
     0
100
AcDbPoint
 10
5421.542893339813
 20
3949.646241024635
 30
0.0
  0
POINT
  5
1A1B
330
11DF
100
AcDbEntity
  8
DEFPOINTS
 62
     0
100
AcDbPoint
 10
5576.545663859292
 20
3929.749858100357
 30
0.0
  0
POINT
  5
1A1C
330
11DF
100
AcDbEntity
  8
DEFPOINTS
 62
     0
100
AcDbPoint
 10
5576.545663859292
 20
4220.323465035657
 30
0.0
  0
ENDBLK
  5
11EA
330
11DF
100
AcDbEntity
  8
0
100
AcDbBlockEnd
  0
BLOCK
  5
11F6
330
11EB
100
AcDbEntity
  8
0
100
AcDbBlockBegin
  2
*D222
 70
     1
 10
0.0
 20
0.0
 30
0.0
  3
*D222
  1

  0
LINE
  5
1A0A
330
11EB
100
AcDbEntity
  8
sunpo
 62
     0
370
    -2
100
AcDbLine
 10
5361.542893339812
 20
3987.146241024635
 30
0.0
 11
5361.542893339812
 21
4239.073465035657
 31
0.0
  0
LINE
  5
1A0B
330
11EB
100
AcDbEntity
  8
sunpo
 62
     0
370
    -2
100
AcDbLine
 10
5421.542893339813
 20
3987.146241024635
 30
0.0
 11
5421.542893339813
 21
4239.073465035657
 31
0.0
  0
LINE
  5
1A0C
330
11EB
100
AcDbEntity
  8
sunpo
 62
     0
370
    -2
100
AcDbLine
 10
5331.542893339812
 20
4220.323465035657
 30
0.0
 11
5301.542893339813
 21
4220.323465035657
 31
0.0
  0
LINE
  5
1A0D
330
11EB
100
AcDbEntity
  8
sunpo
 62
     0
370
    -2
100
AcDbLine
 10
5451.542893339812
 20
4220.323465035657
 30
0.0
 11
5481.542893339812
 21
4220.323465035657
 31
0.0
  0
MTEXT
  5
1A0E
330
11EB
100
AcDbEntity
  8
sunpo
 62
     0
370
    20
100
AcDbMText
 10
5391.542893339813
 20
4271.885965035656
 30
0.0
 40
37.5
 41
0.0
 71
     5
 72
     1
  1
\A1;60
 73
     1
 44
1.0
1001
ACAD
1000
MTEXTBEGIN
1070
    73
1070
     1
1070
    44
1040
1.0
1070
    74
1070
     0
1000
MTEXTEND
  0
INSERT
  5
1A0F
330
11EB
100
AcDbEntity
  8
sunpo
 62
     0
370
    -2
100
AcDbBlockReference
  2
_OPEN
 10
5361.542893339812
 20
4220.323465035657
 30
0.0
 41
30.0
 42
30.0
 43
30.0
  0
INSERT
  5
1A10
330
11EB
100
AcDbEntity
  8
sunpo
 62
     0
370
    -2
100
AcDbBlockReference
  2
_OPEN
 10
5421.542893339813
 20
4220.323465035657
 30
0.0
 41
30.0
 42
30.0
 43
30.0
 50
180.0
  0
POINT
  5
1A11
330
11EB
100
AcDbEntity
  8
DEFPOINTS
 62
     0
100
AcDbPoint
 10
5361.542893339812
 20
3949.646241024635
 30
0.0
  0
POINT
  5
1A12
330
11EB
100
AcDbEntity
  8
DEFPOINTS
 62
     0
100
AcDbPoint
 10
5421.542893339813
 20
3949.646241024635
 30
0.0
  0
POINT
  5
1A13
330
11EB
100
AcDbEntity
  8
DEFPOINTS
 62
     0
100
AcDbPoint
 10
5421.542893339813
 20
4220.323465035657
 30
0.0
  0
ENDBLK
  5
11F7
330
11EB
100
AcDbEntity
  8
0
100
AcDbBlockEnd
  0
BLOCK
  5
1202
330
11F8
100
AcDbEntity
  8
0
100
AcDbBlockBegin
  2
*D223
 70
     1
 10
0.0
 20
0.0
 30
0.0
  3
*D223
  1

  0
LINE
  5
1A01
330
11F8
100
AcDbEntity
  8
sunpo
 62
     0
370
    -2
100
AcDbLine
 10
5539.042893339809
 20
3929.646241024635
 30
0.0
 11
5493.08024433191
 21
3929.646241024635
 31
0.0
  0
LINE
  5
1A02
330
11F8
100
AcDbEntity
  8
sunpo
 62
     0
370
    -2
100
AcDbLine
 10
5527.042893339813
 20
3809.646241024636
 30
0.0
 11
5493.08024433191
 21
3809.646241024636
 31
0.0
  0
LINE
  5
1A03
330
11F8
100
AcDbEntity
  8
sunpo
 62
     0
370
    -2
100
AcDbLine
 10
5511.83024433191
 20
3899.646241024635
 30
0.0
 11
5511.83024433191
 21
3839.646241024635
 31
0.0
  0
INSERT
  5
1A04
330
11F8
100
AcDbEntity
  8
sunpo
 62
     0
370
    -2
100
AcDbBlockReference
  2
_OPEN
 10
5511.83024433191
 20
3929.646241024635
 30
0.0
 41
30.0
 42
30.0
 43
30.0
 50
90.0
  0
INSERT
  5
1A05
330
11F8
100
AcDbEntity
  8
sunpo
 62
     0
370
    -2
100
AcDbBlockReference
  2
_OPEN
 10
5511.83024433191
 20
3809.646241024636
 30
0.0
 41
30.0
 42
30.0
 43
30.0
 50
270.0
  0
MTEXT
  5
1A06
330
11F8
100
AcDbEntity
  8
sunpo
 62
     0
370
    20
100
AcDbMText
 10
5483.705244331908
 20
3869.646241024636
 30
0.0
 40
37.5
 41
0.0
 71
     5
 72
     1
  1
\A1;120
 11
0.0000000000000001
 21
1.0
 31
0.0
 73
     1
 44
1.0
1001
ACAD
1000
MTEXTBEGIN
1070
    73
1070
     1
1070
    44
1040
1.0
1070
    74
1070
     0
1000
MTEXTEND
  0
POINT
  5
1A07
330
11F8
100
AcDbEntity
  8
DEFPOINTS
 62
     0
100
AcDbPoint
 10
5576.542893339809
 20
3929.646241024635
 30
0.0
  0
POINT
  5
1A08
330
11F8
100
AcDbEntity
  8
DEFPOINTS
 62
     0
100
AcDbPoint
 10
5564.542893339813
 20
3809.646241024636
 30
0.0
  0
POINT
  5
1A09
330
11F8
100
AcDbEntity
  8
DEFPOINTS
 62
     0
100
AcDbPoint
 10
5511.83024433191
 20
3809.646241024636
 30
0.0
  0
ENDBLK
  5
1203
330
11F8
100
AcDbEntity
  8
0
100
AcDbBlockEnd
  0
BLOCK
  5
120F
330
1204
100
AcDbEntity
  8
0
100
AcDbBlockBegin
  2
*D224
 70
     1
 10
0.0
 20
0.0
 30
0.0
  3
*D224
  1

  0
LINE
  5
19F7
330
1204
100
AcDbEntity
  8
sunpo
 62
     0
370
    -2
100
AcDbLine
 10
5324.042893339813
 20
3949.646241024635
 30
0.0
 11
5259.564179492945
 21
3949.646241024635
 31
0.0
  0
LINE
  5
19F8
330
1204
100
AcDbEntity
  8
sunpo
 62
     0
370
    -2
100
AcDbLine
 10
5324.042893339813
 20
3929.646241024635
 30
0.0
 11
5259.564179492945
 21
3929.646241024635
 31
0.0
  0
LINE
  5
19F9
330
1204
100
AcDbEntity
  8
sunpo
 62
     0
370
    -2
100
AcDbLine
 10
5278.314179492945
 20
3979.646241024635
 30
0.0
 11
5278.314179492945
 21
4009.646241024635
 31
0.0
  0
LINE
  5
19FA
330
1204
100
AcDbEntity
  8
sunpo
 62
     0
370
    -2
100
AcDbLine
 10
5278.314179492945
 20
3899.646241024635
 30
0.0
 11
5278.314179492945
 21
3869.646241024635
 31
0.0
  0
MTEXT
  5
19FB
330
1204
100
AcDbEntity
  8
sunpo
 62
     0
370
    20
100
AcDbMText
 10
5226.751679492944
 20
3939.646241024636
 30
0.0
 40
37.5
 41
0.0
 71
     5
 72
     1
  1
\A1;20
 11
0.0000000000000001
 21
1.0
 31
0.0
 73
     1
 44
1.0
1001
ACAD
1000
MTEXTBEGIN
1070
    73
1070
     1
1070
    44
1040
1.0
1070
    74
1070
     0
1000
MTEXTEND
  0
INSERT
  5
19FC
330
1204
100
AcDbEntity
  8
sunpo
 62
     0
370
    -2
100
AcDbBlockReference
  2
_OPEN
 10
5278.314179492945
 20
3949.646241024635
 30
0.0
 41
30.0
 42
30.0
 43
30.0
 50
270.0
  0
INSERT
  5
19FD
330
1204
100
AcDbEntity
  8
sunpo
 62
     0
370
    -2
100
AcDbBlockReference
  2
_OPEN
 10
5278.314179492945
 20
3929.646241024635
 30
0.0
 41
30.0
 42
30.0
 43
30.0
 50
90.0
  0
POINT
  5
19FE
330
1204
100
AcDbEntity
  8
DEFPOINTS
 62
     0
100
AcDbPoint
 10
5361.542893339812
 20
3949.646241024635
 30
0.0
  0
POINT
  5
19FF
330
1204
100
AcDbEntity
  8
DEFPOINTS
 62
     0
100
AcDbPoint
 10
5361.542893339812
 20
3929.646241024635
 30
0.0
  0
POINT
  5
1A00
330
1204
100
AcDbEntity
  8
DEFPOINTS
 62
     0
100
AcDbPoint
 10
5278.314179492945
 20
3929.646241024635
 30
0.0
  0
ENDBLK
  5
1210
330
1204
100
AcDbEntity
  8
0
100
AcDbBlockEnd
  0
BLOCK
  5
121B
330
1211
100
AcDbEntity
  8
0
100
AcDbBlockBegin
  2
*D225
 70
     1
 10
0.0
 20
0.0
 30
0.0
  3
*D225
  1

  0
LINE
  5
19EE
330
1211
100
AcDbEntity
  8
sunpo
 62
     0
370
    -2
100
AcDbLine
 10
5324.042893339813
 20
3929.646241024635
 30
0.0
 11
5259.564179492945
 21
3929.646241024635
 31
0.0
  0
LINE
  5
19EF
330
1211
100
AcDbEntity
  8
sunpo
 62
     0
370
    -2
100
AcDbLine
 10
5324.042893339813
 20
3809.646241024636
 30
0.0
 11
5259.564179492945
 21
3809.646241024636
 31
0.0
  0
LINE
  5
19F0
330
1211
100
AcDbEntity
  8
sunpo
 62
     0
370
    -2
100
AcDbLine
 10
5278.314179492945
 20
3899.646241024635
 30
0.0
 11
5278.314179492945
 21
3839.646241024635
 31
0.0
  0
INSERT
  5
19F1
330
1211
100
AcDbEntity
  8
sunpo
 62
     0
370
    -2
100
AcDbBlockReference
  2
_OPEN
 10
5278.314179492945
 20
3929.646241024635
 30
0.0
 41
30.0
 42
30.0
 43
30.0
 50
90.0
  0
INSERT
  5
19F2
330
1211
100
AcDbEntity
  8
sunpo
 62
     0
370
    -2
100
AcDbBlockReference
  2
_OPEN
 10
5278.314179492945
 20
3809.646241024636
 30
0.0
 41
30.0
 42
30.0
 43
30.0
 50
270.0
  0
MTEXT
  5
19F3
330
1211
100
AcDbEntity
  8
sunpo
 62
     0
370
    20
100
AcDbMText
 10
5250.189179492944
 20
3869.646241024636
 30
0.0
 40
37.5
 41
0.0
 71
     5
 72
     1
  1
\A1;120
 11
0.0000000000000001
 21
1.0
 31
0.0
 73
     1
 44
1.0
1001
ACAD
1000
MTEXTBEGIN
1070
    73
1070
     1
1070
    44
1040
1.0
1070
    74
1070
     0
1000
MTEXTEND
  0
POINT
  5
19F4
330
1211
100
AcDbEntity
  8
DEFPOINTS
 62
     0
100
AcDbPoint
 10
5361.542893339812
 20
3929.646241024635
 30
0.0
  0
POINT
  5
19F5
330
1211
100
AcDbEntity
  8
DEFPOINTS
 62
     0
100
AcDbPoint
 10
5361.542893339812
 20
3809.646241024636
 30
0.0
  0
POINT
  5
19F6
330
1211
100
AcDbEntity
  8
DEFPOINTS
 62
     0
100
AcDbPoint
 10
5278.314179492945
 20
3809.646241024636
 30
0.0
  0
ENDBLK
  5
121C
330
1211
100
AcDbEntity
  8
0
100
AcDbBlockEnd
  0
BLOCK
  5
1227
330
121D
100
AcDbEntity
  8
0
100
AcDbBlockBegin
  2
*D226
 70
     1
 10
0.0
 20
0.0
 30
0.0
  3
*D226
  1

  0
LINE
  5
19E5
330
121D
100
AcDbEntity
  8
sunpo
 62
     0
370
    -2
100
AcDbLine
 10
5324.042893339813
 20
3949.646241024635
 30
0.0
 11
5149.226267245801
 21
3949.646241024635
 31
0.0
  0
LINE
  5
19E6
330
121D
100
AcDbEntity
  8
sunpo
 62
     0
370
    -2
100
AcDbLine
 10
5324.042893339813
 20
3809.646241024636
 30
0.0
 11
5149.226267245801
 21
3809.646241024636
 31
0.0
  0
LINE
  5
19E7
330
121D
100
AcDbEntity
  8
sunpo
 62
     0
370
    -2
100
AcDbLine
 10
5167.9762672458
 20
3919.646241024635
 30
0.0
 11
5167.9762672458
 21
3839.646241024635
 31
0.0
  0
INSERT
  5
19E8
330
121D
100
AcDbEntity
  8
sunpo
 62
     0
370
    -2
100
AcDbBlockReference
  2
_OPEN
 10
5167.9762672458
 20
3949.646241024635
 30
0.0
 41
30.0
 42
30.0
 43
30.0
 50
90.0
  0
INSERT
  5
19E9
330
121D
100
AcDbEntity
  8
sunpo
 62
     0
370
    -2
100
AcDbBlockReference
  2
_OPEN
 10
5167.9762672458
 20
3809.646241024636
 30
0.0
 41
30.0
 42
30.0
 43
30.0
 50
270.0
  0
MTEXT
  5
19EA
330
121D
100
AcDbEntity
  8
sunpo
 62
     0
370
    20
100
AcDbMText
 10
5139.851267245798
 20
3879.646241024636
 30
0.0
 40
37.5
 41
0.0
 71
     5
 72
     1
  1
\A1;140
 11
0.0000000000000001
 21
1.0
 31
0.0
 73
     1
 44
1.0
1001
ACAD
1000
MTEXTBEGIN
1070
    73
1070
     1
1070
    44
1040
1.0
1070
    74
1070
     0
1000
MTEXTEND
  0
POINT
  5
19EB
330
121D
100
AcDbEntity
  8
DEFPOINTS
 62
     0
100
AcDbPoint
 10
5361.542893339812
 20
3949.646241024635
 30
0.0
  0
POINT
  5
19EC
330
121D
100
AcDbEntity
  8
DEFPOINTS
 62
     0
100
AcDbPoint
 10
5361.542893339812
 20
3809.646241024636
 30
0.0
  0
POINT
  5
19ED
330
121D
100
AcDbEntity
  8
DEFPOINTS
 62
     0
100
AcDbPoint
 10
5167.9762672458
 20
3809.646241024636
 30
0.0
  0
ENDBLK
  5
1228
330
121D
100
AcDbEntity
  8
0
100
AcDbBlockEnd
  0
BLOCK
  5
1233
330
1229
100
AcDbEntity
  8
0
100
AcDbBlockBegin
  2
*D227
 70
     1
 10
0.0
 20
0.0
 30
0.0
  3
*D227
  1

  0
LINE
  5
19DC
330
1229
100
AcDbEntity
  8
sunpo
 62
     0
370
    -2
100
AcDbLine
 10
5361.542893339812
 20
3987.146241024635
 30
0.0
 11
5361.542893339812
 21
4363.124589500599
 31
0.0
  0
LINE
  5
19DD
330
1229
100
AcDbEntity
  8
sunpo
 62
     0
370
    -2
100
AcDbLine
 10
6076.542893339812
 20
3997.146241024636
 30
0.0
 11
6076.542893339812
 21
4363.124589500599
 31
0.0
  0
LINE
  5
19DE
330
1229
100
AcDbEntity
  8
sunpo
 62
     0
370
    -2
100
AcDbLine
 10
5391.542893339813
 20
4344.374589500599
 30
0.0
 11
6046.542893339813
 21
4344.374589500599
 31
0.0
  0
INSERT
  5
19DF
330
1229
100
AcDbEntity
  8
sunpo
 62
     0
370
    -2
100
AcDbBlockReference
  2
_OPEN
 10
5361.542893339812
 20
4344.374589500599
 30
0.0
 41
30.0
 42
30.0
 43
30.0
 50
180.0
  0
INSERT
  5
19E0
330
1229
100
AcDbEntity
  8
sunpo
 62
     0
370
    -2
100
AcDbBlockReference
  2
_OPEN
 10
6076.542893339812
 20
4344.374589500599
 30
0.0
 41
30.0
 42
30.0
 43
30.0
  0
MTEXT
  5
19E1
330
1229
100
AcDbEntity
  8
sunpo
 62
     0
370
    20
100
AcDbMText
 10
5719.042893339812
 20
4372.499589500599
 30
0.0
 40
37.5
 41
0.0
 71
     5
 72
     1
  1
\A1;715
 73
     1
 44
1.0
1001
ACAD
1000
MTEXTBEGIN
1070
    73
1070
     1
1070
    44
1040
1.0
1070
    74
1070
     0
1000
MTEXTEND
  0
POINT
  5
19E2
330
1229
100
AcDbEntity
  8
DEFPOINTS
 62
     0
100
AcDbPoint
 10
5361.542893339812
 20
3949.646241024635
 30
0.0
  0
POINT
  5
19E3
330
1229
100
AcDbEntity
  8
DEFPOINTS
 62
     0
100
AcDbPoint
 10
6076.542893339812
 20
3959.646241024636
 30
0.0
  0
POINT
  5
19E4
330
1229
100
AcDbEntity
  8
DEFPOINTS
 62
     0
100
AcDbPoint
 10
6076.542893339812
 20
4344.374589500599
 30
0.0
  0
ENDBLK
  5
1234
330
1229
100
AcDbEntity
  8
0
100
AcDbBlockEnd
  0
BLOCK
  5
123F
330
1235
100
AcDbEntity
  8
0
100
AcDbBlockBegin
  2
*D228
 70
     1
 10
0.0
 20
0.0
 30
0.0
  3
*D228
  1

  0
LINE
  5
19D3
330
1235
100
AcDbEntity
  8
sunpo
 62
     0
370
    -2
100
AcDbLine
 10
5576.542893339809
 20
3967.146241024635
 30
0.0
 11
5576.542893339809
 21
4239.073465035657
 31
0.0
  0
LINE
  5
19D4
330
1235
100
AcDbEntity
  8
sunpo
 62
     0
370
    -2
100
AcDbLine
 10
6076.542893339812
 20
3997.146241024636
 30
0.0
 11
6076.542893339812
 21
4239.073465035657
 31
0.0
  0
LINE
  5
19D5
330
1235
100
AcDbEntity
  8
sunpo
 62
     0
370
    -2
100
AcDbLine
 10
5606.542893339809
 20
4220.323465035657
 30
0.0
 11
6046.542893339813
 21
4220.323465035657
 31
0.0
  0
INSERT
  5
19D6
330
1235
100
AcDbEntity
  8
sunpo
 62
     0
370
    -2
100
AcDbBlockReference
  2
_OPEN
 10
5576.542893339809
 20
4220.323465035657
 30
0.0
 41
30.0
 42
30.0
 43
30.0
 50
180.0
  0
INSERT
  5
19D7
330
1235
100
AcDbEntity
  8
sunpo
 62
     0
370
    -2
100
AcDbBlockReference
  2
_OPEN
 10
6076.542893339812
 20
4220.323465035657
 30
0.0
 41
30.0
 42
30.0
 43
30.0
  0
MTEXT
  5
19D8
330
1235
100
AcDbEntity
  8
sunpo
 62
     0
370
    20
100
AcDbMText
 10
5826.54289333981
 20
4248.448465035656
 30
0.0
 40
37.5
 41
0.0
 71
     5
 72
     1
  1
\A1;500
 73
     1
 44
1.0
1001
ACAD
1000
MTEXTBEGIN
1070
    73
1070
     1
1070
    44
1040
1.0
1070
    74
1070
     0
1000
MTEXTEND
  0
POINT
  5
19D9
330
1235
100
AcDbEntity
  8
DEFPOINTS
 62
     0
100
AcDbPoint
 10
5576.542893339809
 20
3929.646241024635
 30
0.0
  0
POINT
  5
19DA
330
1235
100
AcDbEntity
  8
DEFPOINTS
 62
     0
100
AcDbPoint
 10
6076.542893339812
 20
3959.646241024636
 30
0.0
  0
POINT
  5
19DB
330
1235
100
AcDbEntity
  8
DEFPOINTS
 62
     0
100
AcDbPoint
 10
6076.542893339812
 20
4220.323465035657
 30
0.0
  0
ENDBLK
  5
1240
330
1235
100
AcDbEntity
  8
0
100
AcDbBlockEnd
  0
BLOCK
  5
124B
330
1241
100
AcDbEntity
  8
0
100
AcDbBlockBegin
  2
*D229
 70
     1
 10
0.0
 20
0.0
 30
0.0
  3
*D229
  1

  0
LINE
  5
19CA
330
1241
100
AcDbEntity
  8
sunpo
 62
     0
370
    -2
100
AcDbLine
 10
4705.867650833732
 20
3959.646241024636
 30
0.0
 11
4848.230899355096
 21
3959.646241024636
 31
0.0
  0
LINE
  5
19CB
330
1241
100
AcDbEntity
  8
sunpo
 62
     0
370
    -2
100
AcDbLine
 10
4705.867650833732
 20
3809.646241024636
 30
0.0
 11
4848.230899355096
 21
3809.646241024636
 31
0.0
  0
LINE
  5
19CC
330
1241
100
AcDbEntity
  8
sunpo
 62
     0
370
    -2
100
AcDbLine
 10
4829.480899355096
 20
3929.646241024635
 30
0.0
 11
4829.480899355096
 21
3839.646241024635
 31
0.0
  0
INSERT
  5
19CD
330
1241
100
AcDbEntity
  8
sunpo
 62
     0
370
    -2
100
AcDbBlockReference
  2
_OPEN
 10
4829.480899355096
 20
3959.646241024636
 30
0.0
 41
30.0
 42
30.0
 43
30.0
 50
90.0
  0
INSERT
  5
19CE
330
1241
100
AcDbEntity
  8
sunpo
 62
     0
370
    -2
100
AcDbBlockReference
  2
_OPEN
 10
4829.480899355096
 20
3809.646241024636
 30
0.0
 41
30.0
 42
30.0
 43
30.0
 50
270.0
  0
MTEXT
  5
19CF
330
1241
100
AcDbEntity
  8
sunpo
 62
     0
370
    20
100
AcDbMText
 10
4801.355899355095
 20
3884.646241024635
 30
0.0
 40
37.5
 41
0.0
 71
     5
 72
     1
  1
\A1;150
 11
0.0000000000000001
 21
1.0
 31
0.0
 73
     1
 44
1.0
1001
ACAD
1000
MTEXTBEGIN
1070
    73
1070
     1
1070
    44
1040
1.0
1070
    74
1070
     0
1000
MTEXTEND
  0
POINT
  5
19D0
330
1241
100
AcDbEntity
  8
DEFPOINTS
 62
     0
100
AcDbPoint
 10
4668.367650833732
 20
3959.646241024636
 30
0.0
  0
POINT
  5
19D1
330
1241
100
AcDbEntity
  8
DEFPOINTS
 62
     0
100
AcDbPoint
 10
4668.367650833732
 20
3809.646241024636
 30
0.0
  0
POINT
  5
19D2
330
1241
100
AcDbEntity
  8
DEFPOINTS
 62
     0
100
AcDbPoint
 10
4829.480899355096
 20
3809.646241024636
 30
0.0
  0
ENDBLK
  5
124C
330
1241
100
AcDbEntity
  8
0
100
AcDbBlockEnd
  0
BLOCK
  5
1257
330
124D
100
AcDbEntity
  8
0
100
AcDbBlockBegin
  2
*D230
 70
     1
 10
0.0
 20
0.0
 30
0.0
  3
*D230
  1

  0
LINE
  5
19C1
330
124D
100
AcDbEntity
  8
sunpo
 62
     0
370
    -2
100
AcDbLine
 10
4223.363641455069
 20
3809.646241024636
 30
0.0
 11
4061.45674068573
 21
3809.646241024636
 31
0.0
  0
LINE
  5
19C2
330
124D
100
AcDbEntity
  8
sunpo
 62
     0
370
    -2
100
AcDbLine
 10
4130.863641455069
 20
3929.646241024635
 30
0.0
 11
4061.45674068573
 21
3929.646241024635
 31
0.0
  0
LINE
  5
19C3
330
124D
100
AcDbEntity
  8
sunpo
 62
     0
370
    -2
100
AcDbLine
 10
4080.20674068573
 20
3839.646241024635
 30
0.0
 11
4080.20674068573
 21
3899.646241024635
 31
0.0
  0
INSERT
  5
19C4
330
124D
100
AcDbEntity
  8
sunpo
 62
     0
370
    -2
100
AcDbBlockReference
  2
_OPEN
 10
4080.20674068573
 20
3809.646241024636
 30
0.0
 41
30.0
 42
30.0
 43
30.0
 50
270.0
  0
INSERT
  5
19C5
330
124D
100
AcDbEntity
  8
sunpo
 62
     0
370
    -2
100
AcDbBlockReference
  2
_OPEN
 10
4080.20674068573
 20
3929.646241024635
 30
0.0
 41
30.0
 42
30.0
 43
30.0
 50
90.0
  0
MTEXT
  5
19C6
330
124D
100
AcDbEntity
  8
sunpo
 62
     0
370
    20
100
AcDbMText
 10
4052.081740685729
 20
3869.646241024636
 30
0.0
 40
37.5
 41
0.0
 71
     5
 72
     1
  1
\A1;120
 11
0.0000000000000001
 21
1.0
 31
0.0
 73
     1
 44
1.0
1001
ACAD
1000
MTEXTBEGIN
1070
    73
1070
     1
1070
    44
1040
1.0
1070
    74
1070
     0
1000
MTEXTEND
  0
POINT
  5
19C7
330
124D
100
AcDbEntity
  8
DEFPOINTS
 62
     0
100
AcDbPoint
 10
4260.86364145507
 20
3809.646241024636
 30
0.0
  0
POINT
  5
19C8
330
124D
100
AcDbEntity
  8
DEFPOINTS
 62
     0
100
AcDbPoint
 10
4168.363641455068
 20
3929.646241024635
 30
0.0
  0
POINT
  5
19C9
330
124D
100
AcDbEntity
  8
DEFPOINTS
 62
     0
100
AcDbPoint
 10
4080.20674068573
 20
3929.646241024635
 30
0.0
  0
ENDBLK
  5
1258
330
124D
100
AcDbEntity
  8
0
100
AcDbBlockEnd
  0
BLOCK
  5
1264
330
1259
100
AcDbEntity
  8
0
100
AcDbBlockBegin
  2
*D231
 70
     1
 10
0.0
 20
0.0
 30
0.0
  3
*D231
  1

  0
LINE
  5
19B7
330
1259
100
AcDbEntity
  8
sunpo
 62
     0
370
    -2
100
AcDbLine
 10
3968.367650833764
 20
4167.14335455545
 30
0.0
 11
3968.367650833764
 21
4238.92172330958
 31
0.0
  0
LINE
  5
19B8
330
1259
100
AcDbEntity
  8
sunpo
 62
     0
370
    -2
100
AcDbLine
 10
3953.367650833732
 20
4017.143354555449
 30
0.0
 11
3953.367650833732
 21
4238.92172330958
 31
0.0
  0
LINE
  5
19B9
330
1259
100
AcDbEntity
  8
sunpo
 62
     0
370
    -2
100
AcDbLine
 10
3998.367650833763
 20
4220.17172330958
 30
0.0
 11
4028.367650833763
 21
4220.17172330958
 31
0.0
  0
LINE
  5
19BA
330
1259
100
AcDbEntity
  8
sunpo
 62
     0
370
    -2
100
AcDbLine
 10
3923.367650833732
 20
4220.17172330958
 30
0.0
 11
3893.367650833732
 21
4220.17172330958
 31
0.0
  0
MTEXT
  5
19BB
330
1259
100
AcDbEntity
  8
sunpo
 62
     0
370
    20
100
AcDbMText
 10
3960.867650833748
 20
4271.73422330958
 30
0.0
 40
37.5
 41
0.0
 71
     5
 72
     1
  1
\A1;15
 73
     1
 44
1.0
1001
ACAD
1000
MTEXTBEGIN
1070
    73
1070
     1
1070
    44
1040
1.0
1070
    74
1070
     0
1000
MTEXTEND
  0
INSERT
  5
19BC
330
1259
100
AcDbEntity
  8
sunpo
 62
     0
370
    -2
100
AcDbBlockReference
  2
_OPEN
 10
3968.367650833764
 20
4220.17172330958
 30
0.0
 41
30.0
 42
30.0
 43
30.0
 50
180.0
  0
INSERT
  5
19BD
330
1259
100
AcDbEntity
  8
sunpo
 62
     0
370
    -2
100
AcDbBlockReference
  2
_OPEN
 10
3953.367650833732
 20
4220.17172330958
 30
0.0
 41
30.0
 42
30.0
 43
30.0
  0
POINT
  5
19BE
330
1259
100
AcDbEntity
  8
DEFPOINTS
 62
     0
100
AcDbPoint
 10
3968.367650833764
 20
4129.64335455545
 30
0.0
  0
POINT
  5
19BF
330
1259
100
AcDbEntity
  8
DEFPOINTS
 62
     0
100
AcDbPoint
 10
3953.367650833732
 20
3979.64335455545
 30
0.0
  0
POINT
  5
19C0
330
1259
100
AcDbEntity
  8
DEFPOINTS
 62
     0
100
AcDbPoint
 10
3953.367650833732
 20
4220.17172330958
 30
0.0
  0
ENDBLK
  5
1265
330
1259
100
AcDbEntity
  8
0
100
AcDbBlockEnd
  0
BLOCK
  5
1270
330
1266
100
AcDbEntity
  8
0
100
AcDbBlockBegin
  2
*D232
 70
     1
 10
0.0
 20
0.0
 30
0.0
  3
*D232
  1

  0
LINE
  5
19AE
330
1266
100
AcDbEntity
  8
sunpo
 62
     0
370
    -2
100
AcDbLine
 10
4148.363641455076
 20
4167.14335455545
 30
0.0
 11
4148.363641455076
 21
4238.92172330958
 31
0.0
  0
LINE
  5
19AF
330
1266
100
AcDbEntity
  8
sunpo
 62
     0
370
    -2
100
AcDbLine
 10
3968.367650833764
 20
4167.14335455545
 30
0.0
 11
3968.367650833764
 21
4238.92172330958
 31
0.0
  0
LINE
  5
19B0
330
1266
100
AcDbEntity
  8
sunpo
 62
     0
370
    -2
100
AcDbLine
 10
4118.363641455077
 20
4220.17172330958
 30
0.0
 11
3998.367650833763
 21
4220.17172330958
 31
0.0
  0
INSERT
  5
19B1
330
1266
100
AcDbEntity
  8
sunpo
 62
     0
370
    -2
100
AcDbBlockReference
  2
_OPEN
 10
4148.363641455076
 20
4220.17172330958
 30
0.0
 41
30.0
 42
30.0
 43
30.0
  0
INSERT
  5
19B2
330
1266
100
AcDbEntity
  8
sunpo
 62
     0
370
    -2
100
AcDbBlockReference
  2
_OPEN
 10
3968.367650833764
 20
4220.17172330958
 30
0.0
 41
30.0
 42
30.0
 43
30.0
 50
180.0
  0
MTEXT
  5
19B3
330
1266
100
AcDbEntity
  8
sunpo
 62
     0
370
    20
100
AcDbMText
 10
4058.365646144419
 20
4248.29672330958
 30
0.0
 40
37.5
 41
0.0
 71
     5
 72
     1
  1
\A1;180
 73
     1
 44
1.0
1001
ACAD
1000
MTEXTBEGIN
1070
    73
1070
     1
1070
    44
1040
1.0
1070
    74
1070
     0
1000
MTEXTEND
  0
POINT
  5
19B4
330
1266
100
AcDbEntity
  8
DEFPOINTS
 62
     0
100
AcDbPoint
 10
4148.363641455076
 20
4129.64335455545
 30
0.0
  0
POINT
  5
19B5
330
1266
100
AcDbEntity
  8
DEFPOINTS
 62
     0
100
AcDbPoint
 10
3968.367650833764
 20
4129.64335455545
 30
0.0
  0
POINT
  5
19B6
330
1266
100
AcDbEntity
  8
DEFPOINTS
 62
     0
100
AcDbPoint
 10
3968.367650833764
 20
4220.17172330958
 30
0.0
  0
ENDBLK
  5
1271
330
1266
100
AcDbEntity
  8
0
100
AcDbBlockEnd
  0
BLOCK
  5
127D
330
1272
100
AcDbEntity
  8
0
100
AcDbBlockBegin
  2
*D233
 70
     1
 10
0.0
 20
0.0
 30
0.0
  3
*D233
  1

  0
LINE
  5
19A4
330
1272
100
AcDbEntity
  8
sunpo
 62
     0
370
    -2
100
AcDbLine
 10
4148.363641455076
 20
4167.14335455545
 30
0.0
 11
4148.363641455076
 21
4238.92172330958
 31
0.0
  0
LINE
  5
19A5
330
1272
100
AcDbEntity
  8
sunpo
 62
     0
370
    -2
100
AcDbLine
 10
4168.363641455068
 20
3967.146241024635
 30
0.0
 11
4168.363641455068
 21
4238.92172330958
 31
0.0
  0
LINE
  5
19A6
330
1272
100
AcDbEntity
  8
sunpo
 62
     0
370
    -2
100
AcDbLine
 10
4118.363641455077
 20
4220.17172330958
 30
0.0
 11
4088.363641455076
 21
4220.17172330958
 31
0.0
  0
LINE
  5
19A7
330
1272
100
AcDbEntity
  8
sunpo
 62
     0
370
    -2
100
AcDbLine
 10
4198.36364145507
 20
4220.17172330958
 30
0.0
 11
4228.363641455069
 21
4220.17172330958
 31
0.0
  0
MTEXT
  5
19A8
330
1272
100
AcDbEntity
  8
sunpo
 62
     0
370
    20
100
AcDbMText
 10
4158.363641455073
 20
4271.73422330958
 30
0.0
 40
37.5
 41
0.0
 71
     5
 72
     1
  1
\A1;20
 73
     1
 44
1.0
1001
ACAD
1000
MTEXTBEGIN
1070
    73
1070
     1
1070
    44
1040
1.0
1070
    74
1070
     0
1000
MTEXTEND
  0
INSERT
  5
19A9
330
1272
100
AcDbEntity
  8
sunpo
 62
     0
370
    -2
100
AcDbBlockReference
  2
_OPEN
 10
4148.363641455076
 20
4220.17172330958
 30
0.0
 41
30.0
 42
30.0
 43
30.0
  0
INSERT
  5
19AA
330
1272
100
AcDbEntity
  8
sunpo
 62
     0
370
    -2
100
AcDbBlockReference
  2
_OPEN
 10
4168.363641455068
 20
4220.17172330958
 30
0.0
 41
30.0
 42
30.0
 43
30.0
 50
180.0
  0
POINT
  5
19AB
330
1272
100
AcDbEntity
  8
DEFPOINTS
 62
     0
100
AcDbPoint
 10
4148.363641455076
 20
4129.64335455545
 30
0.0
  0
POINT
  5
19AC
330
1272
100
AcDbEntity
  8
DEFPOINTS
 62
     0
100
AcDbPoint
 10
4168.363641455068
 20
3929.646241024635
 30
0.0
  0
POINT
  5
19AD
330
1272
100
AcDbEntity
  8
DEFPOINTS
 62
     0
100
AcDbPoint
 10
4168.363641455068
 20
4220.17172330958
 30
0.0
  0
ENDBLK
  5
127E
330
1272
100
AcDbEntity
  8
0
100
AcDbBlockEnd
  0
BLOCK
  5
1289
330
127F
100
AcDbEntity
  8
0
100
AcDbBlockBegin
  2
*D234
 70
     1
 10
0.0
 20
0.0
 30
0.0
  3
*D234
  1

  0
LINE
  5
199B
330
127F
100
AcDbEntity
  8
sunpo
 62
     0
370
    -2
100
AcDbLine
 10
4668.367650833732
 20
3997.146241024636
 30
0.0
 11
4668.367650833732
 21
4238.92172330958
 31
0.0
  0
LINE
  5
199C
330
127F
100
AcDbEntity
  8
sunpo
 62
     0
370
    -2
100
AcDbLine
 10
4168.363641455068
 20
3983.146241024635
 30
0.0
 11
4168.363641455068
 21
4238.92172330958
 31
0.0
  0
LINE
  5
199D
330
127F
100
AcDbEntity
  8
sunpo
 62
     0
370
    -2
100
AcDbLine
 10
4638.367650833732
 20
4220.17172330958
 30
0.0
 11
4198.36364145507
 21
4220.17172330958
 31
0.0
  0
INSERT
  5
199E
330
127F
100
AcDbEntity
  8
sunpo
 62
     0
370
    -2
100
AcDbBlockReference
  2
_OPEN
 10
4668.367650833732
 20
4220.17172330958
 30
0.0
 41
30.0
 42
30.0
 43
30.0
  0
INSERT
  5
199F
330
127F
100
AcDbEntity
  8
sunpo
 62
     0
370
    -2
100
AcDbBlockReference
  2
_OPEN
 10
4168.363641455068
 20
4220.17172330958
 30
0.0
 41
30.0
 42
30.0
 43
30.0
 50
180.0
  0
MTEXT
  5
19A0
330
127F
100
AcDbEntity
  8
sunpo
 62
     0
370
    20
100
AcDbMText
 10
4418.3656461444
 20
4248.29672330958
 30
0.0
 40
37.5
 41
0.0
 71
     5
 72
     1
  1
\A1;500
 73
     1
 44
1.0
1001
ACAD
1000
MTEXTBEGIN
1070
    73
1070
     1
1070
    44
1040
1.0
1070
    74
1070
     0
1000
MTEXTEND
  0
POINT
  5
19A1
330
127F
100
AcDbEntity
  8
DEFPOINTS
 62
     0
100
AcDbPoint
 10
4668.367650833732
 20
3959.646241024636
 30
0.0
  0
POINT
  5
19A2
330
127F
100
AcDbEntity
  8
DEFPOINTS
 62
     0
100
AcDbPoint
 10
4168.363641455068
 20
3945.646241024635
 30
0.0
  0
POINT
  5
19A3
330
127F
100
AcDbEntity
  8
DEFPOINTS
 62
     0
100
AcDbPoint
 10
4168.363641455068
 20
4220.17172330958
 30
0.0
  0
ENDBLK
  5
128A
330
127F
100
AcDbEntity
  8
0
100
AcDbBlockEnd
  0
BLOCK
  5
1295
330
128B
100
AcDbEntity
  8
0
100
AcDbBlockBegin
  2
*D235
 70
     1
 10
0.0
 20
0.0
 30
0.0
  3
*D235
  1

  0
LINE
  5
1992
330
128B
100
AcDbEntity
  8
sunpo
 62
     0
370
    -2
100
AcDbLine
 10
3953.367650833732
 20
4017.143392255584
 30
0.0
 11
3953.367650833732
 21
4363.124589500599
 31
0.0
  0
LINE
  5
1993
330
128B
100
AcDbEntity
  8
sunpo
 62
     0
370
    -2
100
AcDbLine
 10
4668.367650833732
 20
3997.146241024636
 30
0.0
 11
4668.367650833732
 21
4363.124589500599
 31
0.0
  0
LINE
  5
1994
330
128B
100
AcDbEntity
  8
sunpo
 62
     0
370
    -2
100
AcDbLine
 10
3983.367650833732
 20
4344.374589500599
 30
0.0
 11
4638.367650833732
 21
4344.374589500599
 31
0.0
  0
INSERT
  5
1995
330
128B
100
AcDbEntity
  8
sunpo
 62
     0
370
    -2
100
AcDbBlockReference
  2
_OPEN
 10
3953.367650833732
 20
4344.374589500599
 30
0.0
 41
30.0
 42
30.0
 43
30.0
 50
180.0
  0
INSERT
  5
1996
330
128B
100
AcDbEntity
  8
sunpo
 62
     0
370
    -2
100
AcDbBlockReference
  2
_OPEN
 10
4668.367650833732
 20
4344.374589500599
 30
0.0
 41
30.0
 42
30.0
 43
30.0
  0
MTEXT
  5
1997
330
128B
100
AcDbEntity
  8
sunpo
 62
     0
370
    20
100
AcDbMText
 10
4310.867650833732
 20
4372.499589500599
 30
0.0
 40
37.5
 41
0.0
 71
     5
 72
     1
  1
\A1;715
 73
     1
 44
1.0
1001
ACAD
1000
MTEXTBEGIN
1070
    73
1070
     1
1070
    44
1040
1.0
1070
    74
1070
     0
1000
MTEXTEND
  0
POINT
  5
1998
330
128B
100
AcDbEntity
  8
DEFPOINTS
 62
     0
100
AcDbPoint
 10
3953.367650833732
 20
3979.643392255584
 30
0.0
  0
POINT
  5
1999
330
128B
100
AcDbEntity
  8
DEFPOINTS
 62
     0
100
AcDbPoint
 10
4668.367650833732
 20
3959.646241024636
 30
0.0
  0
POINT
  5
199A
330
128B
100
AcDbEntity
  8
DEFPOINTS
 62
     0
100
AcDbPoint
 10
4668.367650833732
 20
4344.374589500599
 30
0.0
  0
ENDBLK
  5
1296
330
128B
100
AcDbEntity
  8
0
100
AcDbBlockEnd
  0
BLOCK
  5
12A1
330
1297
100
AcDbEntity
  8
0
100
AcDbBlockBegin
  2
*D236
 70
     1
 10
0.0
 20
0.0
 30
0.0
  3
*D236
  1

  0
LINE
  5
1989
330
1297
100
AcDbEntity
  8
sunpo
 62
     0
370
    -2
100
AcDbLine
 10
3957.596761108513
 20
4129.64335455545
 30
0.0
 11
3822.561738745082
 21
4129.64335455545
 31
0.0
  0
LINE
  5
198A
330
1297
100
AcDbEntity
  8
sunpo
 62
     0
370
    -2
100
AcDbLine
 10
3915.867650833732
 20
3979.64335455545
 30
0.0
 11
3822.561738745082
 21
3979.64335455545
 31
0.0
  0
LINE
  5
198B
330
1297
100
AcDbEntity
  8
sunpo
 62
     0
370
    -2
100
AcDbLine
 10
3841.311738745082
 20
4099.64335455545
 30
0.0
 11
3841.311738745082
 21
4009.64335455545
 31
0.0
  0
INSERT
  5
198C
330
1297
100
AcDbEntity
  8
sunpo
 62
     0
370
    -2
100
AcDbBlockReference
  2
_OPEN
 10
3841.311738745082
 20
4129.64335455545
 30
0.0
 41
30.0
 42
30.0
 43
30.0
 50
90.0
  0
INSERT
  5
198D
330
1297
100
AcDbEntity
  8
sunpo
 62
     0
370
    -2
100
AcDbBlockReference
  2
_OPEN
 10
3841.311738745082
 20
3979.64335455545
 30
0.0
 41
30.0
 42
30.0
 43
30.0
 50
270.0
  0
MTEXT
  5
198E
330
1297
100
AcDbEntity
  8
sunpo
 62
     0
370
    20
100
AcDbMText
 10
3813.186738745082
 20
4054.643354555451
 30
0.0
 40
37.5
 41
0.0
 71
     5
 72
     1
  1
\A1;150
 11
0.0000000000000001
 21
1.0
 31
0.0
 73
     1
 44
1.0
1001
ACAD
1000
MTEXTBEGIN
1070
    73
1070
     1
1070
    44
1040
1.0
1070
    74
1070
     0
1000
MTEXTEND
  0
POINT
  5
198F
330
1297
100
AcDbEntity
  8
DEFPOINTS
 62
     0
100
AcDbPoint
 10
3995.096761108513
 20
4129.64335455545
 30
0.0
  0
POINT
  5
1990
330
1297
100
AcDbEntity
  8
DEFPOINTS
 62
     0
100
AcDbPoint
 10
3953.367650833732
 20
3979.64335455545
 30
0.0
  0
POINT
  5
1991
330
1297
100
AcDbEntity
  8
DEFPOINTS
 62
     0
100
AcDbPoint
 10
3841.311738745082
 20
3979.64335455545
 30
0.0
  0
ENDBLK
  5
12A2
330
1297
100
AcDbEntity
  8
0
100
AcDbBlockEnd
  0
BLOCK
  5
12AD
330
12A3
100
AcDbEntity
  8
0
100
AcDbBlockBegin
  2
*D237
 70
     1
 10
0.0
 20
0.0
 30
0.0
  3
*D237
  1

  0
LINE
  5
1980
330
12A3
100
AcDbEntity
  8
sunpo
 62
     0
370
    -2
100
AcDbLine
 10
3957.596761108513
 20
4129.64335455545
 30
0.0
 11
3737.95693692479
 21
4129.64335455545
 31
0.0
  0
LINE
  5
1981
330
12A3
100
AcDbEntity
  8
sunpo
 62
     0
370
    -2
100
AcDbLine
 10
3915.863641455069
 20
3809.646241024636
 30
0.0
 11
3737.95693692479
 21
3809.646241024636
 31
0.0
  0
LINE
  5
1982
330
12A3
100
AcDbEntity
  8
sunpo
 62
     0
370
    -2
100
AcDbLine
 10
3756.70693692479
 20
4099.64335455545
 30
0.0
 11
3756.70693692479
 21
3839.646241024635
 31
0.0
  0
INSERT
  5
1983
330
12A3
100
AcDbEntity
  8
sunpo
 62
     0
370
    -2
100
AcDbBlockReference
  2
_OPEN
 10
3756.70693692479
 20
4129.64335455545
 30
0.0
 41
30.0
 42
30.0
 43
30.0
 50
90.0
  0
INSERT
  5
1984
330
12A3
100
AcDbEntity
  8
sunpo
 62
     0
370
    -2
100
AcDbBlockReference
  2
_OPEN
 10
3756.70693692479
 20
3809.646241024636
 30
0.0
 41
30.0
 42
30.0
 43
30.0
 50
270.0
  0
MTEXT
  5
1985
330
12A3
100
AcDbEntity
  8
sunpo
 62
     0
370
    20
100
AcDbMText
 10
3728.581936924789
 20
3969.644797790044
 30
0.0
 40
37.5
 41
0.0
 71
     5
 72
     1
  1
\A1;320
 11
0.0000000000000001
 21
1.0
 31
0.0
 73
     1
 44
1.0
1001
ACAD
1000
MTEXTBEGIN
1070
    73
1070
     1
1070
    44
1040
1.0
1070
    74
1070
     0
1000
MTEXTEND
  0
POINT
  5
1986
330
12A3
100
AcDbEntity
  8
DEFPOINTS
 62
     0
100
AcDbPoint
 10
3995.096761108513
 20
4129.64335455545
 30
0.0
  0
POINT
  5
1987
330
12A3
100
AcDbEntity
  8
DEFPOINTS
 62
     0
100
AcDbPoint
 10
3953.363641455069
 20
3809.646241024636
 30
0.0
  0
POINT
  5
1988
330
12A3
100
AcDbEntity
  8
DEFPOINTS
 62
     0
100
AcDbPoint
 10
3756.70693692479
 20
3809.646241024636
 30
0.0
  0
ENDBLK
  5
12AE
330
12A3
100
AcDbEntity
  8
0
100
AcDbBlockEnd
  0
BLOCK
  5
12B9
330
12AF
100
AcDbEntity
  8
0
100
AcDbBlockBegin
  2
*D238
 70
     1
 10
0.0
 20
0.0
 30
0.0
  3
*D238
  1

  0
LINE
  5
1977
330
12AF
100
AcDbEntity
  8
sunpo
 62
     0
370
    -2
100
AcDbLine
 10
3915.867650833732
 20
3979.64335455545
 30
0.0
 11
3822.561738745082
 21
3979.64335455545
 31
0.0
  0
LINE
  5
1978
330
12AF
100
AcDbEntity
  8
sunpo
 62
     0
370
    -2
100
AcDbLine
 10
3915.863641455069
 20
3809.646241024636
 30
0.0
 11
3822.561738745082
 21
3809.646241024636
 31
0.0
  0
LINE
  5
1979
330
12AF
100
AcDbEntity
  8
sunpo
 62
     0
370
    -2
100
AcDbLine
 10
3841.311738745082
 20
3949.64335455545
 30
0.0
 11
3841.311738745082
 21
3839.646241024635
 31
0.0
  0
INSERT
  5
197A
330
12AF
100
AcDbEntity
  8
sunpo
 62
     0
370
    -2
100
AcDbBlockReference
  2
_OPEN
 10
3841.311738745082
 20
3979.64335455545
 30
0.0
 41
30.0
 42
30.0
 43
30.0
 50
90.0
  0
INSERT
  5
197B
330
12AF
100
AcDbEntity
  8
sunpo
 62
     0
370
    -2
100
AcDbBlockReference
  2
_OPEN
 10
3841.311738745082
 20
3809.646241024636
 30
0.0
 41
30.0
 42
30.0
 43
30.0
 50
270.0
  0
MTEXT
  5
197C
330
12AF
100
AcDbEntity
  8
sunpo
 62
     0
370
    20
100
AcDbMText
 10
3813.186738745082
 20
3894.644797790043
 30
0.0
 40
37.5
 41
0.0
 71
     5
 72
     1
  1
\A1;170
 11
0.0000000000000001
 21
1.0
 31
0.0
 73
     1
 44
1.0
1001
ACAD
1000
MTEXTBEGIN
1070
    73
1070
     1
1070
    44
1040
1.0
1070
    74
1070
     0
1000
MTEXTEND
  0
POINT
  5
197D
330
12AF
100
AcDbEntity
  8
DEFPOINTS
 62
     0
100
AcDbPoint
 10
3953.367650833732
 20
3979.64335455545
 30
0.0
  0
POINT
  5
197E
330
12AF
100
AcDbEntity
  8
DEFPOINTS
 62
     0
100
AcDbPoint
 10
3953.363641455069
 20
3809.646241024636
 30
0.0
  0
POINT
  5
197F
330
12AF
100
AcDbEntity
  8
DEFPOINTS
 62
     0
100
AcDbPoint
 10
3841.311738745082
 20
3809.646241024636
 30
0.0
  0
ENDBLK
  5
12BA
330
12AF
100
AcDbEntity
  8
0
100
AcDbBlockEnd
  0
BLOCK
  5
12C5
330
12BB
100
AcDbEntity
  8
0
100
AcDbBlockBegin
  2
*D239
 70
     1
 10
0.0
 20
0.0
 30
0.0
  3
*D239
  1

  0
LINE
  5
196E
330
12BB
100
AcDbEntity
  8
sunpo
 62
     0
370
    -2
100
AcDbLine
 10
4444.392542957887
 20
3093.225164337553
 30
0.0
 11
4444.392542957887
 21
2935.131899100423
 31
0.0
  0
LINE
  5
196F
330
12BB
100
AcDbEntity
  8
sunpo
 62
     0
370
    -2
100
AcDbLine
 10
5644.392542957887
 20
3093.225164337553
 30
0.0
 11
5644.392542957887
 21
2935.131899100423
 31
0.0
  0
LINE
  5
1970
330
12BB
100
AcDbEntity
  8
sunpo
 62
     0
370
    -2
100
AcDbLine
 10
4474.392542957886
 20
2953.881899100423
 30
0.0
 11
5614.392542957887
 21
2953.881899100423
 31
0.0
  0
INSERT
  5
1971
330
12BB
100
AcDbEntity
  8
sunpo
 62
     0
370
    -2
100
AcDbBlockReference
  2
_OPEN
 10
4444.392542957887
 20
2953.881899100423
 30
0.0
 41
30.0
 42
30.0
 43
30.0
 50
180.0
  0
INSERT
  5
1972
330
12BB
100
AcDbEntity
  8
sunpo
 62
     0
370
    -2
100
AcDbBlockReference
  2
_OPEN
 10
5644.392542957887
 20
2953.881899100423
 30
0.0
 41
30.0
 42
30.0
 43
30.0
  0
MTEXT
  5
1973
330
12BB
100
AcDbEntity
  8
sunpo
 62
     0
370
    20
100
AcDbMText
 10
5044.392542957886
 20
2982.006899100423
 30
0.0
 40
37.5
 41
0.0
 71
     5
 72
     1
  1
\A1;1200
 73
     1
 44
1.0
1001
ACAD
1000
MTEXTBEGIN
1070
    73
1070
     1
1070
    44
1040
1.0
1070
    74
1070
     0
1000
MTEXTEND
  0
POINT
  5
1974
330
12BB
100
AcDbEntity
  8
DEFPOINTS
 62
     0
100
AcDbPoint
 10
4444.392542957887
 20
3130.725164337553
 30
0.0
  0
POINT
  5
1975
330
12BB
100
AcDbEntity
  8
DEFPOINTS
 62
     0
100
AcDbPoint
 10
5644.392542957887
 20
3130.725164337553
 30
0.0
  0
POINT
  5
1976
330
12BB
100
AcDbEntity
  8
DEFPOINTS
 62
     0
100
AcDbPoint
 10
5644.392542957887
 20
2953.881899100423
 30
0.0
  0
ENDBLK
  5
12C6
330
12BB
100
AcDbEntity
  8
0
100
AcDbBlockEnd
  0
BLOCK
  5
12D1
330
12C7
100
AcDbEntity
  8
0
100
AcDbBlockBegin
  2
*D240
 70
     1
 10
0.0
 20
0.0
 30
0.0
  3
*D240
  1

  0
LINE
  5
1965
330
12C7
100
AcDbEntity
  8
sunpo
 62
     0
370
    -2
100
AcDbLine
 10
4406.892542957886
 20
3450.725164337554
 30
0.0
 11
4158.938805525353
 21
3450.725164337554
 31
0.0
  0
LINE
  5
1966
330
12C7
100
AcDbEntity
  8
sunpo
 62
     0
370
    -2
100
AcDbLine
 10
4406.892542957886
 20
3130.725164337553
 30
0.0
 11
4158.938805525353
 21
3130.725164337553
 31
0.0
  0
LINE
  5
1967
330
12C7
100
AcDbEntity
  8
sunpo
 62
     0
370
    -2
100
AcDbLine
 10
4177.688805525352
 20
3420.725164337553
 30
0.0
 11
4177.688805525352
 21
3160.725164337553
 31
0.0
  0
INSERT
  5
1968
330
12C7
100
AcDbEntity
  8
sunpo
 62
     0
370
    -2
100
AcDbBlockReference
  2
_OPEN
 10
4177.688805525352
 20
3450.725164337554
 30
0.0
 41
30.0
 42
30.0
 43
30.0
 50
90.0
  0
INSERT
  5
1969
330
12C7
100
AcDbEntity
  8
sunpo
 62
     0
370
    -2
100
AcDbBlockReference
  2
_OPEN
 10
4177.688805525352
 20
3130.725164337553
 30
0.0
 41
30.0
 42
30.0
 43
30.0
 50
270.0
  0
MTEXT
  5
196A
330
12C7
100
AcDbEntity
  8
sunpo
 62
     0
370
    20
100
AcDbMText
 10
4149.563805525352
 20
3290.725164337554
 30
0.0
 40
37.5
 41
0.0
 71
     5
 72
     1
  1
\A1;320
 11
0.0000000000000001
 21
1.0
 31
0.0
 73
     1
 44
1.0
1001
ACAD
1000
MTEXTBEGIN
1070
    73
1070
     1
1070
    44
1040
1.0
1070
    74
1070
     0
1000
MTEXTEND
  0
POINT
  5
196B
330
12C7
100
AcDbEntity
  8
DEFPOINTS
 62
     0
100
AcDbPoint
 10
4444.392542957887
 20
3450.725164337554
 30
0.0
  0
POINT
  5
196C
330
12C7
100
AcDbEntity
  8
DEFPOINTS
 62
     0
100
AcDbPoint
 10
4444.392542957887
 20
3130.725164337553
 30
0.0
  0
POINT
  5
196D
330
12C7
100
AcDbEntity
  8
DEFPOINTS
 62
     0
100
AcDbPoint
 10
4177.688805525352
 20
3130.725164337553
 30
0.0
  0
ENDBLK
  5
12D2
330
12C7
100
AcDbEntity
  8
0
100
AcDbBlockEnd
  0
BLOCK
  5
12DD
330
12D3
100
AcDbEntity
  8
0
100
AcDbBlockBegin
  2
*D241
 70
     1
 10
0.0
 20
0.0
 30
0.0
  3
*D241
  1

  0
LINE
  5
195C
330
12D3
100
AcDbEntity
  8
sunpo
 62
     0
370
    -2
100
AcDbLine
 10
4406.892542957886
 20
3130.725164337553
 30
0.0
 11
4306.89849214662
 21
3130.725164337553
 31
0.0
  0
LINE
  5
195D
330
12D3
100
AcDbEntity
  8
sunpo
 62
     0
370
    -2
100
AcDbLine
 10
4406.892542957886
 20
3280.725164337553
 30
0.0
 11
4306.89849214662
 21
3280.725164337553
 31
0.0
  0
LINE
  5
195E
330
12D3
100
AcDbEntity
  8
sunpo
 62
     0
370
    -2
100
AcDbLine
 10
4325.64849214662
 20
3160.725164337553
 30
0.0
 11
4325.64849214662
 21
3250.725164337553
 31
0.0
  0
INSERT
  5
195F
330
12D3
100
AcDbEntity
  8
sunpo
 62
     0
370
    -2
100
AcDbBlockReference
  2
_OPEN
 10
4325.64849214662
 20
3130.725164337553
 30
0.0
 41
30.0
 42
30.0
 43
30.0
 50
270.0
  0
INSERT
  5
1960
330
12D3
100
AcDbEntity
  8
sunpo
 62
     0
370
    -2
100
AcDbBlockReference
  2
_OPEN
 10
4325.64849214662
 20
3280.725164337553
 30
0.0
 41
30.0
 42
30.0
 43
30.0
 50
90.0
  0
MTEXT
  5
1961
330
12D3
100
AcDbEntity
  8
sunpo
 62
     0
370
    20
100
AcDbMText
 10
4297.523492146619
 20
3205.725164337554
 30
0.0
 40
37.5
 41
0.0
 71
     5
 72
     1
  1
\A1;150
 11
0.0000000000000001
 21
1.0
 31
0.0
 73
     1
 44
1.0
1001
ACAD
1000
MTEXTBEGIN
1070
    73
1070
     1
1070
    44
1040
1.0
1070
    74
1070
     0
1000
MTEXTEND
  0
POINT
  5
1962
330
12D3
100
AcDbEntity
  8
DEFPOINTS
 62
     0
100
AcDbPoint
 10
4444.392542957887
 20
3130.725164337553
 30
0.0
  0
POINT
  5
1963
330
12D3
100
AcDbEntity
  8
DEFPOINTS
 62
     0
100
AcDbPoint
 10
4444.392542957887
 20
3280.725164337553
 30
0.0
  0
POINT
  5
1964
330
12D3
100
AcDbEntity
  8
DEFPOINTS
 62
     0
100
AcDbPoint
 10
4325.64849214662
 20
3280.725164337553
 30
0.0
  0
ENDBLK
  5
12DE
330
12D3
100
AcDbEntity
  8
0
100
AcDbBlockEnd
  0
BLOCK
  5
12E9
330
12DF
100
AcDbEntity
  8
0
100
AcDbBlockBegin
  2
*D242
 70
     1
 10
0.0
 20
0.0
 30
0.0
  3
*D242
  1

  0
LINE
  5
1953
330
12DF
100
AcDbEntity
  8
sunpo
 62
     0
370
    -2
100
AcDbLine
 10
5681.892542957887
 20
3130.725164337553
 30
0.0
 11
5847.404312379951
 21
3130.725164337553
 31
0.0
  0
LINE
  5
1954
330
12DF
100
AcDbEntity
  8
sunpo
 62
     0
370
    -2
100
AcDbLine
 10
5681.892542957887
 20
3280.725164337553
 30
0.0
 11
5847.404312379951
 21
3280.725164337553
 31
0.0
  0
LINE
  5
1955
330
12DF
100
AcDbEntity
  8
sunpo
 62
     0
370
    -2
100
AcDbLine
 10
5828.654312379951
 20
3160.725164337553
 30
0.0
 11
5828.654312379951
 21
3250.725164337553
 31
0.0
  0
INSERT
  5
1956
330
12DF
100
AcDbEntity
  8
sunpo
 62
     0
370
    -2
100
AcDbBlockReference
  2
_OPEN
 10
5828.654312379951
 20
3130.725164337553
 30
0.0
 41
30.0
 42
30.0
 43
30.0
 50
270.0
  0
INSERT
  5
1957
330
12DF
100
AcDbEntity
  8
sunpo
 62
     0
370
    -2
100
AcDbBlockReference
  2
_OPEN
 10
5828.654312379951
 20
3280.725164337553
 30
0.0
 41
30.0
 42
30.0
 43
30.0
 50
90.0
  0
MTEXT
  5
1958
330
12DF
100
AcDbEntity
  8
sunpo
 62
     0
370
    20
100
AcDbMText
 10
5800.52931237995
 20
3205.725164337554
 30
0.0
 40
37.5
 41
0.0
 71
     5
 72
     1
  1
\A1;150
 11
0.0000000000000001
 21
1.0
 31
0.0
 73
     1
 44
1.0
1001
ACAD
1000
MTEXTBEGIN
1070
    73
1070
     1
1070
    44
1040
1.0
1070
    74
1070
     0
1000
MTEXTEND
  0
POINT
  5
1959
330
12DF
100
AcDbEntity
  8
DEFPOINTS
 62
     0
100
AcDbPoint
 10
5644.392542957887
 20
3130.725164337553
 30
0.0
  0
POINT
  5
195A
330
12DF
100
AcDbEntity
  8
DEFPOINTS
 62
     0
100
AcDbPoint
 10
5644.392542957887
 20
3280.725164337553
 30
0.0
  0
POINT
  5
195B
330
12DF
100
AcDbEntity
  8
DEFPOINTS
 62
     0
100
AcDbPoint
 10
5828.654312379951
 20
3280.725164337553
 30
0.0
  0
ENDBLK
  5
12EA
330
12DF
100
AcDbEntity
  8
0
100
AcDbBlockEnd
  0
BLOCK
  5
12F5
330
12EB
100
AcDbEntity
  8
0
100
AcDbBlockBegin
  2
*D243
 70
     1
 10
0.0
 20
0.0
 30
0.0
  3
*D243
  1

  0
LINE
  5
179C
330
12EB
100
AcDbEntity
  8
sunpo
 62
     0
370
    -2
100
AcDbLine
 10
565.9823393095084
 20
-800.3277905411049
 30
0.0
 11
472.6764272208584
 21
-800.3277905411049
 31
0.0
  0
LINE
  5
179D
330
12EB
100
AcDbEntity
  8
sunpo
 62
     0
370
    -2
100
AcDbLine
 10
565.9783299308456
 20
-970.3249040719201
 30
0.0
 11
472.6764272208583
 21
-970.3249040719201
 31
0.0
  0
LINE
  5
179E
330
12EB
100
AcDbEntity
  8
sunpo
 62
     0
370
    -2
100
AcDbLine
 10
491.4264272208584
 20
-830.327790541105
 30
0.0
 11
491.4264272208583
 21
-940.3249040719201
 31
0.0
  0
INSERT
  5
179F
330
12EB
100
AcDbEntity
  8
sunpo
 62
     0
370
    -2
100
AcDbBlockReference
  2
_OPEN
 10
491.4264272208584
 20
-800.3277905411049
 30
0.0
 41
30.0
 42
30.0
 43
30.0
 50
90.0
  0
INSERT
  5
17A0
330
12EB
100
AcDbEntity
  8
sunpo
 62
     0
370
    -2
100
AcDbBlockReference
  2
_OPEN
 10
491.4264272208583
 20
-970.3249040719201
 30
0.0
 41
30.0
 42
30.0
 43
30.0
 50
270.0
  0
MTEXT
  5
17A1
330
12EB
100
AcDbEntity
  8
sunpo
 62
     0
370
    20
100
AcDbMText
 10
463.3014272208585
 20
-885.3263473065124
 30
0.0
 40
37.5
 41
0.0
 71
     5
 72
     1
  1
\A1;170
 11
0.0000000000000001
 21
1.0
 31
0.0
 73
     1
 44
1.0
1001
ACAD
1000
MTEXTBEGIN
1070
    73
1070
     1
1070
    44
1040
1.0
1070
    74
1070
     0
1000
MTEXTEND
  0
POINT
  5
17A2
330
12EB
100
AcDbEntity
  8
DEFPOINTS
 62
     0
100
AcDbPoint
 10
603.4823393095084
 20
-800.3277905411049
 30
0.0
  0
POINT
  5
17A3
330
12EB
100
AcDbEntity
  8
DEFPOINTS
 62
     0
100
AcDbPoint
 10
603.4783299308456
 20
-970.3249040719201
 30
0.0
  0
POINT
  5
17A4
330
12EB
100
AcDbEntity
  8
DEFPOINTS
 62
     0
100
AcDbPoint
 10
491.4264272208583
 20
-970.3249040719201
 30
0.0
  0
ENDBLK
  5
12F6
330
12EB
100
AcDbEntity
  8
0
100
AcDbBlockEnd
  0
BLOCK
  5
1301
330
12F7
100
AcDbEntity
  8
0
100
AcDbBlockBegin
  2
*D244
 70
     1
 10
0.0
 20
0.0
 30
0.0
  3
*D244
  1

  0
LINE
  5
1793
330
12F7
100
AcDbEntity
  8
sunpo
 62
     0
370
    -2
100
AcDbLine
 10
1874.153572436926
 20
-800.4766457979966
 30
0.0
 11
1699.336946342913
 21
-800.4766457979966
 31
0.0
  0
LINE
  5
1794
330
12F7
100
AcDbEntity
  8
sunpo
 62
     0
370
    -2
100
AcDbLine
 10
1874.153572436926
 20
-970.4766457979967
 30
0.0
 11
1699.336946342913
 21
-970.4766457979966
 31
0.0
  0
LINE
  5
1795
330
12F7
100
AcDbEntity
  8
sunpo
 62
     0
370
    -2
100
AcDbLine
 10
1718.086946342913
 20
-830.4766457979965
 30
0.0
 11
1718.086946342913
 21
-940.4766457979967
 31
0.0
  0
INSERT
  5
1796
330
12F7
100
AcDbEntity
  8
sunpo
 62
     0
370
    -2
100
AcDbBlockReference
  2
_OPEN
 10
1718.086946342913
 20
-800.4766457979966
 30
0.0
 41
30.0
 42
30.0
 43
30.0
 50
90.0
  0
INSERT
  5
1797
330
12F7
100
AcDbEntity
  8
sunpo
 62
     0
370
    -2
100
AcDbBlockReference
  2
_OPEN
 10
1718.086946342913
 20
-970.4766457979966
 30
0.0
 41
30.0
 42
30.0
 43
30.0
 50
270.0
  0
MTEXT
  5
1798
330
12F7
100
AcDbEntity
  8
sunpo
 62
     0
370
    20
100
AcDbMText
 10
1689.961946342913
 20
-885.4766457979964
 30
0.0
 40
37.5
 41
0.0
 71
     5
 72
     1
  1
\A1;170
 11
0.0000000000000001
 21
1.0
 31
0.0
 73
     1
 44
1.0
1001
ACAD
1000
MTEXTBEGIN
1070
    73
1070
     1
1070
    44
1040
1.0
1070
    74
1070
     0
1000
MTEXTEND
  0
POINT
  5
1799
330
12F7
100
AcDbEntity
  8
DEFPOINTS
 62
     0
100
AcDbPoint
 10
1911.653572436926
 20
-800.4766457979966
 30
0.0
  0
POINT
  5
179A
330
12F7
100
AcDbEntity
  8
DEFPOINTS
 62
     0
100
AcDbPoint
 10
1911.653572436926
 20
-970.4766457979967
 30
0.0
  0
POINT
  5
179B
330
12F7
100
AcDbEntity
  8
DEFPOINTS
 62
     0
100
AcDbPoint
 10
1718.086946342913
 20
-970.4766457979966
 30
0.0
  0
ENDBLK
  5
1302
330
12F7
100
AcDbEntity
  8
0
100
AcDbBlockEnd
  0
BLOCK
  5
130D
330
1303
100
AcDbEntity
  8
0
100
AcDbBlockBegin
  2
*D245
 70
     1
 10
0.0
 20
0.0
 30
0.0
  3
*D245
  1

  0
LINE
  5
178A
330
1303
100
AcDbEntity
  8
sunpo
 62
     0
370
    -2
100
AcDbLine
 10
2089.153572436922
 20
-850.4766457979966
 30
0.0
 11
2043.190923429023
 21
-850.4766457979966
 31
0.0
  0
LINE
  5
178B
330
1303
100
AcDbEntity
  8
sunpo
 62
     0
370
    -2
100
AcDbLine
 10
2077.153572436926
 20
-970.4766457979967
 30
0.0
 11
2043.190923429023
 21
-970.4766457979967
 31
0.0
  0
LINE
  5
178C
330
1303
100
AcDbEntity
  8
sunpo
 62
     0
370
    -2
100
AcDbLine
 10
2061.940923429023
 20
-880.4766457979967
 30
0.0
 11
2061.940923429023
 21
-940.4766457979967
 31
0.0
  0
INSERT
  5
178D
330
1303
100
AcDbEntity
  8
sunpo
 62
     0
370
    -2
100
AcDbBlockReference
  2
_OPEN
 10
2061.940923429023
 20
-850.4766457979966
 30
0.0
 41
30.0
 42
30.0
 43
30.0
 50
90.0
  0
INSERT
  5
178E
330
1303
100
AcDbEntity
  8
sunpo
 62
     0
370
    -2
100
AcDbBlockReference
  2
_OPEN
 10
2061.940923429023
 20
-970.4766457979967
 30
0.0
 41
30.0
 42
30.0
 43
30.0
 50
270.0
  0
MTEXT
  5
178F
330
1303
100
AcDbEntity
  8
sunpo
 62
     0
370
    20
100
AcDbMText
 10
2033.815923429024
 20
-910.4766457979964
 30
0.0
 40
37.5
 41
0.0
 71
     5
 72
     1
  1
\A1;120
 11
0.0000000000000001
 21
1.0
 31
0.0
 73
     1
 44
1.0
1001
ACAD
1000
MTEXTBEGIN
1070
    73
1070
     1
1070
    44
1040
1.0
1070
    74
1070
     0
1000
MTEXTEND
  0
POINT
  5
1790
330
1303
100
AcDbEntity
  8
DEFPOINTS
 62
     0
100
AcDbPoint
 10
2126.653572436922
 20
-850.4766457979966
 30
0.0
  0
POINT
  5
1791
330
1303
100
AcDbEntity
  8
DEFPOINTS
 62
     0
100
AcDbPoint
 10
2114.653572436926
 20
-970.4766457979967
 30
0.0
  0
POINT
  5
1792
330
1303
100
AcDbEntity
  8
DEFPOINTS
 62
     0
100
AcDbPoint
 10
2061.940923429023
 20
-970.4766457979967
 30
0.0
  0
ENDBLK
  5
130E
330
1303
100
AcDbEntity
  8
0
100
AcDbBlockEnd
  0
BLOCK
  5
1319
330
130F
100
AcDbEntity
  8
0
100
AcDbBlockBegin
  2
*D246
 70
     1
 10
0.0
 20
0.0
 30
0.0
  3
*D246
  1

  0
LINE
  5
1781
330
130F
100
AcDbEntity
  8
sunpo
 62
     0
370
    -2
100
AcDbLine
 10
2564.153572436926
 20
-820.4766457979967
 30
0.0
 11
2674.322448550969
 21
-820.4766457979967
 31
0.0
  0
LINE
  5
1782
330
130F
100
AcDbEntity
  8
sunpo
 62
     0
370
    -2
100
AcDbLine
 10
2564.153572436926
 20
-970.4766457979967
 30
0.0
 11
2674.322448550969
 21
-970.4766457979967
 31
0.0
  0
LINE
  5
1783
330
130F
100
AcDbEntity
  8
sunpo
 62
     0
370
    -2
100
AcDbLine
 10
2655.572448550969
 20
-850.4766457979966
 30
0.0
 11
2655.572448550969
 21
-940.4766457979967
 31
0.0
  0
INSERT
  5
1784
330
130F
100
AcDbEntity
  8
sunpo
 62
     0
370
    -2
100
AcDbBlockReference
  2
_OPEN
 10
2655.572448550969
 20
-820.4766457979967
 30
0.0
 41
30.0
 42
30.0
 43
30.0
 50
90.0
  0
INSERT
  5
1785
330
130F
100
AcDbEntity
  8
sunpo
 62
     0
370
    -2
100
AcDbBlockReference
  2
_OPEN
 10
2655.572448550969
 20
-970.4766457979967
 30
0.0
 41
30.0
 42
30.0
 43
30.0
 50
270.0
  0
MTEXT
  5
1786
330
130F
100
AcDbEntity
  8
sunpo
 62
     0
370
    20
100
AcDbMText
 10
2627.447448550969
 20
-895.4766457979962
 30
0.0
 40
37.5
 41
0.0
 71
     5
 72
     1
  1
\A1;150
 11
0.0000000000000001
 21
1.0
 31
0.0
 73
     1
 44
1.0
1001
ACAD
1000
MTEXTBEGIN
1070
    73
1070
     1
1070
    44
1040
1.0
1070
    74
1070
     0
1000
MTEXTEND
  0
POINT
  5
1787
330
130F
100
AcDbEntity
  8
DEFPOINTS
 62
     0
100
AcDbPoint
 10
2526.653572436926
 20
-820.4766457979967
 30
0.0
  0
POINT
  5
1788
330
130F
100
AcDbEntity
  8
DEFPOINTS
 62
     0
100
AcDbPoint
 10
2526.653572436926
 20
-970.4766457979967
 30
0.0
  0
POINT
  5
1789
330
130F
100
AcDbEntity
  8
DEFPOINTS
 62
     0
100
AcDbPoint
 10
2655.572448550969
 20
-970.4766457979967
 30
0.0
  0
ENDBLK
  5
131A
330
130F
100
AcDbEntity
  8
0
100
AcDbBlockEnd
  0
BLOCK
  5
1325
330
131B
100
AcDbEntity
  8
0
100
AcDbBlockBegin
  2
*D247
 70
     1
 10
0.0
 20
0.0
 30
0.0
  3
*D247
  1

  0
LINE
  5
1778
330
131B
100
AcDbEntity
  8
sunpo
 62
     0
370
    -2
100
AcDbLine
 10
1255.978329930846
 20
-820.3249040719201
 30
0.0
 11
1398.341578452209
 21
-820.3249040719203
 31
0.0
  0
LINE
  5
1779
330
131B
100
AcDbEntity
  8
sunpo
 62
     0
370
    -2
100
AcDbLine
 10
1255.978329930846
 20
-970.3249040719201
 30
0.0
 11
1398.341578452209
 21
-970.3249040719203
 31
0.0
  0
LINE
  5
177A
330
131B
100
AcDbEntity
  8
sunpo
 62
     0
370
    -2
100
AcDbLine
 10
1379.591578452209
 20
-850.3249040719202
 30
0.0
 11
1379.591578452209
 21
-940.3249040719202
 31
0.0
  0
INSERT
  5
177B
330
131B
100
AcDbEntity
  8
sunpo
 62
     0
370
    -2
100
AcDbBlockReference
  2
_OPEN
 10
1379.591578452209
 20
-820.3249040719203
 30
0.0
 41
30.0
 42
30.0
 43
30.0
 50
90.0
  0
INSERT
  5
177C
330
131B
100
AcDbEntity
  8
sunpo
 62
     0
370
    -2
100
AcDbBlockReference
  2
_OPEN
 10
1379.591578452209
 20
-970.3249040719203
 30
0.0
 41
30.0
 42
30.0
 43
30.0
 50
270.0
  0
MTEXT
  5
177D
330
131B
100
AcDbEntity
  8
sunpo
 62
     0
370
    20
100
AcDbMText
 10
1351.466578452209
 20
-895.32490407192
 30
0.0
 40
37.5
 41
0.0
 71
     5
 72
     1
  1
\A1;150
 11
0.0000000000000001
 21
1.0
 31
0.0
 73
     1
 44
1.0
1001
ACAD
1000
MTEXTBEGIN
1070
    73
1070
     1
1070
    44
1040
1.0
1070
    74
1070
     0
1000
MTEXTEND
  0
POINT
  5
177E
330
131B
100
AcDbEntity
  8
DEFPOINTS
 62
     0
100
AcDbPoint
 10
1218.478329930845
 20
-820.3249040719201
 30
0.0
  0
POINT
  5
177F
330
131B
100
AcDbEntity
  8
DEFPOINTS
 62
     0
100
AcDbPoint
 10
1218.478329930845
 20
-970.3249040719201
 30
0.0
  0
POINT
  5
1780
330
131B
100
AcDbEntity
  8
DEFPOINTS
 62
     0
100
AcDbPoint
 10
1379.591578452209
 20
-970.3249040719203
 30
0.0
  0
ENDBLK
  5
1326
330
131B
100
AcDbEntity
  8
0
100
AcDbBlockEnd
  0
BLOCK
  5
1331
330
1327
100
AcDbEntity
  8
0
100
AcDbBlockBegin
  2
*D248
 70
     1
 10
0.0
 20
0.0
 30
0.0
  3
*D248
  1

  0
LINE
  5
176F
330
1327
100
AcDbEntity
  8
sunpo
 62
     0
370
    -2
100
AcDbLine
 10
2126.653572436922
 20
-812.9766457979966
 30
0.0
 11
2126.653572436922
 21
-541.0494217869746
 31
0.0
  0
LINE
  5
1770
330
1327
100
AcDbEntity
  8
sunpo
 62
     0
370
    -2
100
AcDbLine
 10
2526.653572436926
 20
-782.9766457979967
 30
0.0
 11
2526.653572436926
 21
-541.0494217869746
 31
0.0
  0
LINE
  5
1771
330
1327
100
AcDbEntity
  8
sunpo
 62
     0
370
    -2
100
AcDbLine
 10
2156.653572436923
 20
-559.7994217869746
 30
0.0
 11
2496.653572436926
 21
-559.7994217869746
 31
0.0
  0
INSERT
  5
1772
330
1327
100
AcDbEntity
  8
sunpo
 62
     0
370
    -2
100
AcDbBlockReference
  2
_OPEN
 10
2126.653572436922
 20
-559.7994217869746
 30
0.0
 41
30.0
 42
30.0
 43
30.0
 50
180.0
  0
INSERT
  5
1773
330
1327
100
AcDbEntity
  8
sunpo
 62
     0
370
    -2
100
AcDbBlockReference
  2
_OPEN
 10
2526.653572436926
 20
-559.7994217869746
 30
0.0
 41
30.0
 42
30.0
 43
30.0
  0
MTEXT
  5
1774
330
1327
100
AcDbEntity
  8
sunpo
 62
     0
370
    20
100
AcDbMText
 10
2326.653572436924
 20
-531.6744217869746
 30
0.0
 40
37.5
 41
0.0
 71
     5
 72
     1
  1
\A1;400
 73
     1
 44
1.0
1001
ACAD
1000
MTEXTBEGIN
1070
    73
1070
     1
1070
    44
1040
1.0
1070
    74
1070
     0
1000
MTEXTEND
  0
POINT
  5
1775
330
1327
100
AcDbEntity
  8
DEFPOINTS
 62
     0
100
AcDbPoint
 10
2126.653572436922
 20
-850.4766457979966
 30
0.0
  0
POINT
  5
1776
330
1327
100
AcDbEntity
  8
DEFPOINTS
 62
     0
100
AcDbPoint
 10
2526.653572436926
 20
-820.4766457979967
 30
0.0
  0
POINT
  5
1777
330
1327
100
AcDbEntity
  8
DEFPOINTS
 62
     0
100
AcDbPoint
 10
2526.653572436926
 20
-559.7994217869746
 30
0.0
  0
ENDBLK
  5
1332
330
1327
100
AcDbEntity
  8
0
100
AcDbBlockEnd
  0
BLOCK
  5
133D
330
1333
100
AcDbEntity
  8
0
100
AcDbBlockBegin
  2
*D249
 70
     1
 10
0.0
 20
0.0
 30
0.0
  3
*D249
  1

  0
LINE
  5
1766
330
1333
100
AcDbEntity
  8
sunpo
 62
     0
370
    -2
100
AcDbLine
 10
1911.653572436926
 20
-762.9766457979967
 30
0.0
 11
1911.653572436926
 21
-416.9982973220321
 31
0.0
  0
LINE
  5
1767
330
1333
100
AcDbEntity
  8
sunpo
 62
     0
370
    -2
100
AcDbLine
 10
2526.653572436926
 20
-782.9766457979967
 30
0.0
 11
2526.653572436926
 21
-416.9982973220321
 31
0.0
  0
LINE
  5
1768
330
1333
100
AcDbEntity
  8
sunpo
 62
     0
370
    -2
100
AcDbLine
 10
1941.653572436926
 20
-435.7482973220321
 30
0.0
 11
2496.653572436926
 21
-435.7482973220321
 31
0.0
  0
INSERT
  5
1769
330
1333
100
AcDbEntity
  8
sunpo
 62
     0
370
    -2
100
AcDbBlockReference
  2
_OPEN
 10
1911.653572436926
 20
-435.7482973220321
 30
0.0
 41
30.0
 42
30.0
 43
30.0
 50
180.0
  0
INSERT
  5
176A
330
1333
100
AcDbEntity
  8
sunpo
 62
     0
370
    -2
100
AcDbBlockReference
  2
_OPEN
 10
2526.653572436926
 20
-435.7482973220321
 30
0.0
 41
30.0
 42
30.0
 43
30.0
  0
MTEXT
  5
176B
330
1333
100
AcDbEntity
  8
sunpo
 62
     0
370
    20
100
AcDbMText
 10
2219.153572436926
 20
-407.6232973220321
 30
0.0
 40
37.5
 41
0.0
 71
     5
 72
     1
  1
\A1;615
 73
     1
 44
1.0
1001
ACAD
1000
MTEXTBEGIN
1070
    73
1070
     1
1070
    44
1040
1.0
1070
    74
1070
     0
1000
MTEXTEND
  0
POINT
  5
176C
330
1333
100
AcDbEntity
  8
DEFPOINTS
 62
     0
100
AcDbPoint
 10
1911.653572436926
 20
-800.4766457979966
 30
0.0
  0
POINT
  5
176D
330
1333
100
AcDbEntity
  8
DEFPOINTS
 62
     0
100
AcDbPoint
 10
2526.653572436926
 20
-820.4766457979967
 30
0.0
  0
POINT
  5
176E
330
1333
100
AcDbEntity
  8
DEFPOINTS
 62
     0
100
AcDbPoint
 10
2526.653572436926
 20
-435.7482973220321
 30
0.0
  0
ENDBLK
  5
133E
330
1333
100
AcDbEntity
  8
0
100
AcDbBlockEnd
  0
BLOCK
  5
1349
330
133F
100
AcDbEntity
  8
0
100
AcDbBlockBegin
  2
*D250
 70
     1
 10
0.0
 20
0.0
 30
0.0
  3
*D250
  1

  0
LINE
  5
175D
330
133F
100
AcDbEntity
  8
sunpo
 62
     0
370
    -2
100
AcDbLine
 10
603.4823393095084
 20
-762.8277528409707
 30
0.0
 11
603.4823393095084
 21
-416.8465555959556
 31
0.0
  0
LINE
  5
175E
330
133F
100
AcDbEntity
  8
sunpo
 62
     0
370
    -2
100
AcDbLine
 10
1218.478329930845
 20
-782.8249040719201
 30
0.0
 11
1218.478329930845
 21
-416.8465555959556
 31
0.0
  0
LINE
  5
175F
330
133F
100
AcDbEntity
  8
sunpo
 62
     0
370
    -2
100
AcDbLine
 10
633.4823393095084
 20
-435.5965555959556
 30
0.0
 11
1188.478329930845
 21
-435.5965555959556
 31
0.0
  0
INSERT
  5
1760
330
133F
100
AcDbEntity
  8
sunpo
 62
     0
370
    -2
100
AcDbBlockReference
  2
_OPEN
 10
603.4823393095084
 20
-435.5965555959556
 30
0.0
 41
30.0
 42
30.0
 43
30.0
 50
180.0
  0
INSERT
  5
1761
330
133F
100
AcDbEntity
  8
sunpo
 62
     0
370
    -2
100
AcDbBlockReference
  2
_OPEN
 10
1218.478329930845
 20
-435.5965555959556
 30
0.0
 41
30.0
 42
30.0
 43
30.0
  0
MTEXT
  5
1762
330
133F
100
AcDbEntity
  8
sunpo
 62
     0
370
    20
100
AcDbMText
 10
910.980334620177
 20
-407.4715555959556
 30
0.0
 40
37.5
 41
0.0
 71
     5
 72
     1
  1
\A1;615
 73
     1
 44
1.0
1001
ACAD
1000
MTEXTBEGIN
1070
    73
1070
     1
1070
    44
1040
1.0
1070
    74
1070
     0
1000
MTEXTEND
  0
POINT
  5
1763
330
133F
100
AcDbEntity
  8
DEFPOINTS
 62
     0
100
AcDbPoint
 10
603.4823393095084
 20
-800.3277528409707
 30
0.0
  0
POINT
  5
1764
330
133F
100
AcDbEntity
  8
DEFPOINTS
 62
     0
100
AcDbPoint
 10
1218.478329930845
 20
-820.3249040719201
 30
0.0
  0
POINT
  5
1765
330
133F
100
AcDbEntity
  8
DEFPOINTS
 62
     0
100
AcDbPoint
 10
1218.478329930845
 20
-435.5965555959556
 30
0.0
  0
ENDBLK
  5
134A
330
133F
100
AcDbEntity
  8
0
100
AcDbBlockEnd
  0
BLOCK
  5
1355
330
134B
100
AcDbEntity
  8
0
100
AcDbBlockBegin
  2
*D251
 70
     1
 10
0.0
 20
0.0
 30
0.0
  3
*D251
  1

  0
LINE
  5
1754
330
134B
100
AcDbEntity
  8
sunpo
 62
     0
370
    -2
100
AcDbLine
 10
1218.478329930845
 20
-782.8249362710121
 30
0.0
 11
1218.478329930845
 21
-541.0494217869746
 31
0.0
  0
LINE
  5
1755
330
134B
100
AcDbEntity
  8
sunpo
 62
     0
370
    -2
100
AcDbLine
 10
818.4783299308456
 20
-796.8249040719201
 30
0.0
 11
818.4783299308456
 21
-541.0494217869746
 31
0.0
  0
LINE
  5
1756
330
134B
100
AcDbEntity
  8
sunpo
 62
     0
370
    -2
100
AcDbLine
 10
1188.478329930845
 20
-559.7994217869746
 30
0.0
 11
848.4783299308455
 21
-559.7994217869746
 31
0.0
  0
INSERT
  5
1757
330
134B
100
AcDbEntity
  8
sunpo
 62
     0
370
    -2
100
AcDbBlockReference
  2
_OPEN
 10
1218.478329930845
 20
-559.7994217869746
 30
0.0
 41
30.0
 42
30.0
 43
30.0
  0
INSERT
  5
1758
330
134B
100
AcDbEntity
  8
sunpo
 62
     0
370
    -2
100
AcDbBlockReference
  2
_OPEN
 10
818.4783299308456
 20
-559.7994217869746
 30
0.0
 41
30.0
 42
30.0
 43
30.0
 50
180.0
  0
MTEXT
  5
1759
330
134B
100
AcDbEntity
  8
sunpo
 62
     0
370
    20
100
AcDbMText
 10
1018.478329930845
 20
-531.6744217869746
 30
0.0
 40
37.5
 41
0.0
 71
     5
 72
     1
  1
\A1;400
 73
     1
 44
1.0
1001
ACAD
1000
MTEXTBEGIN
1070
    73
1070
     1
1070
    44
1040
1.0
1070
    74
1070
     0
1000
MTEXTEND
  0
POINT
  5
175A
330
134B
100
AcDbEntity
  8
DEFPOINTS
 62
     0
100
AcDbPoint
 10
1218.478329930845
 20
-820.3249362710121
 30
0.0
  0
POINT
  5
175B
330
134B
100
AcDbEntity
  8
DEFPOINTS
 62
     0
100
AcDbPoint
 10
818.4783299308456
 20
-834.3249040719202
 30
0.0
  0
POINT
  5
175C
330
134B
100
AcDbEntity
  8
DEFPOINTS
 62
     0
100
AcDbPoint
 10
818.4783299308456
 20
-559.7994217869746
 30
0.0
  0
ENDBLK
  5
1356
330
134B
100
AcDbEntity
  8
0
100
AcDbBlockEnd
  0
BLOCK
  5
1361
330
1357
100
AcDbEntity
  8
0
100
AcDbBlockBegin
  2
*D252
 70
     1
 10
0.0
 20
0.0
 30
0.0
  3
*D252
  1

  0
LINE
  5
174B
330
1357
100
AcDbEntity
  8
sunpo
 62
     0
370
    -2
100
AcDbLine
 10
607.7114495842888
 20
-650.327790541105
 30
0.0
 11
388.0716254005657
 21
-650.327790541105
 31
0.0
  0
LINE
  5
174C
330
1357
100
AcDbEntity
  8
sunpo
 62
     0
370
    -2
100
AcDbLine
 10
565.9783299308456
 20
-970.3249040719201
 30
0.0
 11
388.0716254005656
 21
-970.3249040719201
 31
0.0
  0
LINE
  5
174D
330
1357
100
AcDbEntity
  8
sunpo
 62
     0
370
    -2
100
AcDbLine
 10
406.8216254005657
 20
-680.327790541105
 30
0.0
 11
406.8216254005656
 21
-940.3249040719201
 31
0.0
  0
INSERT
  5
174E
330
1357
100
AcDbEntity
  8
sunpo
 62
     0
370
    -2
100
AcDbBlockReference
  2
_OPEN
 10
406.8216254005657
 20
-650.327790541105
 30
0.0
 41
30.0
 42
30.0
 43
30.0
 50
90.0
  0
INSERT
  5
174F
330
1357
100
AcDbEntity
  8
sunpo
 62
     0
370
    -2
100
AcDbBlockReference
  2
_OPEN
 10
406.8216254005656
 20
-970.3249040719201
 30
0.0
 41
30.0
 42
30.0
 43
30.0
 50
270.0
  0
MTEXT
  5
1750
330
1357
100
AcDbEntity
  8
sunpo
 62
     0
370
    20
100
AcDbMText
 10
378.6966254005658
 20
-810.3263473065124
 30
0.0
 40
37.5
 41
0.0
 71
     5
 72
     1
  1
\A1;320
 11
0.0000000000000001
 21
1.0
 31
0.0
 73
     1
 44
1.0
1001
ACAD
1000
MTEXTBEGIN
1070
    73
1070
     1
1070
    44
1040
1.0
1070
    74
1070
     0
1000
MTEXTEND
  0
POINT
  5
1751
330
1357
100
AcDbEntity
  8
DEFPOINTS
 62
     0
100
AcDbPoint
 10
645.2114495842888
 20
-650.327790541105
 30
0.0
  0
POINT
  5
1752
330
1357
100
AcDbEntity
  8
DEFPOINTS
 62
     0
100
AcDbPoint
 10
603.4783299308456
 20
-970.3249040719201
 30
0.0
  0
POINT
  5
1753
330
1357
100
AcDbEntity
  8
DEFPOINTS
 62
     0
100
AcDbPoint
 10
406.8216254005656
 20
-970.3249040719201
 30
0.0
  0
ENDBLK
  5
1362
330
1357
100
AcDbEntity
  8
0
100
AcDbBlockEnd
  0
BLOCK
  5
136E
330
1363
100
AcDbEntity
  8
0
100
AcDbBlockBegin
  2
*D253
 70
     1
 10
0.0
 20
0.0
 30
0.0
  3
*D253
  1

  0
LINE
  5
1741
330
1363
100
AcDbEntity
  8
sunpo
 62
     0
370
    -2
100
AcDbLine
 10
2106.653572436929
 20
-782.9766457979967
 30
0.0
 11
2106.653572436929
 21
-541.0494217869746
 31
0.0
  0
LINE
  5
1742
330
1363
100
AcDbEntity
  8
sunpo
 62
     0
370
    -2
100
AcDbLine
 10
2126.653572436922
 20
-812.9766457979966
 30
0.0
 11
2126.653572436922
 21
-541.0494217869746
 31
0.0
  0
LINE
  5
1743
330
1363
100
AcDbEntity
  8
sunpo
 62
     0
370
    -2
100
AcDbLine
 10
2076.65357243693
 20
-559.7994217869746
 30
0.0
 11
2046.65357243693
 21
-559.7994217869746
 31
0.0
  0
LINE
  5
1744
330
1363
100
AcDbEntity
  8
sunpo
 62
     0
370
    -2
100
AcDbLine
 10
2156.653572436923
 20
-559.7994217869746
 30
0.0
 11
2186.653572436922
 21
-559.7994217869746
 31
0.0
  0
MTEXT
  5
1745
330
1363
100
AcDbEntity
  8
sunpo
 62
     0
370
    20
100
AcDbMText
 10
2116.653572436926
 20
-508.2369217869746
 30
0.0
 40
37.5
 41
0.0
 71
     5
 72
     1
  1
\A1;20
 73
     1
 44
1.0
1001
ACAD
1000
MTEXTBEGIN
1070
    73
1070
     1
1070
    44
1040
1.0
1070
    74
1070
     0
1000
MTEXTEND
  0
INSERT
  5
1746
330
1363
100
AcDbEntity
  8
sunpo
 62
     0
370
    -2
100
AcDbBlockReference
  2
_OPEN
 10
2106.653572436929
 20
-559.7994217869746
 30
0.0
 41
30.0
 42
30.0
 43
30.0
  0
INSERT
  5
1747
330
1363
100
AcDbEntity
  8
sunpo
 62
     0
370
    -2
100
AcDbBlockReference
  2
_OPEN
 10
2126.653572436922
 20
-559.7994217869746
 30
0.0
 41
30.0
 42
30.0
 43
30.0
 50
180.0
  0
POINT
  5
1748
330
1363
100
AcDbEntity
  8
DEFPOINTS
 62
     0
100
AcDbPoint
 10
2106.653572436929
 20
-820.4766457979967
 30
0.0
  0
POINT
  5
1749
330
1363
100
AcDbEntity
  8
DEFPOINTS
 62
     0
100
AcDbPoint
 10
2126.653572436922
 20
-850.4766457979966
 30
0.0
  0
POINT
  5
174A
330
1363
100
AcDbEntity
  8
DEFPOINTS
 62
     0
100
AcDbPoint
 10
2126.653572436922
 20
-559.7994217869746
 30
0.0
  0
ENDBLK
  5
136F
330
1363
100
AcDbEntity
  8
0
100
AcDbBlockEnd
  0
BLOCK
  5
137B
330
1370
100
AcDbEntity
  8
0
100
AcDbBlockBegin
  2
*D254
 70
     1
 10
0.0
 20
0.0
 30
0.0
  3
*D254
  1

  0
LINE
  5
1737
330
1370
100
AcDbEntity
  8
sunpo
 62
     0
370
    -2
100
AcDbLine
 10
1911.653572436926
 20
-762.9766457979967
 30
0.0
 11
1911.653572436926
 21
-541.0494217869746
 31
0.0
  0
LINE
  5
1738
330
1370
100
AcDbEntity
  8
sunpo
 62
     0
370
    -2
100
AcDbLine
 10
1971.653572436926
 20
-762.9766457979967
 30
0.0
 11
1971.653572436926
 21
-541.0494217869746
 31
0.0
  0
LINE
  5
1739
330
1370
100
AcDbEntity
  8
sunpo
 62
     0
370
    -2
100
AcDbLine
 10
1881.653572436926
 20
-559.7994217869746
 30
0.0
 11
1851.653572436926
 21
-559.7994217869746
 31
0.0
  0
LINE
  5
173A
330
1370
100
AcDbEntity
  8
sunpo
 62
     0
370
    -2
100
AcDbLine
 10
2001.653572436926
 20
-559.7994217869746
 30
0.0
 11
2031.653572436926
 21
-559.7994217869746
 31
0.0
  0
MTEXT
  5
173B
330
1370
100
AcDbEntity
  8
sunpo
 62
     0
370
    20
100
AcDbMText
 10
1941.653572436926
 20
-508.2369217869746
 30
0.0
 40
37.5
 41
0.0
 71
     5
 72
     1
  1
\A1;60
 73
     1
 44
1.0
1001
ACAD
1000
MTEXTBEGIN
1070
    73
1070
     1
1070
    44
1040
1.0
1070
    74
1070
     0
1000
MTEXTEND
  0
INSERT
  5
173C
330
1370
100
AcDbEntity
  8
sunpo
 62
     0
370
    -2
100
AcDbBlockReference
  2
_OPEN
 10
1911.653572436926
 20
-559.7994217869746
 30
0.0
 41
30.0
 42
30.0
 43
30.0
  0
INSERT
  5
173D
330
1370
100
AcDbEntity
  8
sunpo
 62
     0
370
    -2
100
AcDbBlockReference
  2
_OPEN
 10
1971.653572436926
 20
-559.7994217869746
 30
0.0
 41
30.0
 42
30.0
 43
30.0
 50
180.0
  0
POINT
  5
173E
330
1370
100
AcDbEntity
  8
DEFPOINTS
 62
     0
100
AcDbPoint
 10
1911.653572436926
 20
-800.4766457979966
 30
0.0
  0
POINT
  5
173F
330
1370
100
AcDbEntity
  8
DEFPOINTS
 62
     0
100
AcDbPoint
 10
1971.653572436926
 20
-800.4766457979966
 30
0.0
  0
POINT
  5
1740
330
1370
100
AcDbEntity
  8
DEFPOINTS
 62
     0
100
AcDbPoint
 10
1971.653572436926
 20
-559.7994217869746
 30
0.0
  0
ENDBLK
  5
137C
330
1370
100
AcDbEntity
  8
0
100
AcDbBlockEnd
  0
BLOCK
  5
1387
330
137D
100
AcDbEntity
  8
0
100
AcDbBlockBegin
  2
*D255
 70
     1
 10
0.0
 20
0.0
 30
0.0
  3
*D255
  1

  0
LINE
  5
172E
330
137D
100
AcDbEntity
  8
sunpo
 62
     0
370
    -2
100
AcDbLine
 10
1971.653572436926
 20
-762.9766457979967
 30
0.0
 11
1971.653572436926
 21
-541.0494217869746
 31
0.0
  0
LINE
  5
172F
330
137D
100
AcDbEntity
  8
sunpo
 62
     0
370
    -2
100
AcDbLine
 10
2106.653572436929
 20
-782.9766457979967
 30
0.0
 11
2106.653572436929
 21
-541.0494217869746
 31
0.0
  0
LINE
  5
1730
330
137D
100
AcDbEntity
  8
sunpo
 62
     0
370
    -2
100
AcDbLine
 10
2001.653572436926
 20
-559.7994217869746
 30
0.0
 11
2076.65357243693
 21
-559.7994217869746
 31
0.0
  0
INSERT
  5
1731
330
137D
100
AcDbEntity
  8
sunpo
 62
     0
370
    -2
100
AcDbBlockReference
  2
_OPEN
 10
1971.653572436926
 20
-559.7994217869746
 30
0.0
 41
30.0
 42
30.0
 43
30.0
 50
180.0
  0
INSERT
  5
1732
330
137D
100
AcDbEntity
  8
sunpo
 62
     0
370
    -2
100
AcDbBlockReference
  2
_OPEN
 10
2106.653572436929
 20
-559.7994217869746
 30
0.0
 41
30.0
 42
30.0
 43
30.0
  0
MTEXT
  5
1733
330
137D
100
AcDbEntity
  8
sunpo
 62
     0
370
    20
100
AcDbMText
 10
2039.153572436928
 20
-531.6744217869746
 30
0.0
 40
37.5
 41
0.0
 71
     5
 72
     1
  1
\A1;135
 73
     1
 44
1.0
1001
ACAD
1000
MTEXTBEGIN
1070
    73
1070
     1
1070
    44
1040
1.0
1070
    74
1070
     0
1000
MTEXTEND
  0
POINT
  5
1734
330
137D
100
AcDbEntity
  8
DEFPOINTS
 62
     0
100
AcDbPoint
 10
1971.653572436926
 20
-800.4766457979966
 30
0.0
  0
POINT
  5
1735
330
137D
100
AcDbEntity
  8
DEFPOINTS
 62
     0
100
AcDbPoint
 10
2106.653572436929
 20
-820.4766457979967
 30
0.0
  0
POINT
  5
1736
330
137D
100
AcDbEntity
  8
DEFPOINTS
 62
     0
100
AcDbPoint
 10
2106.653572436929
 20
-559.7994217869746
 30
0.0
  0
ENDBLK
  5
1388
330
137D
100
AcDbEntity
  8
0
100
AcDbBlockEnd
  0
BLOCK
  5
1393
330
1389
100
AcDbEntity
  8
0
100
AcDbBlockBegin
  2
*D256
 70
     1
 10
0.0
 20
0.0
 30
0.0
  3
*D256
  1

  0
LINE
  5
1725
330
1389
100
AcDbEntity
  8
sunpo
 62
     0
370
    -2
100
AcDbLine
 10
1874.153572436926
 20
-850.4766457979966
 30
0.0
 11
1809.674858590059
 21
-850.4766457979966
 31
0.0
  0
LINE
  5
1726
330
1389
100
AcDbEntity
  8
sunpo
 62
     0
370
    -2
100
AcDbLine
 10
1874.153572436926
 20
-970.4766457979967
 30
0.0
 11
1809.674858590059
 21
-970.4766457979967
 31
0.0
  0
LINE
  5
1727
330
1389
100
AcDbEntity
  8
sunpo
 62
     0
370
    -2
100
AcDbLine
 10
1828.424858590059
 20
-880.4766457979967
 30
0.0
 11
1828.424858590059
 21
-940.4766457979967
 31
0.0
  0
INSERT
  5
1728
330
1389
100
AcDbEntity
  8
sunpo
 62
     0
370
    -2
100
AcDbBlockReference
  2
_OPEN
 10
1828.424858590059
 20
-850.4766457979966
 30
0.0
 41
30.0
 42
30.0
 43
30.0
 50
90.0
  0
INSERT
  5
1729
330
1389
100
AcDbEntity
  8
sunpo
 62
     0
370
    -2
100
AcDbBlockReference
  2
_OPEN
 10
1828.424858590059
 20
-970.4766457979967
 30
0.0
 41
30.0
 42
30.0
 43
30.0
 50
270.0
  0
MTEXT
  5
172A
330
1389
100
AcDbEntity
  8
sunpo
 62
     0
370
    20
100
AcDbMText
 10
1800.299858590059
 20
-910.4766457979964
 30
0.0
 40
37.5
 41
0.0
 71
     5
 72
     1
  1
\A1;120
 11
0.0000000000000001
 21
1.0
 31
0.0
 73
     1
 44
1.0
1001
ACAD
1000
MTEXTBEGIN
1070
    73
1070
     1
1070
    44
1040
1.0
1070
    74
1070
     0
1000
MTEXTEND
  0
POINT
  5
172B
330
1389
100
AcDbEntity
  8
DEFPOINTS
 62
     0
100
AcDbPoint
 10
1911.653572436926
 20
-850.4766457979966
 30
0.0
  0
POINT
  5
172C
330
1389
100
AcDbEntity
  8
DEFPOINTS
 62
     0
100
AcDbPoint
 10
1911.653572436926
 20
-970.4766457979967
 30
0.0
  0
POINT
  5
172D
330
1389
100
AcDbEntity
  8
DEFPOINTS
 62
     0
100
AcDbPoint
 10
1828.424858590059
 20
-970.4766457979967
 30
0.0
  0
ENDBLK
  5
1394
330
1389
100
AcDbEntity
  8
0
100
AcDbBlockEnd
  0
BLOCK
  5
13A0
330
1395
100
AcDbEntity
  8
0
100
AcDbBlockBegin
  2
*D257
 70
     1
 10
0.0
 20
0.0
 30
0.0
  3
*D257
  1

  0
LINE
  5
171B
330
1395
100
AcDbEntity
  8
sunpo
 62
     0
370
    -2
100
AcDbLine
 10
1874.153572436926
 20
-800.4766457979966
 30
0.0
 11
1809.674858590059
 21
-800.4766457979966
 31
0.0
  0
LINE
  5
171C
330
1395
100
AcDbEntity
  8
sunpo
 62
     0
370
    -2
100
AcDbLine
 10
1874.153572436926
 20
-850.4766457979966
 30
0.0
 11
1809.674858590059
 21
-850.4766457979966
 31
0.0
  0
LINE
  5
171D
330
1395
100
AcDbEntity
  8
sunpo
 62
     0
370
    -2
100
AcDbLine
 10
1828.424858590059
 20
-770.4766457979967
 30
0.0
 11
1828.424858590059
 21
-740.4766457979967
 31
0.0
  0
LINE
  5
171E
330
1395
100
AcDbEntity
  8
sunpo
 62
     0
370
    -2
100
AcDbLine
 10
1828.424858590059
 20
-880.4766457979967
 30
0.0
 11
1828.424858590059
 21
-910.4766457979968
 31
0.0
  0
MTEXT
  5
171F
330
1395
100
AcDbEntity
  8
sunpo
 62
     0
370
    20
100
AcDbMText
 10
1776.862358590059
 20
-825.4766457979965
 30
0.0
 40
37.5
 41
0.0
 71
     5
 72
     1
  1
\A1;50
 11
0.0000000000000001
 21
1.0
 31
0.0
 73
     1
 44
1.0
1001
ACAD
1000
MTEXTBEGIN
1070
    73
1070
     1
1070
    44
1040
1.0
1070
    74
1070
     0
1000
MTEXTEND
  0
INSERT
  5
1720
330
1395
100
AcDbEntity
  8
sunpo
 62
     0
370
    -2
100
AcDbBlockReference
  2
_OPEN
 10
1828.424858590059
 20
-800.4766457979966
 30
0.0
 41
30.0
 42
30.0
 43
30.0
 50
270.0
  0
INSERT
  5
1721
330
1395
100
AcDbEntity
  8
sunpo
 62
     0
370
    -2
100
AcDbBlockReference
  2
_OPEN
 10
1828.424858590059
 20
-850.4766457979966
 30
0.0
 41
30.0
 42
30.0
 43
30.0
 50
90.0
  0
POINT
  5
1722
330
1395
100
AcDbEntity
  8
DEFPOINTS
 62
     0
100
AcDbPoint
 10
1911.653572436926
 20
-800.4766457979966
 30
0.0
  0
POINT
  5
1723
330
1395
100
AcDbEntity
  8
DEFPOINTS
 62
     0
100
AcDbPoint
 10
1911.653572436926
 20
-850.4766457979966
 30
0.0
  0
POINT
  5
1724
330
1395
100
AcDbEntity
  8
DEFPOINTS
 62
     0
100
AcDbPoint
 10
1828.424858590059
 20
-850.4766457979966
 30
0.0
  0
ENDBLK
  5
13A1
330
1395
100
AcDbEntity
  8
0
100
AcDbBlockEnd
  0
BLOCK
  5
13AD
330
13A2
100
AcDbEntity
  8
0
100
AcDbBlockBegin
  2
*D258
 70
     1
 10
0.0
 20
0.0
 30
0.0
  3
*D258
  1

  0
LINE
  5
1711
330
13A2
100
AcDbEntity
  8
sunpo
 62
     0
370
    -2
100
AcDbLine
 10
798.4783299308528
 20
-612.827790541105
 30
0.0
 11
798.4783299308528
 21
-541.0494217869746
 31
0.0
  0
LINE
  5
1712
330
13A2
100
AcDbEntity
  8
sunpo
 62
     0
370
    -2
100
AcDbLine
 10
818.4783299308456
 20
-812.8249040719202
 30
0.0
 11
818.4783299308456
 21
-541.0494217869746
 31
0.0
  0
LINE
  5
1713
330
13A2
100
AcDbEntity
  8
sunpo
 62
     0
370
    -2
100
AcDbLine
 10
768.4783299308528
 20
-559.7994217869746
 30
0.0
 11
738.4783299308528
 21
-559.7994217869746
 31
0.0
  0
LINE
  5
1714
330
13A2
100
AcDbEntity
  8
sunpo
 62
     0
370
    -2
100
AcDbLine
 10
848.4783299308455
 20
-559.7994217869746
 30
0.0
 11
878.4783299308456
 21
-559.7994217869746
 31
0.0
  0
MTEXT
  5
1715
330
13A2
100
AcDbEntity
  8
sunpo
 62
     0
370
    20
100
AcDbMText
 10
808.4783299308492
 20
-508.2369217869746
 30
0.0
 40
37.5
 41
0.0
 71
     5
 72
     1
  1
\A1;20
 73
     1
 44
1.0
1001
ACAD
1000
MTEXTBEGIN
1070
    73
1070
     1
1070
    44
1040
1.0
1070
    74
1070
     0
1000
MTEXTEND
  0
INSERT
  5
1716
330
13A2
100
AcDbEntity
  8
sunpo
 62
     0
370
    -2
100
AcDbBlockReference
  2
_OPEN
 10
798.4783299308528
 20
-559.7994217869746
 30
0.0
 41
30.0
 42
30.0
 43
30.0
  0
INSERT
  5
1717
330
13A2
100
AcDbEntity
  8
sunpo
 62
     0
370
    -2
100
AcDbBlockReference
  2
_OPEN
 10
818.4783299308456
 20
-559.7994217869746
 30
0.0
 41
30.0
 42
30.0
 43
30.0
 50
180.0
  0
POINT
  5
1718
330
13A2
100
AcDbEntity
  8
DEFPOINTS
 62
     0
100
AcDbPoint
 10
798.4783299308528
 20
-650.327790541105
 30
0.0
  0
POINT
  5
1719
330
13A2
100
AcDbEntity
  8
DEFPOINTS
 62
     0
100
AcDbPoint
 10
818.4783299308456
 20
-850.3249040719202
 30
0.0
  0
POINT
  5
171A
330
13A2
100
AcDbEntity
  8
DEFPOINTS
 62
     0
100
AcDbPoint
 10
818.4783299308456
 20
-559.7994217869746
 30
0.0
  0
ENDBLK
  5
13AE
330
13A2
100
AcDbEntity
  8
0
100
AcDbBlockEnd
  0
BLOCK
  5
13B9
330
13AF
100
AcDbEntity
  8
0
100
AcDbBlockBegin
  2
*D259
 70
     1
 10
0.0
 20
0.0
 30
0.0
  3
*D259
  1

  0
LINE
  5
1708
330
13AF
100
AcDbEntity
  8
sunpo
 62
     0
370
    -2
100
AcDbLine
 10
798.4783299308528
 20
-612.827790541105
 30
0.0
 11
798.4783299308528
 21
-541.0494217869746
 31
0.0
  0
LINE
  5
1709
330
13AF
100
AcDbEntity
  8
sunpo
 62
     0
370
    -2
100
AcDbLine
 10
618.4823393095394
 20
-612.827790541105
 30
0.0
 11
618.4823393095394
 21
-541.0494217869746
 31
0.0
  0
LINE
  5
170A
330
13AF
100
AcDbEntity
  8
sunpo
 62
     0
370
    -2
100
AcDbLine
 10
768.4783299308528
 20
-559.7994217869746
 30
0.0
 11
648.4823393095394
 21
-559.7994217869746
 31
0.0
  0
INSERT
  5
170B
330
13AF
100
AcDbEntity
  8
sunpo
 62
     0
370
    -2
100
AcDbBlockReference
  2
_OPEN
 10
798.4783299308528
 20
-559.7994217869746
 30
0.0
 41
30.0
 42
30.0
 43
30.0
  0
INSERT
  5
170C
330
13AF
100
AcDbEntity
  8
sunpo
 62
     0
370
    -2
100
AcDbBlockReference
  2
_OPEN
 10
618.4823393095394
 20
-559.7994217869746
 30
0.0
 41
30.0
 42
30.0
 43
30.0
 50
180.0
  0
MTEXT
  5
170D
330
13AF
100
AcDbEntity
  8
sunpo
 62
     0
370
    20
100
AcDbMText
 10
708.4803346201961
 20
-531.6744217869746
 30
0.0
 40
37.5
 41
0.0
 71
     5
 72
     1
  1
\A1;180
 73
     1
 44
1.0
1001
ACAD
1000
MTEXTBEGIN
1070
    73
1070
     1
1070
    44
1040
1.0
1070
    74
1070
     0
1000
MTEXTEND
  0
POINT
  5
170E
330
13AF
100
AcDbEntity
  8
DEFPOINTS
 62
     0
100
AcDbPoint
 10
798.4783299308528
 20
-650.327790541105
 30
0.0
  0
POINT
  5
170F
330
13AF
100
AcDbEntity
  8
DEFPOINTS
 62
     0
100
AcDbPoint
 10
618.4823393095394
 20
-650.327790541105
 30
0.0
  0
POINT
  5
1710
330
13AF
100
AcDbEntity
  8
DEFPOINTS
 62
     0
100
AcDbPoint
 10
618.4823393095394
 20
-559.7994217869746
 30
0.0
  0
ENDBLK
  5
13BA
330
13AF
100
AcDbEntity
  8
0
100
AcDbBlockEnd
  0
BLOCK
  5
13C6
330
13BB
100
AcDbEntity
  8
0
100
AcDbBlockBegin
  2
*D260
 70
     1
 10
0.0
 20
0.0
 30
0.0
  3
*D260
  1

  0
LINE
  5
16FE
330
13BB
100
AcDbEntity
  8
sunpo
 62
     0
370
    -2
100
AcDbLine
 10
618.4823393095394
 20
-612.827790541105
 30
0.0
 11
618.4823393095394
 21
-541.0494217869746
 31
0.0
  0
LINE
  5
16FF
330
13BB
100
AcDbEntity
  8
sunpo
 62
     0
370
    -2
100
AcDbLine
 10
603.4823393095084
 20
-762.827790541105
 30
0.0
 11
603.4823393095084
 21
-541.0494217869746
 31
0.0
  0
LINE
  5
1700
330
13BB
100
AcDbEntity
  8
sunpo
 62
     0
370
    -2
100
AcDbLine
 10
648.4823393095394
 20
-559.7994217869746
 30
0.0
 11
678.4823393095393
 21
-559.7994217869746
 31
0.0
  0
LINE
  5
1701
330
13BB
100
AcDbEntity
  8
sunpo
 62
     0
370
    -2
100
AcDbLine
 10
573.4823393095084
 20
-559.7994217869746
 30
0.0
 11
543.4823393095085
 21
-559.7994217869746
 31
0.0
  0
MTEXT
  5
1702
330
13BB
100
AcDbEntity
  8
sunpo
 62
     0
370
    20
100
AcDbMText
 10
610.9823393095239
 20
-508.2369217869746
 30
0.0
 40
37.5
 41
0.0
 71
     5
 72
     1
  1
\A1;15
 73
     1
 44
1.0
1001
ACAD
1000
MTEXTBEGIN
1070
    73
1070
     1
1070
    44
1040
1.0
1070
    74
1070
     0
1000
MTEXTEND
  0
INSERT
  5
1703
330
13BB
100
AcDbEntity
  8
sunpo
 62
     0
370
    -2
100
AcDbBlockReference
  2
_OPEN
 10
618.4823393095394
 20
-559.7994217869746
 30
0.0
 41
30.0
 42
30.0
 43
30.0
 50
180.0
  0
INSERT
  5
1704
330
13BB
100
AcDbEntity
  8
sunpo
 62
     0
370
    -2
100
AcDbBlockReference
  2
_OPEN
 10
603.4823393095084
 20
-559.7994217869746
 30
0.0
 41
30.0
 42
30.0
 43
30.0
  0
POINT
  5
1705
330
13BB
100
AcDbEntity
  8
DEFPOINTS
 62
     0
100
AcDbPoint
 10
618.4823393095394
 20
-650.327790541105
 30
0.0
  0
POINT
  5
1706
330
13BB
100
AcDbEntity
  8
DEFPOINTS
 62
     0
100
AcDbPoint
 10
603.4823393095084
 20
-800.3277905411049
 30
0.0
  0
POINT
  5
1707
330
13BB
100
AcDbEntity
  8
DEFPOINTS
 62
     0
100
AcDbPoint
 10
603.4823393095084
 20
-559.7994217869746
 30
0.0
  0
ENDBLK
  5
13C7
330
13BB
100
AcDbEntity
  8
0
100
AcDbBlockEnd
  0
BLOCK
  5
13D2
330
13C8
100
AcDbEntity
  8
0
100
AcDbBlockBegin
  2
*D261
 70
     1
 10
0.0
 20
0.0
 30
0.0
  3
*D261
  1

  0
LINE
  5
16F5
330
13C8
100
AcDbEntity
  8
sunpo
 62
     0
370
    -2
100
AcDbLine
 10
607.7114495842888
 20
-650.327790541105
 30
0.0
 11
472.6764272208583
 21
-650.327790541105
 31
0.0
  0
LINE
  5
16F6
330
13C8
100
AcDbEntity
  8
sunpo
 62
     0
370
    -2
100
AcDbLine
 10
565.9823393095084
 20
-800.3277905411049
 30
0.0
 11
472.6764272208583
 21
-800.3277905411049
 31
0.0
  0
LINE
  5
16F7
330
13C8
100
AcDbEntity
  8
sunpo
 62
     0
370
    -2
100
AcDbLine
 10
491.4264272208583
 20
-680.327790541105
 30
0.0
 11
491.4264272208583
 21
-770.327790541105
 31
0.0
  0
INSERT
  5
16F8
330
13C8
100
AcDbEntity
  8
sunpo
 62
     0
370
    -2
100
AcDbBlockReference
  2
_OPEN
 10
491.4264272208583
 20
-650.327790541105
 30
0.0
 41
30.0
 42
30.0
 43
30.0
 50
90.0
  0
INSERT
  5
16F9
330
13C8
100
AcDbEntity
  8
sunpo
 62
     0
370
    -2
100
AcDbBlockReference
  2
_OPEN
 10
491.4264272208583
 20
-800.3277905411049
 30
0.0
 41
30.0
 42
30.0
 43
30.0
 50
270.0
  0
MTEXT
  5
16FA
330
13C8
100
AcDbEntity
  8
sunpo
 62
     0
370
    20
100
AcDbMText
 10
463.3014272208584
 20
-725.3277905411049
 30
0.0
 40
37.5
 41
0.0
 71
     5
 72
     1
  1
\A1;150
 11
0.0000000000000001
 21
1.0
 31
0.0
 73
     1
 44
1.0
1001
ACAD
1000
MTEXTBEGIN
1070
    73
1070
     1
1070
    44
1040
1.0
1070
    74
1070
     0
1000
MTEXTEND
  0
POINT
  5
16FB
330
13C8
100
AcDbEntity
  8
DEFPOINTS
 62
     0
100
AcDbPoint
 10
645.2114495842888
 20
-650.327790541105
 30
0.0
  0
POINT
  5
16FC
330
13C8
100
AcDbEntity
  8
DEFPOINTS
 62
     0
100
AcDbPoint
 10
603.4823393095084
 20
-800.3277905411049
 30
0.0
  0
POINT
  5
16FD
330
13C8
100
AcDbEntity
  8
DEFPOINTS
 62
     0
100
AcDbPoint
 10
491.4264272208583
 20
-800.3277905411049
 30
0.0
  0
ENDBLK
  5
13D3
330
13C8
100
AcDbEntity
  8
0
100
AcDbBlockEnd
  0
BLOCK
  5
13DE
330
13D4
100
AcDbEntity
  8
0
100
AcDbBlockBegin
  2
*D262
 70
     1
 10
0.0
 20
0.0
 30
0.0
  3
*D262
  1

  0
LINE
  5
16EC
330
13D4
100
AcDbEntity
  8
sunpo
 62
     0
370
    -2
100
AcDbLine
 10
994.5032220550002
 20
-1703.209346171761
 30
0.0
 11
994.5032220550002
 21
-1861.302611408893
 31
0.0
  0
LINE
  5
16ED
330
13D4
100
AcDbEntity
  8
sunpo
 62
     0
370
    -2
100
AcDbLine
 10
2194.503222055
 20
-1703.209346171761
 30
0.0
 11
2194.503222055
 21
-1861.302611408893
 31
0.0
  0
LINE
  5
16EE
330
13D4
100
AcDbEntity
  8
sunpo
 62
     0
370
    -2
100
AcDbLine
 10
1024.503222055
 20
-1842.552611408893
 30
0.0
 11
2164.503222055
 21
-1842.552611408893
 31
0.0
  0
INSERT
  5
16EF
330
13D4
100
AcDbEntity
  8
sunpo
 62
     0
370
    -2
100
AcDbBlockReference
  2
_OPEN
 10
994.5032220550002
 20
-1842.552611408893
 30
0.0
 41
30.0
 42
30.0
 43
30.0
 50
180.0
  0
INSERT
  5
16F0
330
13D4
100
AcDbEntity
  8
sunpo
 62
     0
370
    -2
100
AcDbBlockReference
  2
_OPEN
 10
2194.503222055
 20
-1842.552611408893
 30
0.0
 41
30.0
 42
30.0
 43
30.0
  0
MTEXT
  5
16F1
330
13D4
100
AcDbEntity
  8
sunpo
 62
     0
370
    20
100
AcDbMText
 10
1594.503222055
 20
-1814.427611408893
 30
0.0
 40
37.5
 41
0.0
 71
     5
 72
     1
  1
\A1;1200
 73
     1
 44
1.0
1001
ACAD
1000
MTEXTBEGIN
1070
    73
1070
     1
1070
    44
1040
1.0
1070
    74
1070
     0
1000
MTEXTEND
  0
POINT
  5
16F2
330
13D4
100
AcDbEntity
  8
DEFPOINTS
 62
     0
100
AcDbPoint
 10
994.5032220550002
 20
-1665.709346171761
 30
0.0
  0
POINT
  5
16F3
330
13D4
100
AcDbEntity
  8
DEFPOINTS
 62
     0
100
AcDbPoint
 10
2194.503222055
 20
-1665.709346171761
 30
0.0
  0
POINT
  5
16F4
330
13D4
100
AcDbEntity
  8
DEFPOINTS
 62
     0
100
AcDbPoint
 10
2194.503222055
 20
-1842.552611408893
 30
0.0
  0
ENDBLK
  5
13DF
330
13D4
100
AcDbEntity
  8
0
100
AcDbBlockEnd
  0
BLOCK
  5
13EA
330
13E0
100
AcDbEntity
  8
0
100
AcDbBlockBegin
  2
*D263
 70
     1
 10
0.0
 20
0.0
 30
0.0
  3
*D263
  1

  0
LINE
  5
16E3
330
13E0
100
AcDbEntity
  8
sunpo
 62
     0
370
    -2
100
AcDbLine
 10
957.0032220550002
 20
-1345.709346171761
 30
0.0
 11
709.0494846224665
 21
-1345.709346171761
 31
0.0
  0
LINE
  5
16E4
330
13E0
100
AcDbEntity
  8
sunpo
 62
     0
370
    -2
100
AcDbLine
 10
957.0032220550002
 20
-1665.709346171761
 30
0.0
 11
709.0494846224665
 21
-1665.709346171761
 31
0.0
  0
LINE
  5
16E5
330
13E0
100
AcDbEntity
  8
sunpo
 62
     0
370
    -2
100
AcDbLine
 10
727.7994846224665
 20
-1375.709346171761
 30
0.0
 11
727.7994846224665
 21
-1635.709346171761
 31
0.0
  0
INSERT
  5
16E6
330
13E0
100
AcDbEntity
  8
sunpo
 62
     0
370
    -2
100
AcDbBlockReference
  2
_OPEN
 10
727.7994846224665
 20
-1345.709346171761
 30
0.0
 41
30.0
 42
30.0
 43
30.0
 50
90.0
  0
INSERT
  5
16E7
330
13E0
100
AcDbEntity
  8
sunpo
 62
     0
370
    -2
100
AcDbBlockReference
  2
_OPEN
 10
727.7994846224665
 20
-1665.709346171761
 30
0.0
 41
30.0
 42
30.0
 43
30.0
 50
270.0
  0
MTEXT
  5
16E8
330
13E0
100
AcDbEntity
  8
sunpo
 62
     0
370
    20
100
AcDbMText
 10
699.6744846224666
 20
-1505.709346171761
 30
0.0
 40
37.5
 41
0.0
 71
     5
 72
     1
  1
\A1;320
 11
0.0000000000000001
 21
1.0
 31
0.0
 73
     1
 44
1.0
1001
ACAD
1000
MTEXTBEGIN
1070
    73
1070
     1
1070
    44
1040
1.0
1070
    74
1070
     0
1000
MTEXTEND
  0
POINT
  5
16E9
330
13E0
100
AcDbEntity
  8
DEFPOINTS
 62
     0
100
AcDbPoint
 10
994.5032220550002
 20
-1345.709346171761
 30
0.0
  0
POINT
  5
16EA
330
13E0
100
AcDbEntity
  8
DEFPOINTS
 62
     0
100
AcDbPoint
 10
994.5032220550002
 20
-1665.709346171761
 30
0.0
  0
POINT
  5
16EB
330
13E0
100
AcDbEntity
  8
DEFPOINTS
 62
     0
100
AcDbPoint
 10
727.7994846224665
 20
-1665.709346171761
 30
0.0
  0
ENDBLK
  5
13EB
330
13E0
100
AcDbEntity
  8
0
100
AcDbBlockEnd
  0
BLOCK
  5
13F6
330
13EC
100
AcDbEntity
  8
0
100
AcDbBlockBegin
  2
*D264
 70
     1
 10
0.0
 20
0.0
 30
0.0
  3
*D264
  1

  0
LINE
  5
16DA
330
13EC
100
AcDbEntity
  8
sunpo
 62
     0
370
    -2
100
AcDbLine
 10
873.4783299308455
 20
-970.3249040719201
 30
0.0
 11
711.5714291615058
 21
-970.32490407192
 31
0.0
  0
LINE
  5
16DB
330
13EC
100
AcDbEntity
  8
sunpo
 62
     0
370
    -2
100
AcDbLine
 10
780.9783299308455
 20
-850.3249040719202
 30
0.0
 11
711.5714291615058
 21
-850.32490407192
 31
0.0
  0
LINE
  5
16DC
330
13EC
100
AcDbEntity
  8
sunpo
 62
     0
370
    -2
100
AcDbLine
 10
730.3214291615058
 20
-940.3249040719201
 30
0.0
 11
730.3214291615058
 21
-880.3249040719201
 31
0.0
  0
INSERT
  5
16DD
330
13EC
100
AcDbEntity
  8
sunpo
 62
     0
370
    -2
100
AcDbBlockReference
  2
_OPEN
 10
730.3214291615058
 20
-970.32490407192
 30
0.0
 41
30.0
 42
30.0
 43
30.0
 50
270.0
  0
INSERT
  5
16DE
330
13EC
100
AcDbEntity
  8
sunpo
 62
     0
370
    -2
100
AcDbBlockReference
  2
_OPEN
 10
730.3214291615058
 20
-850.32490407192
 30
0.0
 41
30.0
 42
30.0
 43
30.0
 50
90.0
  0
MTEXT
  5
16DF
330
13EC
100
AcDbEntity
  8
sunpo
 62
     0
370
    20
100
AcDbMText
 10
702.1964291615061
 20
-910.32490407192
 30
0.0
 40
37.5
 41
0.0
 71
     5
 72
     1
  1
\A1;120
 11
0.0000000000000001
 21
1.0
 31
0.0
 73
     1
 44
1.0
1001
ACAD
1000
MTEXTBEGIN
1070
    73
1070
     1
1070
    44
1040
1.0
1070
    74
1070
     0
1000
MTEXTEND
  0
POINT
  5
16E0
330
13EC
100
AcDbEntity
  8
DEFPOINTS
 62
     0
100
AcDbPoint
 10
910.9783299308455
 20
-970.3249040719201
 30
0.0
  0
POINT
  5
16E1
330
13EC
100
AcDbEntity
  8
DEFPOINTS
 62
     0
100
AcDbPoint
 10
818.4783299308456
 20
-850.3249040719202
 30
0.0
  0
POINT
  5
16E2
330
13EC
100
AcDbEntity
  8
DEFPOINTS
 62
     0
100
AcDbPoint
 10
730.3214291615058
 20
-850.32490407192
 30
0.0
  0
ENDBLK
  5
13F7
330
13EC
100
AcDbEntity
  8
0
100
AcDbBlockEnd
  0
BLOCK
  5
1402
330
13F8
100
AcDbEntity
  8
0
100
AcDbBlockBegin
  2
*D265
 70
     1
 10
0.0
 20
0.0
 30
0.0
  3
*D265
  1

  0
LINE
  5
16D1
330
13F8
100
AcDbEntity
  8
sunpo
 62
     0
370
    -2
100
AcDbLine
 10
957.0032220550002
 20
-1665.709346171761
 30
0.0
 11
857.0091712437333
 21
-1665.709346171761
 31
0.0
  0
LINE
  5
16D2
330
13F8
100
AcDbEntity
  8
sunpo
 62
     0
370
    -2
100
AcDbLine
 10
957.0032220550002
 20
-1515.709346171761
 30
0.0
 11
857.0091712437333
 21
-1515.709346171761
 31
0.0
  0
LINE
  5
16D3
330
13F8
100
AcDbEntity
  8
sunpo
 62
     0
370
    -2
100
AcDbLine
 10
875.7591712437333
 20
-1635.709346171761
 30
0.0
 11
875.7591712437333
 21
-1545.709346171761
 31
0.0
  0
INSERT
  5
16D4
330
13F8
100
AcDbEntity
  8
sunpo
 62
     0
370
    -2
100
AcDbBlockReference
  2
_OPEN
 10
875.7591712437333
 20
-1665.709346171761
 30
0.0
 41
30.0
 42
30.0
 43
30.0
 50
270.0
  0
INSERT
  5
16D5
330
13F8
100
AcDbEntity
  8
sunpo
 62
     0
370
    -2
100
AcDbBlockReference
  2
_OPEN
 10
875.7591712437333
 20
-1515.709346171761
 30
0.0
 41
30.0
 42
30.0
 43
30.0
 50
90.0
  0
MTEXT
  5
16D6
330
13F8
100
AcDbEntity
  8
sunpo
 62
     0
370
    20
100
AcDbMText
 10
847.6341712437335
 20
-1590.709346171761
 30
0.0
 40
37.5
 41
0.0
 71
     5
 72
     1
  1
\A1;150
 11
0.0000000000000001
 21
1.0
 31
0.0
 73
     1
 44
1.0
1001
ACAD
1000
MTEXTBEGIN
1070
    73
1070
     1
1070
    44
1040
1.0
1070
    74
1070
     0
1000
MTEXTEND
  0
POINT
  5
16D7
330
13F8
100
AcDbEntity
  8
DEFPOINTS
 62
     0
100
AcDbPoint
 10
994.5032220550002
 20
-1665.709346171761
 30
0.0
  0
POINT
  5
16D8
330
13F8
100
AcDbEntity
  8
DEFPOINTS
 62
     0
100
AcDbPoint
 10
994.5032220550002
 20
-1515.709346171761
 30
0.0
  0
POINT
  5
16D9
330
13F8
100
AcDbEntity
  8
DEFPOINTS
 62
     0
100
AcDbPoint
 10
875.7591712437333
 20
-1515.709346171761
 30
0.0
  0
ENDBLK
  5
1403
330
13F8
100
AcDbEntity
  8
0
100
AcDbBlockEnd
  0
BLOCK
  5
140E
330
1404
100
AcDbEntity
  8
0
100
AcDbBlockBegin
  2
*D266
 70
     1
 10
0.0
 20
0.0
 30
0.0
  3
*D266
  1

  0
LINE
  5
16C8
330
1404
100
AcDbEntity
  8
sunpo
 62
     0
370
    -2
100
AcDbLine
 10
2232.003222055
 20
-1665.709346171761
 30
0.0
 11
2397.514991477065
 21
-1665.709346171761
 31
0.0
  0
LINE
  5
16C9
330
1404
100
AcDbEntity
  8
sunpo
 62
     0
370
    -2
100
AcDbLine
 10
2232.003222055
 20
-1515.709346171761
 30
0.0
 11
2397.514991477065
 21
-1515.709346171761
 31
0.0
  0
LINE
  5
16CA
330
1404
100
AcDbEntity
  8
sunpo
 62
     0
370
    -2
100
AcDbLine
 10
2378.764991477065
 20
-1635.709346171761
 30
0.0
 11
2378.764991477065
 21
-1545.709346171761
 31
0.0
  0
INSERT
  5
16CB
330
1404
100
AcDbEntity
  8
sunpo
 62
     0
370
    -2
100
AcDbBlockReference
  2
_OPEN
 10
2378.764991477065
 20
-1665.709346171761
 30
0.0
 41
30.0
 42
30.0
 43
30.0
 50
270.0
  0
INSERT
  5
16CC
330
1404
100
AcDbEntity
  8
sunpo
 62
     0
370
    -2
100
AcDbBlockReference
  2
_OPEN
 10
2378.764991477065
 20
-1515.709346171761
 30
0.0
 41
30.0
 42
30.0
 43
30.0
 50
90.0
  0
MTEXT
  5
16CD
330
1404
100
AcDbEntity
  8
sunpo
 62
     0
370
    20
100
AcDbMText
 10
2350.639991477065
 20
-1590.709346171761
 30
0.0
 40
37.5
 41
0.0
 71
     5
 72
     1
  1
\A1;150
 11
0.0000000000000001
 21
1.0
 31
0.0
 73
     1
 44
1.0
1001
ACAD
1000
MTEXTBEGIN
1070
    73
1070
     1
1070
    44
1040
1.0
1070
    74
1070
     0
1000
MTEXTEND
  0
POINT
  5
16CE
330
1404
100
AcDbEntity
  8
DEFPOINTS
 62
     0
100
AcDbPoint
 10
2194.503222055
 20
-1665.709346171761
 30
0.0
  0
POINT
  5
16CF
330
1404
100
AcDbEntity
  8
DEFPOINTS
 62
     0
100
AcDbPoint
 10
2194.503222055
 20
-1515.709346171761
 30
0.0
  0
POINT
  5
16D0
330
1404
100
AcDbEntity
  8
DEFPOINTS
 62
     0
100
AcDbPoint
 10
2378.764991477065
 20
-1515.709346171761
 30
0.0
  0
ENDBLK
  5
140F
330
1404
100
AcDbEntity
  8
0
100
AcDbBlockEnd
  0
BLOCK
  5
141A
330
1410
100
AcDbEntity
  8
0
100
AcDbBlockBegin
  2
*D267
 70
     1
 10
0.0
 20
0.0
 30
0.0
  3
*D267
  1

  0
LINE
  5
16BF
330
1410
100
AcDbEntity
  8
sunpo
 62
     0
370
    -2
100
AcDbLine
 10
2232.003222055
 20
-1665.709346171761
 30
0.0
 11
2520.494397509529
 21
-1665.709346171761
 31
0.0
  0
LINE
  5
16C0
330
1410
100
AcDbEntity
  8
sunpo
 62
     0
370
    -2
100
AcDbLine
 10
2232.003222055
 20
-1495.709346171761
 30
0.0
 11
2520.494397509529
 21
-1495.709346171761
 31
0.0
  0
LINE
  5
16C1
330
1410
100
AcDbEntity
  8
sunpo
 62
     0
370
    -2
100
AcDbLine
 10
2501.744397509529
 20
-1635.709346171761
 30
0.0
 11
2501.744397509529
 21
-1525.709346171761
 31
0.0
  0
INSERT
  5
16C2
330
1410
100
AcDbEntity
  8
sunpo
 62
     0
370
    -2
100
AcDbBlockReference
  2
_OPEN
 10
2501.744397509529
 20
-1665.709346171761
 30
0.0
 41
30.0
 42
30.0
 43
30.0
 50
270.0
  0
INSERT
  5
16C3
330
1410
100
AcDbEntity
  8
sunpo
 62
     0
370
    -2
100
AcDbBlockReference
  2
_OPEN
 10
2501.744397509529
 20
-1495.709346171761
 30
0.0
 41
30.0
 42
30.0
 43
30.0
 50
90.0
  0
MTEXT
  5
16C4
330
1410
100
AcDbEntity
  8
sunpo
 62
     0
370
    20
100
AcDbMText
 10
2473.619397509529
 20
-1580.709346171761
 30
0.0
 40
37.5
 41
0.0
 71
     5
 72
     1
  1
\A1;170
 11
0.0000000000000001
 21
1.0
 31
0.0
 73
     1
 44
1.0
1001
ACAD
1000
MTEXTBEGIN
1070
    73
1070
     1
1070
    44
1040
1.0
1070
    74
1070
     0
1000
MTEXTEND
  0
POINT
  5
16C5
330
1410
100
AcDbEntity
  8
DEFPOINTS
 62
     0
100
AcDbPoint
 10
2194.503222055
 20
-1665.709346171761
 30
0.0
  0
POINT
  5
16C6
330
1410
100
AcDbEntity
  8
DEFPOINTS
 62
     0
100
AcDbPoint
 10
2194.503222055
 20
-1495.709346171761
 30
0.0
  0
POINT
  5
16C7
330
1410
100
AcDbEntity
  8
DEFPOINTS
 62
     0
100
AcDbPoint
 10
2501.744397509529
 20
-1495.709346171761
 30
0.0
  0
ENDBLK
  5
141B
330
1410
100
AcDbEntity
  8
0
100
AcDbBlockEnd
  0
ENDSEC
  0
SECTION
  2
ENTITIES
  0
DIMENSION
  5
91C
330
21
100
AcDbEntity
  8
sunpo
370
    20
100
AcDbDimension
  2
*D123
 10
4668.805712293913
 20
1277.688049572552
 30
0.0
 11
4311.305712293914
 21
1305.813049572553
 31
0.0
 70
    32
 71
     5
 42
715.0
  3
20
100
AcDbAlignedDimension
 13
3953.805712293913
 23
1073.076420801772
 33
0.0
 14
4668.805712293913
 24
1083.076420801772
 34
0.0
100
AcDbRotatedDimension
  0
DIMENSION
  5
91D
330
21
100
AcDbEntity
  8
sunpo
370
    20
100
AcDbDimension
  2
*D124
 10
1218.916405905234
 20
1277.688049572552
 30
0.0
 11
911.4164059052345
 21
1305.813049572553
 31
0.0
 70
    32
 71
     5
 42
615.0
  3
20
100
AcDbAlignedDimension
 13
603.9164059052345
 23
1073.076420801772
 33
0.0
 14
1218.916405905234
 24
1083.076420801772
 34
0.0
100
AcDbRotatedDimension
  0
LINE
  5
91E
330
21
100
AcDbEntity
  8
seihin
370
    25
100
AcDbLine
 10
4168.805712293913
 20
1083.076420801775
 30
0.0
 11
4168.805712293913
 21
483.0764208017735
 31
0.0
  0
LINE
  5
91F
330
21
100
AcDbEntity
  8
seihin
370
    25
100
AcDbLine
 10
4013.805712293914
 20
1083.076420801774
 30
0.0
 11
4013.805712293914
 21
483.0764208017735
 31
0.0
  0
DIMENSION
  5
920
330
21
100
AcDbEntity
  8
sunpo
370
    20
100
AcDbDimension
  2
*D125
 10
3777.702986619821
 20
483.0764208017717
 30
0.0
 11
3749.577986619821
 21
783.0764208017733
 31
0.0
 70
    32
  1
600
 71
     5
 42
600.0000000000018
  3
20
100
AcDbAlignedDimension
 13
3953.805712293913
 23
1083.076420801774
 33
0.0
 14
3953.805712293913
 24
483.0764208017717
 34
0.0
 50
90.0
100
AcDbRotatedDimension
  0
LINE
  5
921
330
21
100
AcDbEntity
  8
seihin
370
    25
100
AcDbLine
 10
5202.683016880721
 20
1629.739645493559
 30
0.0
 11
5802.68301688072
 21
1629.739645493559
 31
0.0
  0
DIMENSION
  5
922
330
21
100
AcDbEntity
  8
sunpo
370
    20
100
AcDbDimension
  2
*D126
 10
5022.233069602538
 20
1629.739645493559
 30
0.0
 11
4994.108069602538
 21
1544.739645493559
 31
0.0
 70
    32
 71
     5
 42
170.0
  3
20
100
AcDbAlignedDimension
 13
5202.683016880721
 23
1459.739645493559
 33
0.0
 14
5202.683016880721
 24
1629.739645493559
 34
0.0
 50
90.0
100
AcDbRotatedDimension
  0
DIMENSION
  5
923
330
21
100
AcDbEntity
  8
sunpo
370
    20
100
AcDbDimension
  2
*D127
 10
5091.857448634277
 20
1609.739645493559
 30
0.0
 11
5063.732448634277
 21
1534.73964549356
 31
0.0
 70
    32
 71
     5
 42
150.0
  3
20
100
AcDbAlignedDimension
 13
5202.683016880721
 23
1459.739645493559
 33
0.0
 14
5202.683016880721
 24
1609.739645493559
 34
0.0
 50
90.0
100
AcDbRotatedDimension
  0
DIMENSION
  5
924
330
21
100
AcDbEntity
  8
sunpo
370
    20
100
AcDbDimension
  2
*D128
 10
4851.975469710909
 20
1459.739645493559
 30
0.0
 11
4823.850469710909
 21
1534.73964549356
 31
0.0
 70
    32
 71
     5
 42
150.0
  3
20
100
AcDbAlignedDimension
 13
4668.805712293913
 23
1609.739645493559
 33
0.0
 14
4668.805712293913
 24
1459.739645493559
 34
0.0
 50
90.0
100
AcDbRotatedDimension
  0
DIMENSION
  5
925
330
21
100
AcDbEntity
  8
sunpo
370
    20
100
AcDbDimension
  2
*D129
 10
4168.805712293913
 20
1726.287807176431
 30
0.0
 11
4158.805712293913
 21
1777.850307176431
 31
0.0
 70
    32
  1
20
 71
     5
 42
20.0
  3
20
100
AcDbAlignedDimension
 13
4148.805712293913
 23
1598.785976800838
 33
0.0
 14
4168.805712293913
 24
1580.816040762198
 34
0.0
100
AcDbRotatedDimension
  0
DIMENSION
  5
926
330
21
100
AcDbEntity
  8
sunpo
370
    20
100
AcDbDimension
  2
*D130
 10
4148.805712293913
 20
1726.287807176431
 30
0.0
 11
4081.305712293914
 21
1754.412807176431
 31
0.0
 70
    32
  1
135
 71
     5
 42
135.0
  3
20
100
AcDbAlignedDimension
 13
4013.805712293914
 23
1629.739645493559
 33
0.0
 14
4148.805712293913
 24
1598.785976800838
 34
0.0
100
AcDbRotatedDimension
  0
DIMENSION
  5
927
330
21
100
AcDbEntity
  8
sunpo
370
    20
100
AcDbDimension
  2
*D131
 10
4013.805712293914
 20
1726.287807176431
 30
0.0
 11
3983.805712293913
 21
1777.850307176431
 31
0.0
 70
    32
  1
60
 71
     5
 42
60.0
  3
20
100
AcDbAlignedDimension
 13
3953.805712293913
 23
1629.739645493559
 33
0.0
 14
4013.805712293914
 24
1629.739645493559
 34
0.0
100
AcDbRotatedDimension
  0
DIMENSION
  5
928
330
21
100
AcDbEntity
  8
sunpo
370
    20
100
AcDbDimension
  2
*D132
 10
4668.805712293913
 20
1726.287807176431
 30
0.0
 11
4418.805712293913
 21
1754.412807176431
 31
0.0
 70
    32
 71
     5
 42
500.0
  3
20
100
AcDbAlignedDimension
 13
4168.805712293913
 23
1580.816040762198
 33
0.0
 14
4668.805712293913
 24
1609.739645493559
 34
0.0
100
AcDbRotatedDimension
  0
DIMENSION
  5
929
330
21
100
AcDbEntity
  8
sunpo
370
    20
100
AcDbDimension
  2
*D133
 10
4668.805712293913
 20
1890.802807176431
 30
0.0
 11
4311.305712293914
 21
1918.927807176431
 31
0.0
 70
    32
 71
     5
 42
715.0
  3
20
100
AcDbAlignedDimension
 13
3953.805712293913
 23
1629.739645493559
 33
0.0
 14
4668.805712293913
 24
1609.739645493559
 34
0.0
100
AcDbRotatedDimension
  0
DIMENSION
  5
92A
330
21
100
AcDbEntity
  8
sunpo
370
    20
100
AcDbDimension
  2
*D134
 10
3775.97546971091
 20
1459.739645493559
 30
0.0
 11
3747.850469710909
 21
1544.739645493559
 31
0.0
 70
    32
 71
     5
 42
170.0
  3
20
100
AcDbAlignedDimension
 13
3953.805712293913
 23
1629.739645493559
 33
0.0
 14
3953.805712293913
 24
1459.739645493559
 34
0.0
 50
90.0
100
AcDbRotatedDimension
  0
DIMENSION
  5
92B
330
21
100
AcDbEntity
  8
sunpo
370
    20
100
AcDbDimension
  2
*D135
 10
3861.975469710909
 20
1459.739645493559
 30
0.0
 11
3833.850469710909
 21
1519.739645493559
 31
0.0
 70
    32
 71
     5
 42
120.0
  3
20
100
AcDbAlignedDimension
 13
3953.805712293913
 23
1579.739645493559
 33
0.0
 14
3953.805712293913
 24
1459.739645493559
 34
0.0
 50
90.0
100
AcDbRotatedDimension
  0
DIMENSION
  5
92C
330
21
100
AcDbEntity
  8
sunpo
370
    20
100
AcDbDimension
  2
*D136
 10
5039.527339713748
 20
6256.174170265909
 30
0.0
 11
5011.402339713747
 21
6331.17417026591
 31
0.0
 70
    32
 71
     5
 42
150.0
  3
20
100
AcDbAlignedDimension
 13
5249.186211185055
 23
6406.174170265909
 33
0.0
 14
5249.186211185055
 24
6256.174170265909
 34
0.0
 50
90.0
100
AcDbRotatedDimension
  0
DIMENSION
  5
92D
330
21
100
AcDbEntity
  8
sunpo
370
    20
100
AcDbDimension
  2
*D137
 10
5133.050076982765
 20
6256.174170265909
 30
0.0
 11
5104.925076982762
 21
6316.225978803771
 31
0.0
 70
    32
  1
120
 71
     5
 42
120.1036170757215
  3
20
100
AcDbAlignedDimension
 13
5249.186211185055
 23
6376.277787341631
 33
0.0
 14
5249.186211185055
 24
6256.174170265909
 34
0.0
 50
90.0
100
AcDbRotatedDimension
  0
LINE
  5
92E
330
21
100
AcDbEntity
  8
seihin
370
    25
100
AcDbLine
 10
5849.186211185055
 20
6256.174170265909
 30
0.0
 11
5249.186211185055
 21
6256.174170265909
 31
0.0
  0
LINE
  5
92F
330
21
100
AcDbEntity
  8
seihin
370
    25
100
AcDbLine
 10
5249.186211185055
 20
6256.174170265909
 30
0.0
 11
5249.186211185055
 21
6406.174170265909
 31
0.0
  0
LINE
  5
930
330
21
100
AcDbEntity
  8
seihin
370
    25
100
AcDbLine
 10
5849.186211185055
 20
6406.174170265909
 30
0.0
 11
5249.186211185055
 21
6406.174170265909
 31
0.0
  0
LINE
  5
931
330
21
100
AcDbEntity
  8
seihin
370
    25
100
AcDbLine
 10
5849.186211185055
 20
6406.174170265909
 30
0.0
 11
5849.186211185055
 21
6256.174170265909
 31
0.0
  0
LINE
  5
932
330
21
100
AcDbEntity
  8
dashed
  6
HIDDEN
 62
     7
370
    25
100
AcDbLine
 10
5849.186211185055
 20
6396.174170265909
 30
0.0
 11
5249.186211185055
 21
6396.174170265909
 31
0.0
  0
LINE
  5
933
330
21
100
AcDbEntity
  8
dashed
  6
HIDDEN
 62
     7
370
    25
100
AcDbLine
 10
5849.186211185055
 20
6376.174170265909
 30
0.0
 11
5249.186211185055
 21
6376.174170265909
 31
0.0
  0
DIMENSION
  5
934
330
21
100
AcDbEntity
  8
sunpo
370
    20
100
AcDbDimension
  2
*D138
 10
5849.186211185055
 20
6604.600604540017
 30
0.0
 11
5549.186211185055
 21
6632.725604540017
 31
0.0
 70
    32
  1
L
 71
     5
 42
600.0
  3
20
100
AcDbAlignedDimension
 13
5249.186211185055
 23
6406.174170265909
 33
0.0
 14
5849.186211185055
 24
6406.174170265909
 34
0.0
100
AcDbRotatedDimension
  0
DIMENSION
  5
935
330
21
100
AcDbEntity
  8
sunpo
370
    20
100
AcDbDimension
  2
*D139
 10
4862.670992158889
 20
6406.174170265909
 30
0.0
 11
4834.545992158888
 21
6331.17417026591
 31
0.0
 70
    32
 71
     5
 42
150.0
  3
20
100
AcDbAlignedDimension
 13
4719.629372651501
 23
6256.174170265909
 33
0.0
 14
4719.629372651501
 24
6406.174170265909
 34
0.0
 50
90.0
100
AcDbRotatedDimension
  0
DIMENSION
  5
936
330
21
100
AcDbEntity
  8
sunpo
370
    20
100
AcDbDimension
  2
*D140
 10
3765.090968068964
 20
6256.174170265909
 30
0.0
 11
3736.965968068963
 21
6326.17417026591
 31
0.0
 70
    32
 71
     5
 42
140.0
  3
20
100
AcDbAlignedDimension
 13
4004.629372651502
 23
6396.174170265909
 33
0.0
 14
4004.629372651502
 24
6256.174170265909
 34
0.0
 50
90.0
100
AcDbRotatedDimension
  0
DIMENSION
  5
937
330
21
100
AcDbEntity
  8
sunpo
370
    20
100
AcDbDimension
  2
*D141
 10
3888.493238449211
 20
6256.174170265909
 30
0.0
 11
3860.36823844921
 21
6316.225978803771
 31
0.0
 70
    32
  1
120
 71
     5
 42
120.1036170757215
  3
20
100
AcDbAlignedDimension
 13
4004.629372651502
 23
6376.277787341631
 33
0.0
 14
4004.629372651502
 24
6256.174170265909
 34
0.0
 50
90.0
100
AcDbRotatedDimension
  0
DIMENSION
  5
938
330
21
100
AcDbEntity
  8
sunpo
370
    20
100
AcDbDimension
  2
*D142
 10
4219.63214317098
 20
6583.584713626449
 30
0.0
 11
4142.130757911241
 21
6611.709713626449
 31
0.0
 70
    32
  1
155
 71
     5
 42
155.0027705194789
  3
20
100
AcDbAlignedDimension
 13
4064.629372651501
 23
6396.174170265909
 33
0.0
 14
4219.63214317098
 24
6376.277787341631
 34
0.0
100
AcDbRotatedDimension
  0
DIMENSION
  5
939
330
21
100
AcDbEntity
  8
sunpo
370
    20
100
AcDbDimension
  2
*D143
 10
4064.629372651501
 20
6583.584713626449
 30
0.0
 11
4034.629372651501
 21
6635.147213626449
 31
0.0
 70
    32
  1
60
 71
     5
 42
60.0
  3
20
100
AcDbAlignedDimension
 13
4004.629372651502
 23
6396.174170265909
 33
0.0
 14
4064.629372651501
 24
6396.174170265909
 34
0.0
100
AcDbRotatedDimension
  0
DIMENSION
  5
93A
330
21
100
AcDbEntity
  8
sunpo
370
    20
100
AcDbDimension
  2
*D144
 10
4719.629372651501
 20
6701.939426841025
 30
0.0
 11
4362.129372651501
 21
6730.064426841025
 31
0.0
 70
    32
 71
     5
 42
715.0
  3
20
100
AcDbAlignedDimension
 13
4004.629372651502
 23
6396.174170265909
 33
0.0
 14
4719.629372651501
 24
6406.174170265909
 34
0.0
100
AcDbRotatedDimension
  0
DIMENSION
  5
93B
330
21
100
AcDbEntity
  8
sunpo
370
    20
100
AcDbDimension
  2
*D145
 10
4719.629372651501
 20
6583.584713626449
 30
0.0
 11
4469.63075791124
 21
6611.709713626449
 31
0.0
 70
    32
 71
     5
 42
499.997229480521
  3
20
100
AcDbAlignedDimension
 13
4219.63214317098
 23
6376.277787341631
 33
0.0
 14
4719.629372651501
 24
6406.174170265909
 34
0.0
100
AcDbRotatedDimension
  0
DIMENSION
  5
93C
330
21
100
AcDbEntity
  8
sunpo
370
    20
100
AcDbDimension
  2
*D146
 10
3828.526646977405
 20
5279.510945574123
 30
0.0
 11
3800.401646977404
 21
5579.510945574123
 31
0.0
 70
    32
  1
600
 71
     5
 42
600.0
  3
20
100
AcDbAlignedDimension
 13
4004.629372651502
 23
5879.510945574122
 33
0.0
 14
4004.629372651502
 24
5279.510945574123
 34
0.0
 50
90.0
100
AcDbRotatedDimension
  0
DIMENSION
  5
93D
330
21
100
AcDbEntity
  8
sunpo
370
    20
100
AcDbDimension
  2
*D147
 10
4719.629372651501
 20
6074.122574344904
 30
0.0
 11
4362.129372651501
 21
6102.247574344904
 31
0.0
 70
    32
 71
     5
 42
715.0
  3
20
100
AcDbAlignedDimension
 13
4004.629372651502
 23
5869.510945574123
 33
0.0
 14
4719.629372651501
 24
5879.510945574122
 34
0.0
100
AcDbRotatedDimension
  0
LINE
  5
93E
330
21
100
AcDbEntity
  8
seihin
370
    25
100
AcDbLine
 10
4219.632143170982
 20
5879.510945574122
 30
0.0
 11
4219.632143170982
 21
5279.510945574123
 31
0.0
  0
LINE
  5
93F
330
21
100
AcDbEntity
  8
seihin
370
    25
100
AcDbLine
 10
4064.629372651501
 20
5879.510945574122
 30
0.0
 11
4064.629372651501
 21
5279.510945574123
 31
0.0
  0
LINE
  5
940
330
21
100
AcDbEntity
  8
1
  6
Continuous
 62
     7
370
     9
100
AcDbLine
 10
6649.778648947735
 20
4914.834882831314
 30
0.0
 11
5880.176182714503
 21
4914.834882831314
 31
0.0
  0
LINE
  5
941
330
21
100
AcDbEntity
  8
1
  6
Continuous
 62
     7
370
     9
100
AcDbLine
 10
6649.778648947735
 20
4855.634693121064
 30
0.0
 11
5880.176182714503
 21
4855.634693121064
 31
0.0
  0
LINE
  5
942
330
21
100
AcDbEntity
  8
1
  6
Continuous
 62
     7
370
     9
100
AcDbLine
 10
6649.778648947735
 20
4974.035072541563
 30
0.0
 11
5880.176182714503
 21
4974.035072541563
 31
0.0
  0
LINE
  5
943
330
21
100
AcDbEntity
  8
1
  6
Continuous
 62
     7
370
     9
100
AcDbLine
 10
5880.176182714503
 20
5033.235262251816
 30
0.0
 11
5880.176182714503
 21
4796.434503410815
 31
0.0
  0
LINE
  5
944
330
21
100
AcDbEntity
  8
1
  6
Continuous
 62
     7
370
     9
100
AcDbLine
 10
6649.778648947735
 20
5033.235262251816
 30
0.0
 11
5880.176182714503
 21
5033.235262251816
 31
0.0
  0
TEXT
  5
945
330
21
100
AcDbEntity
  8
1
  6
Continuous
 62
     7
370
     9
100
AcDbText
 10
5912.296636529061
 20
4813.175305855239
 30
0.0
 40
35.52011382614909
  1
高知県コンクリート製品工業組合
 11
5912.296636529061
 21
4806.684320587516
 31
0.0
100
AcDbText
 73
     1
  0
TEXT
  5
946
330
21
100
AcDbEntity
  8
1
  6
Continuous
 62
     7
370
     9
100
AcDbText
 10
5880.641209780626
 20
5065.268289538838
 30
0.0
 40
35.52011382614909
  1
参考重量　: 138kg
 11
5880.641209780626
 21
5058.777304271116
 31
0.0
100
AcDbText
 73
     1
  0
TEXT
  5
947
330
21
100
AcDbEntity
  8
1
  6
Continuous
 62
     7
370
     9
100
AcDbText
 10
6004.76119404111
 20
4874.072132856433
 30
0.0
 40
35.52011382614909
  1
四国ブロック工業株式会社
 11
6004.76119404111
 21
4867.581147588709
 31
0.0
100
AcDbText
 73
     1
  0
TEXT
  5
948
330
21
100
AcDbEntity
  8
1
  6
Continuous
 62
     7
370
     9
100
AcDbText
 10
6005.012547790173
 20
4933.271322566685
 30
0.0
 40
35.52011382614909
  1
PL-500 横断歩道用
 11
6005.012547790173
 21
4926.780337298962
 31
0.0
100
AcDbText
 73
     1
  0
TEXT
  5
949
330
21
100
AcDbEntity
  8
1
  6
Continuous
 62
     7
370
     9
100
AcDbText
 10
6004.864190116337
 20
4991.349586485154
 30
0.0
 40
35.52011382614909
  1
歩車道境界ブロック付L型側溝
 11
6004.864190116337
 21
4984.858601217431
 31
0.0
100
AcDbText
 73
     1
  0
LINE
  5
94A
330
21
100
AcDbEntity
  8
1
  6
Continuous
 62
     7
370
     9
100
AcDbLine
 10
6649.778648947736
 20
118.400358058956
 30
0.0
 11
5880.176182714506
 21
118.400358058956
 31
0.0
  0
LINE
  5
94B
330
21
100
AcDbEntity
  8
1
  6
Continuous
 62
     7
370
     9
100
AcDbLine
 10
6649.778648947736
 20
59.20016834870693
 30
0.0
 11
5880.176182714506
 21
59.20016834870693
 31
0.0
  0
LINE
  5
94C
330
21
100
AcDbEntity
  8
1
  6
Continuous
 62
     7
370
     9
100
AcDbLine
 10
6649.778648947736
 20
177.6005477692051
 30
0.0
 11
5880.176182714506
 21
177.6005477692051
 31
0.0
  0
LINE
  5
94D
330
21
100
AcDbEntity
  8
1
  6
Continuous
 62
     7
370
     9
100
AcDbLine
 10
5880.176182714506
 20
236.8007374794542
 30
0.0
 11
5880.176182714506
 21
-0.0000213615403482
 31
0.0
  0
LINE
  5
94E
330
21
100
AcDbEntity
  8
1
  6
Continuous
 62
     7
370
     9
100
AcDbLine
 10
6649.778648947736
 20
236.8007374794542
 30
0.0
 11
5880.176182714506
 21
236.8007374794542
 31
0.0
  0
TEXT
  5
94F
330
21
100
AcDbEntity
  8
1
  6
Continuous
 62
     7
370
     9
100
AcDbText
 10
5930.710964820326
 20
16.74078108288067
 30
0.0
 40
35.52011382614909
  1
高知県コンクリート製品工業組合
 11
5930.710964820326
 21
10.24979581515799
 31
0.0
100
AcDbText
 73
     1
  0
TEXT
  5
950
330
21
100
AcDbEntity
  8
1
  6
Continuous
 62
     7
370
     9
100
AcDbText
 10
5880.641209780628
 20
268.8337647664756
 30
0.0
 40
35.52011382614909
  1
参考重量　: 158Kg
 11
5880.641209780628
 21
262.3427794987529
 31
0.0
100
AcDbText
 73
     1
  0
TEXT
  5
951
330
21
100
AcDbEntity
  8
1
  6
Continuous
 62
     7
370
     9
100
AcDbText
 10
6007.298190116351
 20
194.4290617127933
 30
0.0
 40
35.52011382614909
  1
歩車道境界ブロック付L型側溝
 11
6007.298190116351
 21
187.9380764450707
 31
0.0
100
AcDbText
 73
     1
  0
TEXT
  5
952
330
21
100
AcDbEntity
  8
1
  6
Continuous
 62
     7
370
     9
100
AcDbText
 10
6007.302433964021
 20
136.2287977943267
 30
0.0
 40
35.52011382614909
  1
PL-500 民地等出入口用
 11
6007.302433964021
 21
129.7378125266041
 31
0.0
100
AcDbText
 73
     1
  0
TEXT
  5
953
330
21
100
AcDbEntity
  8
1
  6
Continuous
 62
     7
370
     9
100
AcDbText
 10
6007.298194041101
 20
77.63760808407806
 30
0.0
 40
35.52011382614909
  1
四国ブロック工業株式会社
 11
6007.298194041101
 21
71.14662281635538
 31
0.0
100
AcDbText
 73
     1
  0
LINE
  5
954
330
21
100
AcDbEntity
  8
1
  6
Continuous
 62
     7
370
     9
100
AcDbLine
 10
3449.889342559056
 20
7094.651765796996
 30
0.0
 11
3449.889342559056
 21
4796.434503410815
 31
0.0
  0
LINE
  5
955
330
21
100
AcDbEntity
  8
1
  6
Continuous
 62
     7
370
     9
100
AcDbLine
 10
6649.778648947735
 20
7094.651765796996
 30
0.0
 11
3449.889342559056
 21
7094.651765796996
 31
0.0
  0
LWPOLYLINE
  5
956
330
21
100
AcDbEntity
  8
0
100
AcDbPolyline
 90
        4
 70
     1
 43
0.0
 10
3449.889342559056
 20
7094.651765796992
 10
6649.778648947735
 20
7094.651765796992
 10
6649.778648947735
 20
4796.434503410815
 10
3449.889342559056
 20
4796.434503410815
  0
LWPOLYLINE
  5
957
330
21
100
AcDbEntity
  8
0
100
AcDbPolyline
 90
        4
 70
     1
 43
0.0
 10
3449.889342559058
 20
2298.217241024631
 10
6649.778648947736
 20
2298.217241024631
 10
6649.778648947736
 20
-0.0000213615458051
 10
3449.889342559058
 20
-0.0000213615458051
  0
LWPOLYLINE
  5
958
330
21
100
AcDbEntity
  8
0
100
AcDbPolyline
 90
        4
 70
     1
 43
0.0
 10
0.0000361703787348
 20
2298.217241024631
 10
3199.889342559058
 20
2298.217241024631
 10
3199.889342559058
 20
-0.0000213615458051
 10
0.0000361703787348
 20
-0.0000213615458051
  0
LWPOLYLINE
  5
959
330
21
100
AcDbEntity
  8
0
100
AcDbPolyline
 90
        4
 70
     1
 43
0.0
 10
0.0000361703769158
 20
7094.651765796992
 10
3199.889342559056
 20
7094.651765796992
 10
3199.889342559056
 20
4796.434503410815
 10
0.0000361703769158
 20
4796.434503410815
  0
LINE
  5
95A
330
21
100
AcDbEntity
  8
seihin
370
    25
100
AcDbLine
 10
4719.629372651501
 20
6256.174170265909
 30
0.0
 11
4719.629372651501
 21
6406.174170265909
 31
0.0
  0
LINE
  5
95B
330
21
100
AcDbEntity
  8
seihin
370
    25
100
AcDbLine
 10
4004.629372651502
 20
5279.510945574123
 30
0.0
 11
4004.629372651502
 21
5879.510945574122
 31
0.0
  0
LINE
  5
95C
330
21
100
AcDbEntity
  8
seihin
370
    25
100
AcDbLine
 10
4719.629372651501
 20
5279.510945574123
 30
0.0
 11
4004.629372651502
 21
5279.510945574123
 31
0.0
  0
LINE
  5
95D
330
21
100
AcDbEntity
  8
seihin
370
    25
100
AcDbLine
 10
4719.629372651501
 20
5879.510945574122
 30
0.0
 11
4719.629372651501
 21
5279.510945574123
 31
0.0
  0
LINE
  5
95E
330
21
100
AcDbEntity
  8
seihin
370
    25
100
AcDbLine
 10
4004.629372651502
 20
5879.510945574122
 30
0.0
 11
4719.629372651501
 21
5879.510945574122
 31
0.0
  0
LINE
  5
95F
330
21
100
AcDbEntity
  8
seihin
370
    25
100
AcDbLine
 10
4719.629372651501
 20
6256.174170265909
 30
0.0
 11
4004.629372651502
 21
6256.174170265909
 31
0.0
  0
ARC
  5
960
330
21
100
AcDbEntity
  8
seihin
370
    25
100
AcDbCircle
 10
4179.074651458307
 20
1600.391749501612
 30
0.0
 40
20.0
100
AcDbArc
 50
213.6900675259469
 51
273.4336303624756
  0
LINE
  5
961
330
21
100
AcDbEntity
  8
seihin
370
    25
100
AcDbLine
 10
4180.272497272868
 20
1580.427652592296
 30
0.0
 11
4668.805712293913
 21
1609.739645493559
 31
0.0
  0
LINE
  5
962
330
21
100
AcDbEntity
  8
seihin
370
    25
100
AcDbLine
 10
4153.731510459656
 20
1602.350948244946
 30
0.0
 11
4162.433645571549
 21
1589.297745577107
 31
0.0
  0
ARC
  5
963
330
21
100
AcDbEntity
  8
seihin
370
    25
100
AcDbCircle
 10
4137.090504572902
 20
1591.256944320441
 30
0.0
 40
20.0
100
AcDbArc
 50
33.69006752594695
 51
81.57303097856498
  0
LINE
  5
964
330
21
100
AcDbEntity
  8
seihin
370
    25
100
AcDbLine
 10
4013.805712293914
 20
1629.739645493559
 30
0.0
 11
4140.021477794689
 21
1611.041013567519
 31
0.0
  0
LINE
  5
965
330
21
100
AcDbEntity
  8
seihin
370
    25
100
AcDbLine
 10
4668.805712293913
 20
1459.739645493559
 30
0.0
 11
4668.805712293913
 21
1609.739645493559
 31
0.0
  0
LINE
  5
966
330
21
100
AcDbEntity
  8
seihin
370
    25
100
AcDbLine
 10
3953.805712293913
 20
1629.739645493559
 30
0.0
 11
4013.805712293914
 21
1629.739645493559
 31
0.0
  0
LINE
  5
967
330
21
100
AcDbEntity
  8
seihin
370
    25
100
AcDbLine
 10
3953.805712293913
 20
1459.739645493559
 30
0.0
 11
3953.805712293913
 21
1629.739645493559
 31
0.0
  0
LINE
  5
968
330
21
100
AcDbEntity
  8
seihin
370
    25
100
AcDbLine
 10
3953.805712293913
 20
483.0764208017717
 30
0.0
 11
3953.805712293913
 21
1083.076420801772
 31
0.0
  0
LINE
  5
969
330
21
100
AcDbEntity
  8
seihin
370
    25
100
AcDbLine
 10
4668.805712293913
 20
483.0764208017717
 30
0.0
 11
3953.805712293913
 21
483.0764208017717
 31
0.0
  0
LINE
  5
96A
330
21
100
AcDbEntity
  8
seihin
370
    25
100
AcDbLine
 10
4668.805712293913
 20
1083.076420801772
 30
0.0
 11
4668.805712293913
 21
483.0764208017717
 31
0.0
  0
LINE
  5
96B
330
21
100
AcDbEntity
  8
seihin
370
    25
100
AcDbLine
 10
3953.805712293913
 20
1083.076420801772
 30
0.0
 11
4668.805712293913
 21
1083.076420801772
 31
0.0
  0
LINE
  5
970
330
21
100
AcDbEntity
  8
seihin
370
    25
100
AcDbLine
 10
4668.805712293913
 20
1459.739645493559
 30
0.0
 11
3953.805712293913
 21
1459.739645493559
 31
0.0
  0
LINE
  5
971
330
21
100
AcDbEntity
  8
seihin
370
    25
100
AcDbLine
 10
5802.683016880717
 20
1459.739645493559
 30
0.0
 11
5202.683016880721
 21
1459.739645493559
 31
0.0
  0
LINE
  5
972
330
21
100
AcDbEntity
  8
seihin
370
    25
100
AcDbLine
 10
5802.683016880717
 20
1629.739645493559
 30
0.0
 11
5802.683016880717
 21
1459.739645493559
 31
0.0
  0
LINE
  5
973
330
21
100
AcDbEntity
  8
seihin
370
    25
100
AcDbLine
 10
5202.683016880721
 20
1609.739645493559
 30
0.0
 11
5802.683016880717
 21
1609.739645493559
 31
0.0
  0
LINE
  5
974
330
21
100
AcDbEntity
  8
seihin
370
    25
100
AcDbLine
 10
5202.683016880721
 20
1459.739645493559
 30
0.0
 11
5202.683016880721
 21
1629.739645493559
 31
0.0
  0
LINE
  5
975
330
21
100
AcDbEntity
  8
seihin
370
    25
100
AcDbLine
 10
4004.629372651502
 20
6256.174170265909
 30
0.0
 11
4004.629372651502
 21
6396.174170265909
 31
0.0
  0
LINE
  5
976
330
21
100
AcDbEntity
  8
seihin
370
    25
100
AcDbLine
 10
4221.156444499016
 20
6376.26579457676
 30
0.0
 11
4719.629372651501
 21
6406.174170265909
 31
0.0
  0
ARC
  5
977
330
21
100
AcDbEntity
  8
seihin
370
    25
100
AcDbCircle
 10
4219.958598684455
 20
6396.229891486076
 30
0.0
 40
20.0
100
AcDbArc
 50
264.6854543383121
 51
273.4336303624756
  0
LINE
  5
978
330
21
100
AcDbEntity
  8
seihin
370
    25
100
AcDbLine
 10
4004.629372651502
 20
6396.174170265909
 30
0.0
 11
4064.629372651501
 21
6396.174170265909
 31
0.0
  0
LINE
  5
979
330
21
100
AcDbEntity
  8
seihin
370
    25
100
AcDbLine
 10
4064.629372651501
 20
6396.174170265909
 30
0.0
 11
4219.629372651501
 21
6376.232601414187
 31
0.0
  0
TEXT
  5
97A
330
21
100
AcDbEntity
  8
seihin
370
    25
100
AcDbText
 10
1098.3752790614
 20
5463.906423789458
 30
0.0
 40
48.0
  1
 
 50
90.0
 41
0.8333333333333333
 11
1107.146852665461
 21
5463.906423789458
 31
0.0
100
AcDbText
 73
     1
  0
DIMENSION
  5
97B
330
21
100
AcDbEntity
  8
sunpo
370
    20
100
AcDbDimension
  2
*D148
 10
538.6039320605332
 20
6256.174170265911
 30
0.0
 11
510.4789320605322
 21
6316.225978803772
 31
0.0
 70
    32
  1
120
 71
     5
 42
120.1036170757215
  3
20
100
AcDbAlignedDimension
 13
654.7400662628224
 23
6376.277787341632
 33
0.0
 14
654.7400662628224
 24
6256.174170265911
 34
0.0
 50
90.0
100
AcDbRotatedDimension
  0
DIMENSION
  5
97C
330
21
100
AcDbEntity
  8
sunpo
370
    20
100
AcDbDimension
  2
*D149
 10
415.2016616802857
 20
6256.174170265911
 30
0.0
 11
387.0766616802848
 21
6326.174170265911
 31
0.0
 70
    32
 71
     5
 42
140.0
  3
20
100
AcDbAlignedDimension
 13
654.7400662628224
 23
6396.174170265911
 33
0.0
 14
654.7400662628224
 24
6256.174170265911
 34
0.0
 50
90.0
100
AcDbRotatedDimension
  0
DIMENSION
  5
97D
330
21
100
AcDbEntity
  8
sunpo
370
    20
100
AcDbDimension
  2
*D150
 10
1269.740066262821
 20
6583.58471362645
 30
0.0
 11
1069.741451522562
 21
6611.70971362645
 31
0.0
 70
    32
 71
     5
 42
399.9972294805193
  3
20
100
AcDbAlignedDimension
 13
869.7428367823022
 23
6376.277787341632
 33
0.0
 14
1269.740066262821
 24
6406.17417026591
 34
0.0
100
AcDbRotatedDimension
  0
DIMENSION
  5
97E
330
21
100
AcDbEntity
  8
sunpo
370
    20
100
AcDbDimension
  2
*D151
 10
2399.296904796376
 20
6604.600604540019
 30
0.0
 11
2099.296904796376
 21
6632.725604540019
 31
0.0
 70
    32
  1
L
 71
     5
 42
600.0
  3
20
100
AcDbAlignedDimension
 13
1799.296904796376
 23
6406.17417026591
 33
0.0
 14
2399.296904796376
 24
6406.17417026591
 34
0.0
100
AcDbRotatedDimension
  0
DIMENSION
  5
97F
330
21
100
AcDbEntity
  8
sunpo
370
    20
100
AcDbDimension
  2
*D152
 10
1269.740066262821
 20
6701.939426841026
 30
0.0
 11
962.2400662628219
 21
6730.064426841027
 31
0.0
 70
    32
 71
     5
 42
614.9999999999991
  3
20
100
AcDbAlignedDimension
 13
654.7400662628224
 23
6396.174170265911
 33
0.0
 14
1269.740066262821
 24
6406.17417026591
 34
0.0
100
AcDbRotatedDimension
  0
TEXT
  5
980
330
21
100
AcDbEntity
  8
seihin
370
    25
100
AcDbText
 10
1098.3752790614
 20
5293.241124844559
 30
0.0
 40
48.0
  1
 
 50
90.0
 41
0.8333333333333333
 11
1107.146852665461
 21
5293.241124844559
 31
0.0
100
AcDbText
 73
     1
  0
DIMENSION
  5
981
330
21
100
AcDbEntity
  8
sunpo
370
    20
100
AcDbDimension
  2
*D153
 10
478.6373405887261
 20
5279.510945574124
 30
0.0
 11
450.5123405887252
 21
5579.510945574124
 31
0.0
 70
    32
  1
600
 71
     5
 42
600.0
  3
20
100
AcDbAlignedDimension
 13
654.7400662628206
 23
5879.510945574124
 33
0.0
 14
654.7400662628206
 24
5279.510945574124
 34
0.0
 50
90.0
100
AcDbRotatedDimension
  0
DIMENSION
  5
982
330
21
100
AcDbEntity
  8
sunpo
370
    20
100
AcDbDimension
  2
*D154
 10
714.7400662628224
 20
6583.58471362645
 30
0.0
 11
684.7400662628224
 21
6635.14721362645
 31
0.0
 70
    32
  1
60
 71
     5
 42
60.0
  3
20
100
AcDbAlignedDimension
 13
654.7400662628224
 23
6396.174170265911
 33
0.0
 14
714.7400662628224
 24
6396.174170265911
 34
0.0
100
AcDbRotatedDimension
  0
DIMENSION
  5
983
330
21
100
AcDbEntity
  8
sunpo
370
    20
100
AcDbDimension
  2
*D155
 10
869.7428367823022
 20
6583.58471362645
 30
0.0
 11
792.2414515225623
 21
6611.70971362645
 31
0.0
 70
    32
  1
155
 71
     5
 42
155.0027705194798
  3
20
100
AcDbAlignedDimension
 13
714.7400662628224
 23
6396.174170265911
 33
0.0
 14
869.7428367823022
 24
6376.277787341632
 34
0.0
100
AcDbRotatedDimension
  0
LINE
  5
984
330
21
100
AcDbEntity
  8
seihin
370
    25
100
AcDbLine
 10
871.7732058757674
 20
6376.326655736881
 30
0.0
 11
1269.740066262821
 21
6406.17417026591
 31
0.0
  0
LINE
  5
985
330
21
100
AcDbEntity
  8
seihin
370
    25
100
AcDbLine
 10
714.7400662628224
 20
6396.174170265911
 30
0.0
 11
867.7179801583298
 21
6376.435084601969
 31
0.0
  0
LINE
  5
986
330
21
100
AcDbEntity
  8
seihin
370
    25
100
AcDbLine
 10
654.7400662628224
 20
6396.174170265911
 30
0.0
 11
714.7400662628224
 21
6396.174170265911
 31
0.0
  0
LINE
  5
987
330
21
100
AcDbEntity
  8
seihin
370
    25
100
AcDbLine
 10
654.7400662628224
 20
6256.174170265911
 30
0.0
 11
654.7400662628224
 21
6396.174170265911
 31
0.0
  0
LINE
  5
988
330
21
100
AcDbEntity
  8
seihin
370
    25
100
AcDbLine
 10
1269.740066262821
 20
6256.174170265911
 30
0.0
 11
1269.740066262821
 21
6406.17417026591
 31
0.0
  0
LINE
  5
989
330
21
100
AcDbEntity
  8
seihin
370
    25
100
AcDbLine
 10
654.7400662628224
 20
6256.174170265911
 30
0.0
 11
1269.740066262821
 21
6256.174170265911
 31
0.0
  0
LINE
  5
98A
330
21
100
AcDbEntity
  8
dashed
  6
HIDDEN
 62
     7
370
    25
100
AcDbLine
 10
2399.296904796376
 20
6376.174170265911
 30
0.0
 11
1799.296904796376
 21
6376.174170265911
 31
0.0
  0
LINE
  5
98B
330
21
100
AcDbEntity
  8
dashed
  6
HIDDEN
 62
     7
370
    25
100
AcDbLine
 10
2399.296904796376
 20
6396.174170265911
 30
0.0
 11
1799.296904796376
 21
6396.174170265911
 31
0.0
  0
LINE
  5
98C
330
21
100
AcDbEntity
  8
seihin
370
    25
100
AcDbLine
 10
2399.296904796376
 20
6406.17417026591
 30
0.0
 11
2399.296904796376
 21
6256.174170265911
 31
0.0
  0
LINE
  5
98D
330
21
100
AcDbEntity
  8
seihin
370
    25
100
AcDbLine
 10
2399.296904796376
 20
6406.17417026591
 30
0.0
 11
1799.296904796376
 21
6406.17417026591
 31
0.0
  0
LINE
  5
98E
330
21
100
AcDbEntity
  8
seihin
370
    25
100
AcDbLine
 10
1799.296904796376
 20
6256.174170265911
 30
0.0
 11
1799.296904796376
 21
6406.17417026591
 31
0.0
  0
LINE
  5
98F
330
21
100
AcDbEntity
  8
seihin
370
    25
100
AcDbLine
 10
2399.296904796376
 20
6256.174170265911
 30
0.0
 11
1799.296904796376
 21
6256.174170265911
 31
0.0
  0
LINE
  5
990
330
21
100
AcDbEntity
  8
seihin
370
    25
100
AcDbLine
 10
654.7400662628206
 20
5279.510945574124
 30
0.0
 11
654.7400662628206
 21
5879.510945574124
 31
0.0
  0
LINE
  5
991
330
21
100
AcDbEntity
  8
seihin
370
    25
100
AcDbLine
 10
1269.740066262821
 20
5279.510945574124
 30
0.0
 11
654.7400662628206
 21
5279.510945574124
 31
0.0
  0
LINE
  5
992
330
21
100
AcDbEntity
  8
seihin
370
    25
100
AcDbLine
 10
1269.740066262821
 20
5879.510945574124
 30
0.0
 11
1269.740066262821
 21
5279.510945574124
 31
0.0
  0
LINE
  5
993
330
21
100
AcDbEntity
  8
seihin
370
    25
100
AcDbLine
 10
654.7400662628206
 20
5879.510945574124
 30
0.0
 11
1269.740066262821
 21
5879.510945574124
 31
0.0
  0
TEXT
  5
994
330
21
100
AcDbEntity
  8
1
  6
Continuous
 62
     7
370
     9
100
AcDbText
 10
2554.974883727659
 20
4991.349586485154
 30
0.0
 40
35.52011382614909
  1
歩車道境界ブロック付L型側溝
 11
2554.974883727659
 21
4984.858601217431
 31
0.0
100
AcDbText
 73
     1
  0
TEXT
  5
995
330
21
100
AcDbEntity
  8
1
  6
Continuous
 62
     7
370
     9
100
AcDbText
 10
2555.123241401494
 20
4933.271322566685
 30
0.0
 40
35.52011382614909
  1
PL-400 横断歩道用
 11
2555.123241401494
 21
4926.780337298962
 31
0.0
100
AcDbText
 73
     1
  0
TEXT
  5
996
330
21
100
AcDbEntity
  8
1
  6
Continuous
 62
     7
370
     9
100
AcDbText
 10
2554.871887652431
 20
4874.072132856433
 30
0.0
 40
35.52011382614909
  1
四国ブロック工業株式会社
 11
2554.871887652431
 21
4867.581147588709
 31
0.0
100
AcDbText
 73
     1
  0
TEXT
  5
997
330
21
100
AcDbEntity
  8
1
  6
Continuous
 62
     7
370
     9
100
AcDbText
 10
2430.751903391947
 20
5065.268289538838
 30
0.0
 40
35.52011382614909
  1
参考重量　: 122Kg
 11
2430.751903391947
 21
5058.777304271116
 31
0.0
100
AcDbText
 73
     1
  0
TEXT
  5
998
330
21
100
AcDbEntity
  8
1
  6
Continuous
 62
     7
370
     9
100
AcDbText
 10
2462.407330140383
 20
4813.175305855239
 30
0.0
 40
35.52011382614909
  1
高知県コンクリート製品工業組合
 11
2462.407330140383
 21
4806.684320587516
 31
0.0
100
AcDbText
 73
     1
  0
LINE
  5
999
330
21
100
AcDbEntity
  8
1
  6
Continuous
 62
     7
370
     9
100
AcDbLine
 10
3199.889342559056
 20
7094.651765796996
 30
0.0
 11
3199.889342559056
 21
4796.434503410815
 31
0.0
  0
LINE
  5
99A
330
21
100
AcDbEntity
  8
1
  6
Continuous
 62
     7
370
     9
100
AcDbLine
 10
3199.889342559056
 20
7094.651765796996
 30
0.0
 11
0.0000361703769158
 21
7094.651765796996
 31
0.0
  0
LINE
  5
99B
330
21
100
AcDbEntity
  8
1
  6
Continuous
 62
     7
370
     9
100
AcDbLine
 10
0.0000361703769158
 20
7094.651765796996
 30
0.0
 11
0.0000361703769158
 21
4796.434503410815
 31
0.0
  0
LINE
  5
99C
330
21
100
AcDbEntity
  8
1
  6
Continuous
 62
     7
370
     9
100
AcDbLine
 10
3199.889342559056
 20
4796.434503410815
 30
0.0
 11
0.0000361703769158
 21
4796.434503410815
 31
0.0
  0
LINE
  5
99D
330
21
100
AcDbEntity
  8
1
  6
Continuous
 62
     7
370
     9
100
AcDbLine
 10
3199.889342559056
 20
5033.235262251816
 30
0.0
 11
2430.286876325825
 21
5033.235262251816
 31
0.0
  0
LINE
  5
99E
330
21
100
AcDbEntity
  8
1
  6
Continuous
 62
     7
370
     9
100
AcDbLine
 10
2430.286876325825
 20
5033.235262251816
 30
0.0
 11
2430.286876325825
 21
4796.434503410815
 31
0.0
  0
LINE
  5
99F
330
21
100
AcDbEntity
  8
1
  6
Continuous
 62
     7
370
     9
100
AcDbLine
 10
3199.889342559056
 20
4974.035072541563
 30
0.0
 11
2430.286876325825
 21
4974.035072541563
 31
0.0
  0
LINE
  5
9A0
330
21
100
AcDbEntity
  8
1
  6
Continuous
 62
     7
370
     9
100
AcDbLine
 10
3199.889342559056
 20
4855.634693121064
 30
0.0
 11
2430.286876325825
 21
4855.634693121064
 31
0.0
  0
LINE
  5
9A1
330
21
100
AcDbEntity
  8
1
  6
Continuous
 62
     7
370
     9
100
AcDbLine
 10
3199.889342559056
 20
4914.834882831314
 30
0.0
 11
2430.286876325825
 21
4914.834882831314
 31
0.0
  0
ARC
  5
9A2
330
21
100
AcDbEntity
  8
seihin
370
    25
100
AcDbCircle
 10
870.2774069109336
 20
6396.27064193465
 30
0.0
 40
20.0
100
AcDbArc
 50
262.6476206401311
 51
274.2891533287959
  0
LINE
  5
9A3
330
21
100
AcDbEntity
  8
sunpo
370
    20
100
AcDbLine
 10
1136.520865133382
 20
6407.562742730096
 30
0.0
 11
1050.198594779366
 21
6401.088572453538
 31
0.0
  0
LINE
  5
9A4
330
21
100
AcDbEntity
  8
sunpo
370
    20
100
AcDbLine
 10
1050.198594779366
 20
6401.088572453538
 30
0.0
 11
1069.875614070945
 21
6406.738463239506
 31
0.0
  0
LINE
  5
9A5
330
21
100
AcDbEntity
  8
sunpo
370
    20
100
AcDbLine
 10
1069.875614070945
 20
6406.738463239506
 30
0.0
 11
1069.121165977279
 21
6402.507765293385
 31
0.0
  0
TEXT
  5
9A6
330
21
100
AcDbEntity
  8
sunpo
370
    20
100
AcDbText
 10
1059.879454921138
 20
6408.337985202678
 30
0.0
 40
40.0
  1
7.5%%%
 50
4.289153328796636
 11
1060.426142867673
 21
6401.048812582174
 31
0.0
100
AcDbText
 73
     1
  0
LINE
  5
9A7
330
21
100
AcDbEntity
  8
seihin
370
    25
100
AcDbLine
 10
714.7400662628224
 20
5879.510945574124
 30
0.0
 11
714.7400662628224
 21
5279.510945574124
 31
0.0
  0
LINE
  5
9A8
330
21
100
AcDbEntity
  8
seihin
370
    25
100
AcDbLine
 10
869.7428367823022
 20
5879.510945574124
 30
0.0
 11
869.7428367823022
 21
5279.510945574124
 31
0.0
  0
DIMENSION
  5
9A9
330
21
100
AcDbEntity
  8
sunpo
370
    20
100
AcDbDimension
  2
*D156
 10
1269.740066262821
 20
6074.122574344904
 30
0.0
 11
962.2400662628219
 21
6102.247574344905
 31
0.0
 70
    32
 71
     5
 42
614.9999999999991
  3
20
100
AcDbAlignedDimension
 13
654.7400662628224
 23
5869.510945574123
 33
0.0
 14
1269.740066262821
 24
5879.510945574124
 34
0.0
100
AcDbRotatedDimension
  0
DIMENSION
  5
9AA
330
21
100
AcDbEntity
  8
sunpo
370
    20
100
AcDbDimension
  2
*D157
 10
512.0861633222302
 20
1459.739645493559
 30
0.0
 11
483.96116332223
 21
1519.739645493559
 31
0.0
 70
    32
 71
     5
 42
120.0
  3
20
100
AcDbAlignedDimension
 13
603.9164059052345
 23
1579.739645493559
 33
0.0
 14
603.9164059052345
 24
1459.739645493559
 34
0.0
 50
90.0
100
AcDbRotatedDimension
  0
DIMENSION
  5
9AB
330
21
100
AcDbEntity
  8
sunpo
370
    20
100
AcDbDimension
  2
*D158
 10
1218.916405905234
 20
1890.802807176431
 30
0.0
 11
911.4164059052345
 21
1918.927807176431
 31
0.0
 70
    32
 71
     5
 42
615.0
  3
20
100
AcDbAlignedDimension
 13
603.9164059052345
 23
1629.739645493559
 33
0.0
 14
1218.916405905234
 24
1609.739645493559
 34
0.0
100
AcDbRotatedDimension
  0
DIMENSION
  5
9AC
330
21
100
AcDbEntity
  8
sunpo
370
    20
100
AcDbDimension
  2
*D159
 10
1402.08616332223
 20
1459.739645493559
 30
0.0
 11
1373.96116332223
 21
1534.739645493559
 31
0.0
 70
    32
 71
     5
 42
150.0
  3
20
100
AcDbAlignedDimension
 13
1218.916405905234
 23
1609.739645493559
 33
0.0
 14
1218.916405905234
 24
1459.739645493559
 34
0.0
 50
90.0
100
AcDbRotatedDimension
  0
DIMENSION
  5
9AD
330
21
100
AcDbEntity
  8
sunpo
370
    20
100
AcDbDimension
  2
*D160
 10
1218.916405905234
 20
1726.287807176431
 30
0.0
 11
1018.916405905234
 21
1754.412807176431
 31
0.0
 70
    32
 71
     5
 42
400.0
  3
20
100
AcDbAlignedDimension
 13
818.9164059052345
 23
1580.816040762198
 33
0.0
 14
1218.916405905234
 24
1609.739645493559
 34
0.0
100
AcDbRotatedDimension
  0
DIMENSION
  5
9AE
330
21
100
AcDbEntity
  8
sunpo
370
    20
100
AcDbDimension
  2
*D161
 10
426.0861633222303
 20
1459.739645493559
 30
0.0
 11
397.9611633222301
 21
1544.739645493559
 31
0.0
 70
    32
 71
     5
 42
170.0
  3
20
100
AcDbAlignedDimension
 13
603.9164059052345
 23
1629.739645493559
 33
0.0
 14
603.9164059052345
 24
1459.739645493559
 34
0.0
 50
90.0
100
AcDbRotatedDimension
  0
DIMENSION
  5
9AF
330
21
100
AcDbEntity
  8
sunpo
370
    20
100
AcDbDimension
  2
*D162
 10
2352.793710492042
 20
1860.052807176431
 30
0.0
 11
2052.793710492042
 21
1888.177807176431
 31
0.0
 70
    32
 71
     5
 42
600.0
  3
20
100
AcDbAlignedDimension
 13
1752.793710492042
 23
1629.739645493559
 33
0.0
 14
2352.793710492042
 24
1629.739645493559
 34
0.0
100
AcDbRotatedDimension
  0
TEXT
  5
9B0
330
21
100
AcDbEntity
  8
1
  6
Continuous
 62
     7
370
     9
100
AcDbText
 10
2557.408887652422
 20
77.63760808407806
 30
0.0
 40
35.52011382614909
  1
四国ブロック工業株式会社
 11
2557.408887652422
 21
71.14662281635538
 31
0.0
100
AcDbText
 73
     1
  0
TEXT
  5
9B1
330
21
100
AcDbEntity
  8
1
  6
Continuous
 62
     7
370
     9
100
AcDbText
 10
2557.413127575343
 20
136.2287977943267
 30
0.0
 40
35.52011382614909
  1
PL-400 民地等出入口用
 11
2557.413127575343
 21
129.7378125266041
 31
0.0
100
AcDbText
 73
     1
  0
TEXT
  5
9B2
330
21
100
AcDbEntity
  8
1
  6
Continuous
 62
     7
370
     9
100
AcDbText
 10
2557.408883727672
 20
194.4290617127933
 30
0.0
 40
35.52011382614909
  1
歩車道境界ブロック付L型側溝
 11
2557.408883727672
 21
187.9380764450707
 31
0.0
100
AcDbText
 73
     1
  0
TEXT
  5
9B3
330
21
100
AcDbEntity
  8
seihin
370
    25
100
AcDbText
 10
836.5986905493718
 20
984.2610576153038
 30
0.0
 40
48.0
  1
 
 41
0.8333333333333333
 11
836.5986905493718
 21
975.4894840112429
 31
0.0
100
AcDbText
 73
     1
  0
DIMENSION
  5
9B4
330
21
100
AcDbEntity
  8
sunpo
370
    20
100
AcDbDimension
  2
*D163
 10
427.8136802311401
 20
483.0764208017699
 30
0.0
 11
399.68868023114
 21
783.076420801771
 31
0.0
 70
    32
  1
600
 71
     5
 42
600.0000000000019
  3
20
100
AcDbAlignedDimension
 13
603.9164059052327
 23
1083.076420801772
 33
0.0
 14
603.9164059052327
 24
483.0764208017699
 34
0.0
 50
90.0
100
AcDbRotatedDimension
  0
LINE
  5
9B5
330
21
100
AcDbEntity
  8
seihin
370
    25
100
AcDbLine
 10
603.9164059052327
 20
483.0764208017699
 30
0.0
 11
603.9164059052327
 21
1083.076420801772
 31
0.0
  0
LINE
  5
9B6
330
21
100
AcDbEntity
  8
seihin
370
    25
100
AcDbLine
 10
1218.916405905234
 20
483.0764208017699
 30
0.0
 11
603.9164059052327
 21
483.0764208017699
 31
0.0
  0
LINE
  5
9B7
330
21
100
AcDbEntity
  8
seihin
370
    25
100
AcDbLine
 10
1218.916405905234
 20
1083.076420801772
 30
0.0
 11
1218.916405905234
 21
483.0764208017699
 31
0.0
  0
LINE
  5
9B8
330
21
100
AcDbEntity
  8
seihin
370
    25
100
AcDbLine
 10
603.9164059052327
 20
1083.076420801772
 30
0.0
 11
1218.916405905234
 21
1083.076420801772
 31
0.0
  0
DIMENSION
  5
9B9
330
21
100
AcDbEntity
  8
sunpo
370
    20
100
AcDbDimension
  2
*D164
 10
663.9164059052346
 20
1726.287807176431
 30
0.0
 11
633.9164059052345
 21
1777.850307176431
 31
0.0
 70
    32
  1
60
 71
     5
 42
60.0
  3
20
100
AcDbAlignedDimension
 13
603.9164059052345
 23
1629.739645493559
 33
0.0
 14
663.9164059052346
 24
1629.739645493559
 34
0.0
100
AcDbRotatedDimension
  0
DIMENSION
  5
9BA
330
21
100
AcDbEntity
  8
sunpo
370
    20
100
AcDbDimension
  2
*D165
 10
798.9164059052345
 20
1726.287807176431
 30
0.0
 11
731.4164059052346
 21
1754.412807176431
 31
0.0
 70
    32
  1
135
 71
     5
 42
135.0
  3
20
100
AcDbAlignedDimension
 13
663.9164059052346
 23
1629.739645493559
 33
0.0
 14
798.9164059052345
 24
1598.785976800838
 34
0.0
100
AcDbRotatedDimension
  0
DIMENSION
  5
9BB
330
21
100
AcDbEntity
  8
sunpo
370
    20
100
AcDbDimension
  2
*D166
 10
818.9164059052345
 20
1726.287807176431
 30
0.0
 11
808.9164059052345
 21
1777.850307176431
 31
0.0
 70
    32
  1
20
 71
     5
 42
20.0
  3
20
100
AcDbAlignedDimension
 13
798.9164059052345
 23
1598.785976800838
 33
0.0
 14
818.9164059052345
 24
1580.816040762198
 34
0.0
100
AcDbRotatedDimension
  0
LINE
  5
9BC
330
21
100
AcDbEntity
  8
seihin
370
    25
100
AcDbLine
 10
1752.793710492042
 20
1459.739645493559
 30
0.0
 11
1752.793710492042
 21
1629.739645493559
 31
0.0
  0
LINE
  5
9BD
330
21
100
AcDbEntity
  8
seihin
370
    25
100
AcDbLine
 10
1752.793710492042
 20
1629.739645493559
 30
0.0
 11
2352.793710492042
 21
1629.739645493559
 31
0.0
  0
LINE
  5
9BE
330
21
100
AcDbEntity
  8
seihin
370
    25
100
AcDbLine
 10
2352.793710492042
 20
1629.739645493559
 30
0.0
 11
2352.793710492042
 21
1459.739645493559
 31
0.0
  0
LINE
  5
9BF
330
21
100
AcDbEntity
  8
seihin
370
    25
100
AcDbLine
 10
2352.793710492042
 20
1459.739645493559
 30
0.0
 11
1752.793710492042
 21
1459.739645493559
 31
0.0
  0
LINE
  5
9C0
330
21
100
AcDbEntity
  8
seihin
370
    25
100
AcDbLine
 10
2352.793710492042
 20
1609.739645493559
 30
0.0
 11
1752.793710492042
 21
1609.739645493559
 31
0.0
  0
LINE
  5
9C1
330
21
100
AcDbEntity
  8
seihin
370
    25
100
AcDbLine
 10
603.9164059052345
 20
1459.739645493559
 30
0.0
 11
1218.916405905234
 21
1459.739645493559
 31
0.0
  0
LINE
  5
9C2
330
21
100
AcDbEntity
  8
seihin
370
    25
100
AcDbLine
 10
1218.916405905234
 20
1459.739645493559
 30
0.0
 11
1218.916405905234
 21
1609.739645493559
 31
0.0
  0
LINE
  5
9C3
330
21
100
AcDbEntity
  8
seihin
370
    25
100
AcDbLine
 10
603.9164059052345
 20
1459.739645493559
 30
0.0
 11
603.9164059052345
 21
1629.739645493559
 31
0.0
  0
LINE
  5
9C4
330
21
100
AcDbEntity
  8
seihin
370
    25
100
AcDbLine
 10
603.9164059052345
 20
1629.739645493559
 30
0.0
 11
663.9164059052346
 21
1629.739645493559
 31
0.0
  0
LINE
  5
9C5
330
21
100
AcDbEntity
  8
seihin
370
    25
100
AcDbLine
 10
823.4913287026884
 20
1580.082764703367
 30
0.0
 11
1218.916405905234
 21
1609.739645493559
 31
0.0
  0
ARC
  5
9C6
330
21
100
AcDbEntity
  8
seihin
370
    25
100
AcDbCircle
 10
822.7434292202724
 20
1590.05475780225
 30
0.0
 40
10.0
100
AcDbArc
 50
224.9999999999952
 51
274.2891533287959
  0
LINE
  5
9C7
330
21
100
AcDbEntity
  8
seihin
370
    25
100
AcDbLine
 10
663.9164059052346
 20
1629.739645493559
 30
0.0
 11
793.2310790499941
 21
1601.00305146139
 31
0.0
  0
LINE
  5
9C8
330
21
100
AcDbEntity
  8
seihin
370
    25
100
AcDbLine
 10
803.0346055173522
 20
1595.621445881441
 30
0.0
 11
815.6723614084075
 21
1582.983689990386
 31
0.0
  0
ARC
  5
9C9
330
21
100
AcDbEntity
  8
seihin
370
    25
100
AcDbCircle
 10
788.8924698936207
 20
1581.47931025771
 30
0.0
 40
20.0
100
AcDbArc
 50
44.99999999999515
 51
77.47119229086854
  0
TEXT
  5
9CA
330
21
100
AcDbEntity
  8
1
  6
Continuous
 62
     7
370
     9
100
AcDbText
 10
2430.751903391949
 20
268.8337647664756
 30
0.0
 40
35.52011382614909
  1
参考重量　: 142Kg
 11
2430.751903391949
 21
262.3427794987529
 31
0.0
100
AcDbText
 73
     1
  0
TEXT
  5
9CB
330
21
100
AcDbEntity
  8
1
  6
Continuous
 62
     7
370
     9
100
AcDbText
 10
2480.821658431647
 20
16.74078108288067
 30
0.0
 40
35.52011382614909
  1
高知県コンクリート製品工業組合
 11
2480.821658431647
 21
10.24979581515799
 31
0.0
100
AcDbText
 73
     1
  0
LINE
  5
9CC
330
21
100
AcDbEntity
  8
1
  6
Continuous
 62
     7
370
     9
100
AcDbLine
 10
3199.889342559058
 20
236.8007374794542
 30
0.0
 11
2430.286876325827
 21
236.8007374794542
 31
0.0
  0
LINE
  5
9CD
330
21
100
AcDbEntity
  8
1
  6
Continuous
 62
     7
370
     9
100
AcDbLine
 10
2430.286876325827
 20
236.8007374794542
 30
0.0
 11
2430.286876325827
 21
-0.0000213615403482
 31
0.0
  0
LINE
  5
9CE
330
21
100
AcDbEntity
  8
1
  6
Continuous
 62
     7
370
     9
100
AcDbLine
 10
3199.889342559058
 20
177.6005477692051
 30
0.0
 11
2430.286876325827
 21
177.6005477692051
 31
0.0
  0
LINE
  5
9CF
330
21
100
AcDbEntity
  8
1
  6
Continuous
 62
     7
370
     9
100
AcDbLine
 10
3199.889342559058
 20
59.20016834870693
 30
0.0
 11
2430.286876325827
 21
59.20016834870693
 31
0.0
  0
LINE
  5
9D0
330
21
100
AcDbEntity
  8
1
  6
Continuous
 62
     7
370
     9
100
AcDbLine
 10
3199.889342559058
 20
118.400358058956
 30
0.0
 11
2430.286876325827
 21
118.400358058956
 31
0.0
  0
DIMENSION
  5
9D1
330
21
100
AcDbEntity
  8
sunpo
370
    20
100
AcDbDimension
  2
*D167
 10
1641.968142245598
 20
1609.739645493559
 30
0.0
 11
1613.843142245597
 21
1534.739645493559
 31
0.0
 70
    32
 71
     5
 42
150.0
  3
20
100
AcDbAlignedDimension
 13
1752.793710492042
 23
1459.739645493559
 33
0.0
 14
1752.793710492042
 24
1609.739645493559
 34
0.0
 50
90.0
100
AcDbRotatedDimension
  0
DIMENSION
  5
9D2
330
21
100
AcDbEntity
  8
sunpo
370
    20
100
AcDbDimension
  2
*D168
 10
1572.343763213859
 20
1629.739645493559
 30
0.0
 11
1544.218763213859
 21
1544.739645493559
 31
0.0
 70
    32
 71
     5
 42
170.0
  3
20
100
AcDbAlignedDimension
 13
1752.793710492042
 23
1459.739645493559
 33
0.0
 14
1752.793710492042
 24
1629.739645493559
 34
0.0
 50
90.0
100
AcDbRotatedDimension
  0
DIMENSION
  5
9D3
330
21
100
AcDbEntity
  8
sunpo
370
    20
100
AcDbDimension
  2
*D169
 10
1589.638033325069
 20
6256.174170265911
 30
0.0
 11
1561.513033325068
 21
6331.174170265911
 31
0.0
 70
    32
 71
     5
 42
150.0
  3
20
100
AcDbAlignedDimension
 13
1799.296904796376
 23
6406.17417026591
 33
0.0
 14
1799.296904796376
 24
6256.174170265911
 34
0.0
 50
90.0
100
AcDbRotatedDimension
  0
DIMENSION
  5
9D4
330
21
100
AcDbEntity
  8
sunpo
370
    20
100
AcDbDimension
  2
*D170
 10
1683.160770594086
 20
6256.174170265911
 30
0.0
 11
1655.035770594085
 21
6316.225978803772
 31
0.0
 70
    32
  1
120
 71
     5
 42
120.1036170757215
  3
20
100
AcDbAlignedDimension
 13
1799.296904796376
 23
6376.277787341632
 33
0.0
 14
1799.296904796376
 24
6256.174170265911
 34
0.0
 50
90.0
100
AcDbRotatedDimension
  0
DIMENSION
  5
9D5
330
21
100
AcDbEntity
  8
sunpo
370
    20
100
AcDbDimension
  2
*D171
 10
1412.781685770212
 20
6406.17417026591
 30
0.0
 11
1384.656685770211
 21
6331.174170265911
 31
0.0
 70
    32
 71
     5
 42
150.0
  3
20
100
AcDbAlignedDimension
 13
1269.740066262821
 23
6256.174170265911
 33
0.0
 14
1269.740066262821
 24
6406.17417026591
 34
0.0
 50
90.0
100
AcDbRotatedDimension
  0
LINE
  5
9D6
330
21
100
AcDbEntity
  8
seihin
370
    25
100
AcDbLine
 10
663.9164059052346
 20
1083.076420801772
 30
0.0
 11
663.9164059052346
 21
483.0764208017717
 31
0.0
  0
LINE
  5
9D7
330
21
100
AcDbEntity
  8
seihin
370
    25
100
AcDbLine
 10
818.9164059052345
 20
1083.076420801774
 30
0.0
 11
818.9164059052345
 21
483.0764208017717
 31
0.0
  0
TEXT
  5
9D8
330
21
100
AcDbEntity
  8
sunpo
370
    20
100
AcDbText
 10
1009.055794563551
 20
1611.903460430326
 30
0.0
 40
40.0
  1
7.5%%%
 50
4.289153328796636
 11
1009.602482510087
 21
1604.614287809821
 31
0.0
100
AcDbText
 73
     1
  0
LINE
  5
9D9
330
21
100
AcDbEntity
  8
sunpo
370
    20
100
AcDbLine
 10
1019.051953713359
 20
1610.303938467154
 30
0.0
 11
1018.297505619692
 21
1606.073240521032
 31
0.0
  0
LINE
  5
9DA
330
21
100
AcDbEntity
  8
sunpo
370
    20
100
AcDbLine
 10
999.3749344217794
 20
1604.654047681186
 30
0.0
 11
1019.051953713359
 21
1610.303938467154
 31
0.0
  0
LINE
  5
9DB
330
21
100
AcDbEntity
  8
sunpo
370
    20
100
AcDbLine
 10
1085.697204775795
 20
1611.128217957743
 30
0.0
 11
999.3749344217794
 21
1604.654047681186
 31
0.0
  0
TEXT
  5
DED
330
21
100
AcDbEntity
  8
sunpo
370
    20
100
AcDbText
 10
4509.768761309818
 20
6408.337985202677
 30
0.0
 40
40.0
  1
6.0%%%
 50
4.289153328796636
 11
4510.315449256353
 21
6401.048812582172
 31
0.0
100
AcDbText
 73
     1
  0
LINE
  5
DEE
330
21
100
AcDbEntity
  8
sunpo
370
    20
100
AcDbLine
 10
4519.764920459625
 20
6406.738463239505
 30
0.0
 11
4519.010472365958
 21
6402.507765293383
 31
0.0
  0
LINE
  5
DEF
330
21
100
AcDbEntity
  8
sunpo
370
    20
100
AcDbLine
 10
4500.087901168046
 20
6401.088572453537
 30
0.0
 11
4519.764920459625
 21
6406.738463239505
 31
0.0
  0
LINE
  5
DF0
330
21
100
AcDbEntity
  8
sunpo
370
    20
100
AcDbLine
 10
4586.410171522062
 20
6407.562742730092
 30
0.0
 11
4500.087901168046
 21
6401.088572453537
 31
0.0
  0
TEXT
  5
DF1
330
21
100
AcDbEntity
  8
sunpo
370
    20
100
AcDbText
 10
4458.94510095223
 20
1611.903460430326
 30
0.0
 40
40.0
  1
6.0%%%
 50
4.289153328796636
 11
4459.491788898765
 21
1604.614287809821
 31
0.0
100
AcDbText
 73
     1
  0
LINE
  5
DF2
330
21
100
AcDbEntity
  8
sunpo
370
    20
100
AcDbLine
 10
4535.586511164474
 20
1611.128217957743
 30
0.0
 11
4449.264240810459
 21
1604.654047681186
 31
0.0
  0
LINE
  5
DF3
330
21
100
AcDbEntity
  8
sunpo
370
    20
100
AcDbLine
 10
4449.264240810459
 20
1604.654047681186
 30
0.0
 11
4468.941260102037
 21
1610.303938467154
 31
0.0
  0
LINE
  5
DF4
330
21
100
AcDbEntity
  8
sunpo
370
    20
100
AcDbLine
 10
4468.941260102037
 20
1610.303938467154
 30
0.0
 11
4468.186812008371
 21
1606.073240521032
 31
0.0
  0
LWPOLYLINE
  5
DF6
330
21
100
AcDbEntity
  8
0
100
AcDbPolyline
 90
        4
 70
     1
 43
0.0
 10
0.0000361703787348
 20
-100.0000213615494
 10
3199.889342559058
 20
-100.0000213615494
 10
3199.889342559058
 20
-2398.217283747726
 10
0.0000361703787348
 20
-2398.217283747726
  0
ELLIPSE
  5
110C
330
21
100
AcDbEntity
  8
0
100
AcDbEllipse
 10
6215.318784300329
 20
2683.93148042075
 30
0.0
 11
-64.49410914872712
 21
0.0
 31
0.0
210
0.0
220
0.0
230
1.0
 40
0.4753620270390904
 41
0.0
 42
6.283185307179586
  0
LWPOLYLINE
  5
110D
330
21
100
AcDbEntity
  8
0
100
AcDbPolyline
 90
        4
 70
     1
 43
0.0
 10
0.0000216561702473
 20
-100.0000070985043
 10
3199.889328044849
 20
-100.0000070985043
 10
3199.889328044849
 20
-2398.217269484681
 10
0.0000216561702473
 20
-2398.217269484681
  0
LINE
  5
110E
330
21
100
AcDbEntity
  8
sunpo
370
    20
100
AcDbLine
 10
5884.538440007176
 20
3960.361768979705
 30
0.0
 11
5798.21616965316
 21
3953.887598703148
 31
0.0
  0
LINE
  5
110F
330
21
100
AcDbEntity
  8
sunpo
370
    20
100
AcDbLine
 10
5798.21616965316
 20
3953.887598703148
 30
0.0
 11
5817.89318894474
 21
3959.537489489116
 31
0.0
  0
LINE
  5
1110
330
21
100
AcDbEntity
  8
sunpo
370
    20
100
AcDbLine
 10
5817.89318894474
 20
3959.537489489116
 30
0.0
 11
5817.138740851072
 21
3955.306791542995
 31
0.0
  0
TEXT
  5
1111
330
21
100
AcDbEntity
  8
1
  6
Continuous
 62
     7
370
     9
100
AcDbText
 10
5797.410560434198
 20
3983.384997692241
 30
0.0
 40
45.0
  1
6.0％
 50
5.376705428071493
 41
0.6578947368421049
 11
5798.181117487755
 21
3975.197828998242
 31
0.0
100
AcDbText
 73
     1
  0
TEXT
  5
1112
330
21
100
AcDbEntity
  8
1
  6
Continuous
 62
     7
370
     9
100
AcDbText
 10
4398.018565441982
 20
3984.058010002264
 30
0.0
 40
45.0
  1
6.0％
 50
5.376705428071493
 41
0.6578947368421049
 11
4398.789122495538
 21
3975.870841308264
 31
0.0
100
AcDbText
 73
     1
  0
LINE
  5
1113
330
21
100
AcDbEntity
  8
sunpo
370
    20
100
AcDbLine
 10
4418.501193952523
 20
3960.210501799139
 30
0.0
 11
4417.746745858856
 21
3955.979803853017
 31
0.0
  0
LINE
  5
1114
330
21
100
AcDbEntity
  8
sunpo
370
    20
100
AcDbLine
 10
4398.824174660943
 20
3954.56061101317
 30
0.0
 11
4418.501193952523
 21
3960.210501799139
 31
0.0
  0
LINE
  5
1115
330
21
100
AcDbEntity
  8
sunpo
370
    20
100
AcDbLine
 10
4485.14644501496
 20
3961.034781289728
 30
0.0
 11
4398.824174660943
 21
3954.56061101317
 31
0.0
  0
TEXT
  5
1116
330
21
100
AcDbEntity
  8
sunpo
370
    20
100
AcDbText
 10
2312.920203482708
 20
-818.6032708018089
 30
0.0
 40
40.0
  1
7.5%%%
 50
4.289153328794335
 11
2313.466891429243
 21
-825.8924434223136
 31
0.0
100
AcDbText
 73
     1
  0
LINE
  5
1117
330
21
100
AcDbEntity
  8
sunpo
370
    20
100
AcDbLine
 10
2322.916362632515
 20
-820.2027927649815
 30
0.0
 11
2322.161914538849
 21
-824.4334907111024
 31
0.0
  0
LINE
  5
1118
330
21
100
AcDbEntity
  8
sunpo
370
    20
100
AcDbLine
 10
2303.239343340936
 20
-825.8526835509492
 30
0.0
 11
2322.916362632515
 21
-820.2027927649815
 31
0.0
  0
LINE
  5
1119
330
21
100
AcDbEntity
  8
sunpo
370
    20
100
AcDbLine
 10
2389.561613694952
 20
-819.3785132743924
 30
0.0
 11
2303.239343340936
 21
-825.8526835509492
 31
0.0
  0
LINE
  5
111A
330
21
100
AcDbEntity
  8
seihin
370
    25
100
AcDbLine
 10
4133.74129303013
 20
4129.64335455545
 30
0.0
 11
4148.363641455072
 21
4129.64335455545
 31
0.0
  0
LINE
  5
111B
330
21
100
AcDbEntity
  8
seihin
370
    25
100
AcDbLine
 10
4148.363641455065
 20
4129.64335455545
 30
0.0
 11
4149.818640295301
 21
4115.093576143557
 31
0.0
  0
LINE
  5
111C
330
21
100
AcDbEntity
  8
seihin
370
    25
100
AcDbLine
 10
3968.36765083376
 20
4129.64335455545
 30
0.0
 11
3982.989999258663
 21
4129.64335455545
 31
0.0
  0
LINE
  5
111D
330
21
100
AcDbEntity
  8
seihin
370
    25
100
AcDbLine
 10
3968.367650833729
 20
4129.643354555454
 30
0.0
 11
3966.912672784626
 21
4115.093574064434
 31
0.0
  0
DIMENSION
  5
111E
330
21
100
AcDbEntity
  8
sunpo
370
    20
100
AcDbDimension
  2
*D220
 10
6237.656141861176
 20
3809.646241024636
 30
0.0
 11
6209.531141861176
 21
3884.646241024636
 31
0.0
 70
    32
 71
     5
 42
150.0
  3
20
100
AcDbAlignedDimension
 13
6076.542893339812
 23
3959.646241024636
 33
0.0
 14
6076.542893339812
 24
3809.646241024636
 34
0.0
 50
90.0
100
AcDbRotatedDimension
  0
LINE
  5
111F
330
21
100
AcDbEntity
  8
1
  6
Continuous
 62
     7
370
     9
100
AcDbLine
 10
6649.778648947734
 20
2516.617620445134
 30
0.0
 11
5880.176182714502
 21
2516.617620445134
 31
0.0
  0
LINE
  5
1120
330
21
100
AcDbEntity
  8
1
  6
Continuous
 62
     7
370
     9
100
AcDbLine
 10
6649.778648947734
 20
2457.417430734884
 30
0.0
 11
5880.176182714502
 21
2457.417430734884
 31
0.0
  0
LINE
  5
1121
330
21
100
AcDbEntity
  8
1
  6
Continuous
 62
     7
370
     9
100
AcDbLine
 10
6649.778648947734
 20
2575.817810155383
 30
0.0
 11
5880.176182714502
 21
2575.817810155383
 31
0.0
  0
LINE
  5
1122
330
21
100
AcDbEntity
  8
1
  6
Continuous
 62
     7
370
     9
100
AcDbLine
 10
5880.176182714502
 20
2635.017999865635
 30
0.0
 11
5880.176182714502
 21
2398.217241024635
 31
0.0
  0
LINE
  5
1123
330
21
100
AcDbEntity
  8
1
  6
Continuous
 62
     7
370
     9
100
AcDbLine
 10
6649.778648947734
 20
2635.017999865635
 30
0.0
 11
5880.176182714502
 21
2635.017999865635
 31
0.0
  0
TEXT
  5
1124
330
21
100
AcDbEntity
  8
1
  6
Continuous
 62
     7
370
     9
100
AcDbText
 10
5928.597110314418
 20
2414.958043469058
 30
0.0
 40
35.52011382614909
  1
高知県コンクリート製品工業組合
 11
5928.597110314418
 21
2408.467058201335
 31
0.0
100
AcDbText
 73
     1
  0
TEXT
  5
1125
330
21
100
AcDbEntity
  8
1
  6
Continuous
 62
     7
370
     9
100
AcDbText
 10
5880.641209780624
 20
2667.051027152658
 30
0.0
 40
35.52011382614909
  1
参考重量　: 122Kg
 11
5880.641209780624
 21
2660.560041884935
 31
0.0
100
AcDbText
 73
     1
  0
TEXT
  5
1126
330
21
100
AcDbEntity
  8
1
  6
Continuous
 62
     7
370
     9
100
AcDbText
 10
5964.636713579356
 20
2475.854870470252
 30
0.0
 40
35.52011382614909
  1
四国ブロック工業株式会社
 11
5964.636713579356
 21
2469.363885202529
 31
0.0
100
AcDbText
 73
     1
  0
TEXT
  5
1127
330
21
100
AcDbEntity
  8
1
  6
Continuous
 62
     7
370
     9
100
AcDbText
 10
5964.888067328418
 20
2535.054060180505
 30
0.0
 40
35.52011382614909
  1
PL-500 横断歩道用摺付
 11
5964.888067328418
 21
2528.563074912782
 31
0.0
100
AcDbText
 73
     1
  0
TEXT
  5
1128
330
21
100
AcDbEntity
  8
1
  6
Continuous
 62
     7
370
     9
100
AcDbText
 10
5964.739709654583
 20
2593.132324098974
 30
0.0
 40
35.52011382614909
  1
歩車道境界ブロック付L型側溝
 11
5964.739709654583
 21
2586.641338831251
 31
0.0
100
AcDbText
 73
     1
  0
DIMENSION
  5
1129
330
21
100
AcDbEntity
  8
sunpo
370
    20
100
AcDbDimension
  2
*D221
 10
5576.545663859292
 20
4220.323465035657
 30
0.0
 11
5499.044278599551
 21
4248.448465035656
 31
0.0
 70
    32
  1
155
 71
     5
 42
155.0027705194789
  3
20
100
AcDbAlignedDimension
 13
5421.542893339813
 23
3949.646241024635
 33
0.0
 14
5576.545663859292
 24
3929.749858100357
 34
0.0
100
AcDbRotatedDimension
  0
DIMENSION
  5
112A
330
21
100
AcDbEntity
  8
sunpo
370
    20
100
AcDbDimension
  2
*D222
 10
5421.542893339813
 20
4220.323465035657
 30
0.0
 11
5391.542893339813
 21
4271.885965035656
 31
0.0
 70
    32
  1
60
 71
     5
 42
60.0
  3
20
100
AcDbAlignedDimension
 13
5361.542893339812
 23
3949.646241024635
 33
0.0
 14
5421.542893339813
 24
3949.646241024635
 34
0.0
100
AcDbRotatedDimension
  0
DIMENSION
  5
112B
330
21
100
AcDbEntity
  8
sunpo
370
    20
100
AcDbDimension
  2
*D223
 10
5511.83024433191
 20
3809.646241024636
 30
0.0
 11
5483.705244331908
 21
3869.646241024636
 31
0.0
 70
    32
 71
     5
 42
120.0
  3
20
100
AcDbAlignedDimension
 13
5576.542893339809
 23
3929.646241024635
 33
0.0
 14
5564.542893339813
 24
3809.646241024636
 34
0.0
 50
90.0
100
AcDbRotatedDimension
  0
DIMENSION
  5
112C
330
21
100
AcDbEntity
  8
sunpo
370
    20
100
AcDbDimension
  2
*D224
 10
5278.314179492945
 20
3929.646241024635
 30
0.0
 11
5226.751679492944
 21
3939.646241024636
 31
0.0
 70
    32
  1
20
 71
     5
 42
20.0
  3
20
100
AcDbAlignedDimension
 13
5361.542893339812
 23
3949.646241024635
 33
0.0
 14
5361.542893339812
 24
3929.646241024635
 34
0.0
 50
90.0
100
AcDbRotatedDimension
  0
DIMENSION
  5
112D
330
21
100
AcDbEntity
  8
sunpo
370
    20
100
AcDbDimension
  2
*D225
 10
5278.314179492945
 20
3809.646241024636
 30
0.0
 11
5250.189179492944
 21
3869.646241024636
 31
0.0
 70
    32
  1
120
 71
     5
 42
120.0
  3
20
100
AcDbAlignedDimension
 13
5361.542893339812
 23
3929.646241024635
 33
0.0
 14
5361.542893339812
 24
3809.646241024636
 34
0.0
 50
90.0
100
AcDbRotatedDimension
  0
DIMENSION
  5
112E
330
21
100
AcDbEntity
  8
sunpo
370
    20
100
AcDbDimension
  2
*D226
 10
5167.9762672458
 20
3809.646241024636
 30
0.0
 11
5139.851267245798
 21
3879.646241024636
 31
0.0
 70
    32
 71
     5
 42
140.0
  3
20
100
AcDbAlignedDimension
 13
5361.542893339812
 23
3949.646241024635
 33
0.0
 14
5361.542893339812
 24
3809.646241024636
 34
0.0
 50
90.0
100
AcDbRotatedDimension
  0
DIMENSION
  5
112F
330
21
100
AcDbEntity
  8
sunpo
370
    20
100
AcDbDimension
  2
*D227
 10
6076.542893339812
 20
4344.374589500599
 30
0.0
 11
5719.042893339812
 21
4372.499589500599
 31
0.0
 70
    32
 71
     5
 42
715.0
  3
20
100
AcDbAlignedDimension
 13
5361.542893339812
 23
3949.646241024635
 33
0.0
 14
6076.542893339812
 24
3959.646241024636
 34
0.0
100
AcDbRotatedDimension
  0
DIMENSION
  5
1130
330
21
100
AcDbEntity
  8
sunpo
370
    20
100
AcDbDimension
  2
*D228
 10
6076.542893339812
 20
4220.323465035657
 30
0.0
 11
5826.54289333981
 21
4248.448465035656
 31
0.0
 70
    32
 71
     5
 42
500.0000000000036
  3
20
100
AcDbAlignedDimension
 13
5576.542893339809
 23
3929.646241024635
 33
0.0
 14
6076.542893339812
 24
3959.646241024636
 34
0.0
100
AcDbRotatedDimension
  0
DIMENSION
  5
1131
330
21
100
AcDbEntity
  8
sunpo
370
    20
100
AcDbDimension
  2
*D229
 10
4829.480899355096
 20
3809.646241024636
 30
0.0
 11
4801.355899355095
 21
3884.646241024635
 31
0.0
 70
    32
 71
     5
 42
150.0
  3
20
100
AcDbAlignedDimension
 13
4668.367650833732
 23
3959.646241024636
 33
0.0
 14
4668.367650833732
 24
3809.646241024636
 34
0.0
 50
90.0
100
AcDbRotatedDimension
  0
DIMENSION
  5
1132
330
21
100
AcDbEntity
  8
sunpo
370
    20
100
AcDbDimension
  2
*D230
 10
4080.20674068573
 20
3929.646241024635
 30
0.0
 11
4052.081740685729
 21
3869.646241024636
 31
0.0
 70
    32
 71
     5
 42
120.0
  3
20
100
AcDbAlignedDimension
 13
4260.86364145507
 23
3809.646241024636
 33
0.0
 14
4168.363641455068
 24
3929.646241024635
 34
0.0
 50
90.0
100
AcDbRotatedDimension
  0
MTEXT
  5
1133
102
{ACAD_REACTORS
330
1134
102
}
330
21
100
AcDbEntity
  8
sunpo
370
    20
100
AcDbMText
 10
4269.122621422392
 20
4054.961233038608
 30
0.0
 40
37.5
 41
0.0
 71
     7
 72
     1
  1
R20
 73
     1
 44
1.0
1001
ACAD
1000
MTEXTBEGIN
1070
    73
1070
     1
1070
    44
1040
1.0
1070
    74
1070
     0
1000
MTEXTEND
  0
LEADER
  5
1134
330
21
100
AcDbEntity
  8
sunpo
370
    20
100
AcDbLeader
  3
20
 73
     0
 74
     0
 75
     1
 40
37.5
 41
68.90862944162435
 76
     3
 10
4173.467276385923
 20
3935.728497290617
 30
0.0
 10
4229.747621422392
 20
4045.586233038608
 30
0.0
 10
4259.747621422391
 20
4045.586233038608
 30
0.0
340
1133
1001
ACAD
1000
DSTYLE
1002
{
1070
   147
1040
0.625
1070
    77
1070
     1
1002
}
  0
DIMENSION
  5
1135
330
21
100
AcDbEntity
  8
sunpo
370
    20
100
AcDbDimension
  2
*D231
 10
3953.367650833732
 20
4220.17172330958
 30
0.0
 11
3960.867650833748
 21
4271.73422330958
 31
0.0
 70
    32
  1
15
 71
     5
 42
15.00000000003092
  3
20
100
AcDbAlignedDimension
 13
3968.367650833764
 23
4129.64335455545
 33
0.0
 14
3953.367650833732
 24
3979.64335455545
 34
0.0
100
AcDbRotatedDimension
  0
DIMENSION
  5
1136
330
21
100
AcDbEntity
  8
sunpo
370
    20
100
AcDbDimension
  2
*D232
 10
3968.367650833764
 20
4220.17172330958
 30
0.0
 11
4058.365646144419
 21
4248.29672330958
 31
0.0
 70
    32
  1
180
 71
     5
 42
179.9959906213134
  3
20
100
AcDbAlignedDimension
 13
4148.363641455076
 23
4129.64335455545
 33
0.0
 14
3968.367650833764
 24
4129.64335455545
 34
0.0
100
AcDbRotatedDimension
  0
DIMENSION
  5
1137
330
21
100
AcDbEntity
  8
sunpo
370
    20
100
AcDbDimension
  2
*D233
 10
4168.363641455068
 20
4220.17172330958
 30
0.0
 11
4158.363641455073
 21
4271.73422330958
 31
0.0
 70
    32
  1
20
 71
     5
 42
19.99999999999272
  3
20
100
AcDbAlignedDimension
 13
4148.363641455076
 23
4129.64335455545
 33
0.0
 14
4168.363641455068
 24
3929.646241024635
 34
0.0
100
AcDbRotatedDimension
  0
DIMENSION
  5
1138
330
21
100
AcDbEntity
  8
sunpo
370
    20
100
AcDbDimension
  2
*D234
 10
4168.363641455068
 20
4220.17172330958
 30
0.0
 11
4418.3656461444
 21
4248.29672330958
 31
0.0
 70
    32
 71
     5
 42
500.0040093786629
  3
20
100
AcDbAlignedDimension
 13
4668.367650833732
 23
3959.646241024636
 33
0.0
 14
4168.363641455068
 24
3945.646241024635
 34
0.0
100
AcDbRotatedDimension
  0
DIMENSION
  5
1139
330
21
100
AcDbEntity
  8
sunpo
370
    20
100
AcDbDimension
  2
*D235
 10
4668.367650833732
 20
4344.374589500599
 30
0.0
 11
4310.867650833732
 21
4372.499589500599
 31
0.0
 70
    32
 71
     5
 42
715.0
  3
20
100
AcDbAlignedDimension
 13
3953.367650833732
 23
3979.643392255584
 33
0.0
 14
4668.367650833732
 24
3959.646241024636
 34
0.0
100
AcDbRotatedDimension
  0
DIMENSION
  5
113A
330
21
100
AcDbEntity
  8
sunpo
370
    20
100
AcDbDimension
  2
*D236
 10
3841.311738745082
 20
3979.64335455545
 30
0.0
 11
3813.186738745082
 21
4054.643354555451
 31
0.0
 70
    32
  1
150
 71
     5
 42
150.0
  3
20
100
AcDbAlignedDimension
 13
3995.096761108513
 23
4129.64335455545
 33
0.0
 14
3953.367650833732
 24
3979.64335455545
 34
0.0
 50
90.0
100
AcDbRotatedDimension
  0
DIMENSION
  5
113B
330
21
100
AcDbEntity
  8
sunpo
370
    20
100
AcDbDimension
  2
*D237
 10
3756.70693692479
 20
3809.646241024636
 30
0.0
 11
3728.581936924789
 21
3969.644797790044
 31
0.0
 70
    32
  1
<>
 71
     5
 42
319.9971135308151
  3
20
100
AcDbAlignedDimension
 13
3995.096761108513
 23
4129.64335455545
 33
0.0
 14
3953.363641455069
 24
3809.646241024636
 34
0.0
 50
90.0
100
AcDbRotatedDimension
  0
DIMENSION
  5
113C
330
21
100
AcDbEntity
  8
sunpo
370
    20
100
AcDbDimension
  2
*D238
 10
3841.311738745082
 20
3809.646241024636
 30
0.0
 11
3813.186738745082
 21
3894.644797790043
 31
0.0
 70
    32
  1
170
 71
     5
 42
169.9971135308151
  3
20
100
AcDbAlignedDimension
 13
3953.367650833732
 23
3979.64335455545
 33
0.0
 14
3953.363641455069
 24
3809.646241024636
 34
0.0
 50
90.0
100
AcDbRotatedDimension
  0
DIMENSION
  5
113D
330
21
100
AcDbEntity
  8
sunpo
370
    20
100
AcDbDimension
  2
*D239
 10
5644.392542957887
 20
2953.881899100423
 30
0.0
 11
5044.392542957886
 21
2982.006899100423
 31
0.0
 70
    32
 71
     5
 42
1200.0
  3
20
100
AcDbAlignedDimension
 13
4444.392542957887
 23
3130.725164337553
 33
0.0
 14
5644.392542957887
 24
3130.725164337553
 34
0.0
100
AcDbRotatedDimension
  0
DIMENSION
  5
113E
330
21
100
AcDbEntity
  8
sunpo
370
    20
100
AcDbDimension
  2
*D240
 10
4177.688805525352
 20
3130.725164337553
 30
0.0
 11
4149.563805525352
 21
3290.725164337554
 31
0.0
 70
    32
 71
     5
 42
320.0
  3
20
100
AcDbAlignedDimension
 13
4444.392542957887
 23
3450.725164337554
 33
0.0
 14
4444.392542957887
 24
3130.725164337553
 34
0.0
 50
90.0
100
AcDbRotatedDimension
  0
DIMENSION
  5
113F
330
21
100
AcDbEntity
  8
sunpo
370
    20
100
AcDbDimension
  2
*D241
 10
4325.64849214662
 20
3280.725164337553
 30
0.0
 11
4297.523492146619
 21
3205.725164337554
 31
0.0
 70
    32
 71
     5
 42
150.0
  3
20
100
AcDbAlignedDimension
 13
4444.392542957887
 23
3130.725164337553
 33
0.0
 14
4444.392542957887
 24
3280.725164337553
 34
0.0
 50
90.0
100
AcDbRotatedDimension
  0
DIMENSION
  5
1140
330
21
100
AcDbEntity
  8
sunpo
370
    20
100
AcDbDimension
  2
*D242
 10
5828.654312379951
 20
3280.725164337553
 30
0.0
 11
5800.52931237995
 21
3205.725164337554
 31
0.0
 70
    32
 71
     5
 42
150.0
  3
20
100
AcDbAlignedDimension
 13
5644.392542957887
 23
3130.725164337553
 33
0.0
 14
5644.392542957887
 24
3280.725164337553
 34
0.0
 50
90.0
100
AcDbRotatedDimension
  0
LEADER
  5
1141
330
21
100
AcDbEntity
  8
seihin
370
    25
100
AcDbLeader
  3
20
 76
     3
 10
5732.550181736564
 20
3640.394914665613
 30
0.0
 10
5644.392542957887
 20
3640.394914665613
 30
0.0
 10
5644.392542957887
 20
3563.29233349377
 30
0.0
1001
ACAD
1000
DSTYLE
1002
{
1070
   147
1040
0.625
1070
    77
1070
     1
1002
}
  0
TEXT
  5
1142
330
21
100
AcDbEntity
  8
seihin
370
    25
100
AcDbText
 10
5685.35763494214
 20
3568.127444144677
 30
0.0
 40
50.0
  1
B
100
AcDbText
  0
TEXT
  5
1143
330
21
100
AcDbEntity
  8
seihin
370
    25
100
AcDbText
 10
5685.35763494214
 20
2816.116533838377
 30
0.0
 40
50.0
  1
B
100
AcDbText
  0
LEADER
  5
1144
330
21
100
AcDbEntity
  8
seihin
370
    25
100
AcDbLeader
  3
20
 76
     3
 10
5732.550181736564
 20
2794.092812495339
 30
0.0
 10
5644.392542957887
 20
2794.092812495339
 30
0.0
 10
5644.392542957887
 20
2871.195393667182
 30
0.0
210
0.0
220
0.0
230
-1.0
1001
ACAD
1000
DSTYLE
1002
{
1070
   147
1040
0.625
1070
    77
1070
     1
1002
}
  0
LEADER
  5
1145
330
21
100
AcDbEntity
  8
seihin
370
    25
100
AcDbLeader
  3
20
 76
     3
 10
4532.550181736564
 20
2794.092812495339
 30
0.0
 10
4444.392542957887
 20
2794.092812495339
 30
0.0
 10
4444.392542957887
 20
2871.195393667182
 30
0.0
210
0.0
220
0.0
230
-1.0
1001
ACAD
1000
DSTYLE
1002
{
1070
   147
1040
0.625
1070
    77
1070
     1
1002
}
  0
TEXT
  5
1146
330
21
100
AcDbEntity
  8
seihin
370
    25
100
AcDbText
 10
4485.35763494214
 20
2816.116533838377
 30
0.0
 40
50.0
  1
A
100
AcDbText
  0
LINE
  5
1147
330
21
100
AcDbEntity
  8
seihin
370
    25
100
AcDbLine
 10
5044.643932219244
 20
3365.688108228959
 30
0.0
 11
5044.05710126496
 21
3384.313837276347
 31
0.0
  0
LINE
  5
1148
330
21
100
AcDbEntity
  8
seihin
370
    25
100
AcDbLine
 10
5044.643932219244
 20
3365.688108228959
 30
0.0
 11
5053.448586228802
 21
3382.111878225143
 31
0.0
  0
POLYLINE
  5
1149
330
21
100
AcDbEntity
  8
seihin
370
    25
100
AcDb2dPolyline
 66
     1
 10
0.0
 20
0.0
 30
0.0
  0
VERTEX
  5
114A
330
1149
100
AcDbEntity
  8
seihin
370
    25
100
AcDbVertex
100
AcDb2dVertex
 10
5044.643932219244
 20
3365.688108228959
 30
0.0
  0
VERTEX
  5
114B
330
1149
100
AcDbEntity
  8
seihin
370
    25
100
AcDbVertex
100
AcDb2dVertex
 10
5059.917102063568
 20
3430.82907661565
 30
0.0
  0
VERTEX
  5
114C
330
1149
100
AcDbEntity
  8
seihin
370
    25
100
AcDbVertex
100
AcDb2dVertex
 10
5239.917102063568
 20
3430.82907661565
 30
0.0
  0
SEQEND
  5
114D
330
1149
100
AcDbEntity
  8
seihin
370
    25
  0
TEXT
  5
114E
330
21
100
AcDbEntity
  8
seihin
370
    25
100
AcDbText
 10
5059.917102063568
 20
3439.807756818697
 30
0.0
 40
36.0
  1
ダミー目地
 41
0.8333333333333333
 11
5059.917102063568
 21
3433.229076615651
 31
0.0
100
AcDbText
 73
     1
  0
TEXT
  5
114F
330
21
100
AcDbEntity
  8
seihin
370
    25
100
AcDbText
 10
4485.35763494214
 20
3568.127444144677
 30
0.0
 40
50.0
  1
A
100
AcDbText
  0
LEADER
  5
1150
330
21
100
AcDbEntity
  8
seihin
370
    25
100
AcDbLeader
  3
20
 76
     3
 10
4532.550181736564
 20
3640.394914665613
 30
0.0
 10
4444.392542957887
 20
3640.394914665613
 30
0.0
 10
4444.392542957887
 20
3563.29233349377
 30
0.0
1001
ACAD
1000
DSTYLE
1002
{
1070
   147
1040
0.625
1070
    77
1070
     1
1002
}
  0
LWPOLYLINE
  5
1151
330
21
100
AcDbEntity
  8
0
100
AcDbPolyline
 90
        4
 70
     1
 43
0.0
 10
3449.889342559056
 20
4696.434503410812
 10
6649.778648947734
 20
4696.434503410812
 10
6649.778648947734
 20
2398.217241024635
 10
3449.889342559056
 20
2398.217241024635
  0
LINE
  5
1152
330
21
100
AcDbEntity
  8
seihin
370
    25
100
AcDbLine
 10
5049.392542957886
 20
3364.777869738805
 30
0.0
 11
5049.392542957886
 21
3280.725164337553
 31
0.0
  0
LINE
  5
1153
330
21
100
AcDbEntity
  8
seihin
370
    25
100
AcDbLine
 10
5039.392542957887
 20
3366.432042409338
 30
0.0
 11
5039.392542957887
 21
3280.725164337553
 31
0.0
  0
LINE
  5
1154
330
21
100
AcDbEntity
  8
seihin
370
    25
100
AcDbLine
 10
4167.193386202145
 20
3941.348624658579
 30
0.0
 11
4168.363641455068
 21
3929.646241024635
 31
0.0
  0
LINE
  5
1155
330
21
100
AcDbEntity
  8
seihin
370
    25
100
AcDbLine
 10
4168.363641455068
 20
3929.646241024635
 30
0.0
 11
4181.075566536974
 21
3930.599634382496
 31
0.0
  0
LINE
  5
1156
330
21
100
AcDbEntity
  8
seihin
370
    25
100
AcDbLine
 10
4168.363641455068
 20
3929.646241024635
 30
0.0
 11
4181.075566536974
 21
3930.599634382496
 31
0.0
  0
LINE
  5
1157
330
21
100
AcDbEntity
  8
seihin
370
    25
100
AcDbLine
 10
4168.363641455068
 20
3929.646241024635
 30
0.0
 11
4181.075566536974
 21
3930.599634382496
 31
0.0
  0
LINE
  5
1158
330
21
100
AcDbEntity
  8
seihin
370
    25
100
AcDbLine
 10
3995.096761108509
 20
4129.64335455545
 30
0.0
 11
4121.793313690565
 21
4129.64335455545
 31
0.0
  0
LINE
  5
1159
330
21
100
AcDbEntity
  8
seihin
370
    25
100
AcDbLine
 10
4150.990952832011
 20
4103.370619968693
 30
0.0
 11
4166.42231118334
 21
3949.059263562423
 31
0.0
  0
LINE
  5
115A
330
21
100
AcDbEntity
  8
seihin
370
    25
100
AcDbLine
 10
3965.727670832299
 20
4103.243554541135
 30
0.0
 11
3953.367650833732
 21
3979.64335455545
 31
0.0
  0
ARC
  5
115B
330
21
100
AcDbEntity
  8
seihin
370
    25
100
AcDbCircle
 10
4186.32305214377
 20
3951.049366380321
 30
0.0
 40
20.0
100
AcDbArc
 50
185.7106750111264
 51
274.2891487424466
  0
ARC
  5
115C
330
21
100
AcDbEntity
  8
seihin
370
    25
100
AcDbCircle
 10
4186.32305214377
 20
3951.049366380321
 30
0.0
 40
20.0
100
AcDbArc
 50
185.7106750111264
 51
274.2891487424466
  0
ARC
  5
115D
330
21
100
AcDbEntity
  8
seihin
370
    25
100
AcDbCircle
 10
4121.214053581059
 20
4099.64335455545
 30
0.0
 40
30.0
100
AcDbArc
 50
5.710675011126431
 51
90.0
  0
ARC
  5
115E
330
21
100
AcDbEntity
  8
seihin
370
    25
100
AcDbCircle
 10
3995.517277697096
 20
4099.64335455545
 30
0.0
 40
30.0
100
AcDbArc
 50
90.0
 51
174.2894068625263
  0
LINE
  5
115F
330
21
100
AcDbEntity
  8
seihin
370
    25
100
AcDbLine
 10
3953.367650833732
 20
3809.643392255585
 30
0.0
 11
3953.367650833732
 21
3979.643392255584
 31
0.0
  0
LINE
  5
1160
330
21
100
AcDbEntity
  8
seihin
370
    25
100
AcDbLine
 10
4187.763267793865
 20
3931.101211438418
 30
0.0
 11
4668.367650833732
 21
3959.646208825543
 31
0.0
  0
LINE
  5
1161
330
21
100
AcDbEntity
  8
1
  6
Continuous
 62
     7
370
    30
100
AcDbLine
 10
4187.818849512138
 20
3931.105380062815
 30
0.0
 11
4668.367650833732
 21
3959.646208825543
 31
0.0
  0
LINE
  5
1162
330
21
100
AcDbEntity
  8
seihin
370
    25
100
AcDbLine
 10
3953.363641455069
 20
3809.646241024636
 30
0.0
 11
4668.367650833732
 21
3809.646241024636
 31
0.0
  0
LINE
  5
1163
330
21
100
AcDbEntity
  8
seihin
370
    25
100
AcDbLine
 10
4668.367650833732
 20
3809.646241024636
 30
0.0
 11
4668.367650833732
 21
3959.646241024636
 31
0.0
  0
LINE
  5
1164
330
21
100
AcDbEntity
  8
seihin
370
    25
100
AcDbLine
 10
4444.392542957887
 20
3130.725164337553
 30
0.0
 11
4444.392542957887
 21
3450.725164337554
 31
0.0
  0
LINE
  5
1165
330
21
100
AcDbEntity
  8
seihin
370
    25
100
AcDbLine
 10
4444.392542957887
 20
3130.725164337553
 30
0.0
 11
5644.392542957887
 21
3130.725164337553
 31
0.0
  0
LINE
  5
1166
330
21
100
AcDbEntity
  8
seihin
370
    25
100
AcDbLine
 10
5644.392542957887
 20
3130.725164337553
 30
0.0
 11
5644.392542957887
 21
3280.725164337553
 31
0.0
  0
LINE
  5
1167
330
21
100
AcDbEntity
  8
seihin
370
    25
100
AcDbLine
 10
4444.392542957887
 20
3280.725164337553
 30
0.0
 11
5644.392542957887
 21
3280.725164337553
 31
0.0
  0
LINE
  5
1168
330
21
100
AcDbEntity
  8
seihin
370
    25
100
AcDbLine
 10
5644.392542957887
 20
3280.725164337553
 30
0.0
 11
4444.392542957887
 21
3450.722277868369
 31
0.0
  0
LINE
  5
1169
330
21
100
AcDbEntity
  8
seihin
370
    25
100
AcDbLine
 10
5487.885952980899
 20
3280.725164337553
 30
0.0
 11
5044.643932219244
 21
3365.688108228959
 31
0.0
  0
ARC
  5
116A
330
21
100
AcDbEntity
  8
seihin
370
    25
100
AcDbCircle
 10
5577.22975117593
 20
3949.72342015299
 30
0.0
 40
20.0
100
AcDbArc
 50
262.647620640131
 51
273.4336303624754
  0
LINE
  5
116B
330
21
100
AcDbEntity
  8
seihin
370
    25
100
AcDbLine
 10
5578.42759699049
 20
3929.759323243678
 30
0.0
 11
6076.542893339812
 21
3959.646241024636
 31
0.0
  0
LINE
  5
116C
330
21
100
AcDbEntity
  8
seihin
370
    25
100
AcDbLine
 10
5421.542893339813
 20
3949.646241024635
 30
0.0
 11
5574.670324423326
 21
3929.887862820309
 31
0.0
  0
LINE
  5
116D
330
21
100
AcDbEntity
  8
seihin
370
    25
100
AcDbLine
 10
6076.542893339812
 20
3809.646241024636
 30
0.0
 11
6076.542893339812
 21
3959.646241024636
 31
0.0
  0
LINE
  5
116E
330
21
100
AcDbEntity
  8
seihin
370
    25
100
AcDbLine
 10
6076.542893339812
 20
3809.646241024636
 30
0.0
 11
5361.542893339812
 21
3809.646241024636
 31
0.0
  0
LINE
  5
116F
330
21
100
AcDbEntity
  8
seihin
370
    25
100
AcDbLine
 10
5361.542893339812
 20
3809.646241024636
 30
0.0
 11
5361.542893339812
 21
3949.646241024635
 31
0.0
  0
LINE
  5
1170
330
21
100
AcDbEntity
  8
seihin
370
    25
100
AcDbLine
 10
5361.542893339812
 20
3949.646241024635
 30
0.0
 11
5421.542893339813
 21
3949.646241024635
 31
0.0
  0
TEXT
  5
1171
330
21
100
AcDbEntity
  8
1
  6
Continuous
 62
     7
370
     9
100
AcDbText
 10
2514.850388751698
 20
-2203.302186410343
 30
0.0
 40
35.52011382614909
  1
歩車道境界ブロック付L型側溝
 11
2514.850388751698
 21
-2209.793171678066
 31
0.0
100
AcDbText
 73
     1
  0
TEXT
  5
1172
330
21
100
AcDbEntity
  8
1
  6
Continuous
 62
     7
370
     9
100
AcDbText
 10
2514.998746425534
 20
-2261.380450328812
 30
0.0
 40
35.52011382614909
  1
PL-400 民地等出入口用摺付
 11
2514.998746425534
 21
-2267.871435596535
 31
0.0
100
AcDbText
 73
     1
  0
TEXT
  5
1173
330
21
100
AcDbEntity
  8
1
  6
Continuous
 62
     7
370
     9
100
AcDbText
 10
2514.747392676471
 20
-2320.579640039065
 30
0.0
 40
35.52011382614909
  1
四国ブロック工業株式会社
 11
2514.747392676471
 21
-2327.070625306788
 31
0.0
100
AcDbText
 73
     1
  0
TEXT
  5
1174
330
21
100
AcDbEntity
  8
1
  6
Continuous
 62
     7
370
     9
100
AcDbText
 10
2430.75188887774
 20
-2129.383483356658
 30
0.0
 40
35.52011382614909
  1
参考重量　: 314kg
 11
2430.75188887774
 21
-2135.874468624381
 31
0.0
100
AcDbText
 73
     1
  0
TEXT
  5
1175
330
21
100
AcDbEntity
  8
1
  6
Continuous
 62
     7
370
     9
100
AcDbText
 10
2478.707789411534
 20
-2381.476467040258
 30
0.0
 40
35.52011382614909
  1
高知県コンクリート製品工業組合
 11
2478.707789411534
 21
-2387.967452307981
 31
0.0
100
AcDbText
 73
     1
  0
LINE
  5
1176
330
21
100
AcDbEntity
  8
1
  6
Continuous
 62
     7
370
     9
100
AcDbLine
 10
3199.889328044849
 20
-2161.416510643681
 30
0.0
 11
2430.286861811617
 21
-2161.416510643681
 31
0.0
  0
LINE
  5
1177
330
21
100
AcDbEntity
  8
1
  6
Continuous
 62
     7
370
     9
100
AcDbLine
 10
2430.286861811617
 20
-2161.416510643681
 30
0.0
 11
2430.286861811617
 21
-2398.217269484681
 31
0.0
  0
LINE
  5
1178
330
21
100
AcDbEntity
  8
1
  6
Continuous
 62
     7
370
     9
100
AcDbLine
 10
3199.889328044849
 20
-2220.616700353934
 30
0.0
 11
2430.286861811617
 21
-2220.616700353934
 31
0.0
  0
LINE
  5
1179
330
21
100
AcDbEntity
  8
1
  6
Continuous
 62
     7
370
     9
100
AcDbLine
 10
3199.889328044849
 20
-2339.017079774432
 30
0.0
 11
2430.286861811617
 21
-2339.017079774432
 31
0.0
  0
LINE
  5
117A
330
21
100
AcDbEntity
  8
1
  6
Continuous
 62
     7
370
     9
100
AcDbLine
 10
3199.889328044849
 20
-2279.816890064183
 30
0.0
 11
2430.286861811617
 21
-2279.816890064183
 31
0.0
  0
DIMENSION
  5
117B
330
21
100
AcDbEntity
  8
sunpo
370
    20
100
AcDbDimension
  2
*D243
 10
491.4264272208583
 20
-970.3249040719201
 30
0.0
 11
463.3014272208585
 21
-885.3263473065124
 31
0.0
 70
    32
  1
170
 71
     5
 42
169.9971135308151
  3
20
100
AcDbAlignedDimension
 13
603.4823393095084
 23
-800.3277905411049
 33
0.0
 14
603.4783299308456
 24
-970.3249040719201
 34
0.0
 50
90.0
100
AcDbRotatedDimension
  0
DIMENSION
  5
117C
330
21
100
AcDbEntity
  8
sunpo
370
    20
100
AcDbDimension
  2
*D244
 10
1718.086946342913
 20
-970.4766457979966
 30
0.0
 11
1689.961946342913
 21
-885.4766457979964
 31
0.0
 70
    32
 71
     5
 42
170.0
  3
20
100
AcDbAlignedDimension
 13
1911.653572436926
 23
-800.4766457979966
 33
0.0
 14
1911.653572436926
 24
-970.4766457979967
 34
0.0
 50
90.0
100
AcDbRotatedDimension
  0
DIMENSION
  5
117D
330
21
100
AcDbEntity
  8
sunpo
370
    20
100
AcDbDimension
  2
*D245
 10
2061.940923429023
 20
-970.4766457979967
 30
0.0
 11
2033.815923429024
 21
-910.4766457979964
 31
0.0
 70
    32
 71
     5
 42
120.0
  3
20
100
AcDbAlignedDimension
 13
2126.653572436922
 23
-850.4766457979966
 33
0.0
 14
2114.653572436926
 24
-970.4766457979967
 34
0.0
 50
90.0
100
AcDbRotatedDimension
  0
DIMENSION
  5
117E
330
21
100
AcDbEntity
  8
sunpo
370
    20
100
AcDbDimension
  2
*D246
 10
2655.572448550969
 20
-970.4766457979967
 30
0.0
 11
2627.447448550969
 21
-895.4766457979962
 31
0.0
 70
    32
 71
     5
 42
150.0
  3
20
100
AcDbAlignedDimension
 13
2526.653572436926
 23
-820.4766457979967
 33
0.0
 14
2526.653572436926
 24
-970.4766457979967
 34
0.0
 50
90.0
100
AcDbRotatedDimension
  0
DIMENSION
  5
117F
330
21
100
AcDbEntity
  8
sunpo
370
    20
100
AcDbDimension
  2
*D247
 10
1379.591578452209
 20
-970.3249040719203
 30
0.0
 11
1351.466578452209
 21
-895.32490407192
 31
0.0
 70
    32
 71
     5
 42
150.0
  3
20
100
AcDbAlignedDimension
 13
1218.478329930845
 23
-820.3249040719201
 33
0.0
 14
1218.478329930845
 24
-970.3249040719201
 34
0.0
 50
90.0
100
AcDbRotatedDimension
  0
DIMENSION
  5
1180
330
21
100
AcDbEntity
  8
sunpo
370
    20
100
AcDbDimension
  2
*D248
 10
2526.653572436926
 20
-559.7994217869746
 30
0.0
 11
2326.653572436924
 21
-531.6744217869746
 31
0.0
 70
    32
 71
     5
 42
400.0000000000036
  3
20
100
AcDbAlignedDimension
 13
2126.653572436922
 23
-850.4766457979966
 33
0.0
 14
2526.653572436926
 24
-820.4766457979967
 34
0.0
100
AcDbRotatedDimension
  0
DIMENSION
  5
1181
330
21
100
AcDbEntity
  8
sunpo
370
    20
100
AcDbDimension
  2
*D249
 10
2526.653572436926
 20
-435.7482973220321
 30
0.0
 11
2219.153572436926
 21
-407.6232973220321
 31
0.0
 70
    32
 71
     5
 42
615.0
  3
20
100
AcDbAlignedDimension
 13
1911.653572436926
 23
-800.4766457979966
 33
0.0
 14
2526.653572436926
 24
-820.4766457979967
 34
0.0
100
AcDbRotatedDimension
  0
DIMENSION
  5
1182
330
21
100
AcDbEntity
  8
sunpo
370
    20
100
AcDbDimension
  2
*D250
 10
1218.478329930845
 20
-435.5965555959556
 30
0.0
 11
910.980334620177
 21
-407.4715555959556
 31
0.0
 70
    32
 71
     5
 42
614.995990621337
  3
20
100
AcDbAlignedDimension
 13
603.4823393095084
 23
-800.3277528409707
 33
0.0
 14
1218.478329930845
 24
-820.3249040719201
 34
0.0
100
AcDbRotatedDimension
  0
DIMENSION
  5
1183
330
21
100
AcDbEntity
  8
sunpo
370
    20
100
AcDbDimension
  2
*D251
 10
818.4783299308456
 20
-559.7994217869746
 30
0.0
 11
1018.478329930845
 21
-531.6744217869746
 31
0.0
 70
    32
 71
     5
 42
400.0
  3
20
100
AcDbAlignedDimension
 13
1218.478329930845
 23
-820.3249362710121
 33
0.0
 14
818.4783299308456
 24
-834.3249040719202
 34
0.0
100
AcDbRotatedDimension
  0
DIMENSION
  5
1184
330
21
100
AcDbEntity
  8
sunpo
370
    20
100
AcDbDimension
  2
*D252
 10
406.8216254005656
 20
-970.3249040719201
 30
0.0
 11
378.6966254005658
 21
-810.3263473065124
 31
0.0
 70
    32
  1
<>
 71
     5
 42
319.9971135308151
  3
20
100
AcDbAlignedDimension
 13
645.2114495842888
 23
-650.327790541105
 33
0.0
 14
603.4783299308456
 24
-970.3249040719201
 34
0.0
 50
90.0
100
AcDbRotatedDimension
  0
DIMENSION
  5
1185
330
21
100
AcDbEntity
  8
sunpo
370
    20
100
AcDbDimension
  2
*D253
 10
2126.653572436922
 20
-559.7994217869746
 30
0.0
 11
2116.653572436926
 21
-508.2369217869746
 31
0.0
 70
    32
  1
20
 71
     5
 42
19.99999999999272
  3
20
100
AcDbAlignedDimension
 13
2106.653572436929
 23
-820.4766457979967
 33
0.0
 14
2126.653572436922
 24
-850.4766457979966
 34
0.0
100
AcDbRotatedDimension
  0
DIMENSION
  5
1186
330
21
100
AcDbEntity
  8
sunpo
370
    20
100
AcDbDimension
  2
*D254
 10
1971.653572436926
 20
-559.7994217869746
 30
0.0
 11
1941.653572436926
 21
-508.2369217869746
 31
0.0
 70
    32
  1
60
 71
     5
 42
60.0
  3
20
100
AcDbAlignedDimension
 13
1911.653572436926
 23
-800.4766457979966
 33
0.0
 14
1971.653572436926
 24
-800.4766457979966
 34
0.0
100
AcDbRotatedDimension
  0
DIMENSION
  5
1187
330
21
100
AcDbEntity
  8
sunpo
370
    20
100
AcDbDimension
  2
*D255
 10
2106.653572436929
 20
-559.7994217869746
 30
0.0
 11
2039.153572436928
 21
-531.6744217869746
 31
0.0
 70
    32
  1
135
 71
     5
 42
135.0000000000036
  3
20
100
AcDbAlignedDimension
 13
1971.653572436926
 23
-800.4766457979966
 33
0.0
 14
2106.653572436929
 24
-820.4766457979967
 34
0.0
100
AcDbRotatedDimension
  0
DIMENSION
  5
1188
330
21
100
AcDbEntity
  8
sunpo
370
    20
100
AcDbDimension
  2
*D256
 10
1828.424858590059
 20
-970.4766457979967
 30
0.0
 11
1800.299858590059
 21
-910.4766457979964
 31
0.0
 70
    32
  1
120
 71
     5
 42
120.0
  3
20
100
AcDbAlignedDimension
 13
1911.653572436926
 23
-850.4766457979966
 33
0.0
 14
1911.653572436926
 24
-970.4766457979967
 34
0.0
 50
90.0
100
AcDbRotatedDimension
  0
DIMENSION
  5
1189
330
21
100
AcDbEntity
  8
sunpo
370
    20
100
AcDbDimension
  2
*D257
 10
1828.424858590059
 20
-850.4766457979966
 30
0.0
 11
1776.862358590059
 21
-825.4766457979965
 31
0.0
 70
    32
  1
50
 71
     5
 42
50.0
  3
20
100
AcDbAlignedDimension
 13
1911.653572436926
 23
-800.4766457979966
 33
0.0
 14
1911.653572436926
 24
-850.4766457979966
 34
0.0
 50
90.0
100
AcDbRotatedDimension
  0
DIMENSION
  5
118A
330
21
100
AcDbEntity
  8
sunpo
370
    20
100
AcDbDimension
  2
*D258
 10
818.4783299308456
 20
-559.7994217869746
 30
0.0
 11
808.4783299308492
 21
-508.2369217869746
 31
0.0
 70
    32
  1
20
 71
     5
 42
19.99999999999272
  3
20
100
AcDbAlignedDimension
 13
798.4783299308528
 23
-650.327790541105
 33
0.0
 14
818.4783299308456
 24
-850.3249040719202
 34
0.0
100
AcDbRotatedDimension
  0
DIMENSION
  5
118B
330
21
100
AcDbEntity
  8
sunpo
370
    20
100
AcDbDimension
  2
*D259
 10
618.4823393095394
 20
-559.7994217869746
 30
0.0
 11
708.4803346201961
 21
-531.6744217869746
 31
0.0
 70
    32
  1
180
 71
     5
 42
179.9959906213134
  3
20
100
AcDbAlignedDimension
 13
798.4783299308528
 23
-650.327790541105
 33
0.0
 14
618.4823393095394
 24
-650.327790541105
 34
0.0
100
AcDbRotatedDimension
  0
DIMENSION
  5
118C
330
21
100
AcDbEntity
  8
sunpo
370
    20
100
AcDbDimension
  2
*D260
 10
603.4823393095084
 20
-559.7994217869746
 30
0.0
 11
610.9823393095239
 21
-508.2369217869746
 31
0.0
 70
    32
  1
15
 71
     5
 42
15.00000000003092
  3
20
100
AcDbAlignedDimension
 13
618.4823393095394
 23
-650.327790541105
 33
0.0
 14
603.4823393095084
 24
-800.3277905411049
 34
0.0
100
AcDbRotatedDimension
  0
DIMENSION
  5
118D
330
21
100
AcDbEntity
  8
sunpo
370
    20
100
AcDbDimension
  2
*D261
 10
491.4264272208583
 20
-800.3277905411049
 30
0.0
 11
463.3014272208584
 21
-725.3277905411049
 31
0.0
 70
    32
  1
150
 71
     5
 42
150.0
  3
20
100
AcDbAlignedDimension
 13
645.2114495842888
 23
-650.327790541105
 33
0.0
 14
603.4823393095084
 24
-800.3277905411049
 34
0.0
 50
90.0
100
AcDbRotatedDimension
  0
ARC
  5
118E
330
21
100
AcDbEntity
  8
seihin
370
    25
100
AcDbCircle
 10
2094.93836471591
 20
-838.9593469711144
 30
0.0
 40
20.0
100
AcDbArc
 50
33.6900675260376
 51
81.57303097856516
  0
LINE
  5
118F
330
21
100
AcDbEntity
  8
seihin
370
    25
100
AcDbLine
 10
2111.579370602669
 20
-827.8653430466075
 30
0.0
 11
2120.170878699062
 21
-840.7526051912027
 31
0.0
  0
LINE
  5
1190
330
21
100
AcDbEntity
  8
seihin
370
    25
100
AcDbLine
 10
1971.653572436926
 20
-800.4766457979966
 30
0.0
 11
2097.869337937702
 21
-819.1752777240363
 31
0.0
  0
ARC
  5
1191
330
21
100
AcDbEntity
  8
seihin
370
    25
100
AcDbCircle
 10
2136.811884585821
 20
-829.6586012666958
 30
0.0
 40
20.0
100
AcDbArc
 50
213.6900675260376
 51
274.2891533287963
  0
LINE
  5
1192
330
21
100
AcDbEntity
  8
seihin
370
    25
100
AcDbLine
 10
2138.307683550653
 20
-849.6025874644656
 30
0.0
 11
2526.653572436926
 21
-820.4766457979967
 31
0.0
  0
LINE
  5
1193
330
21
100
AcDbEntity
  8
seihin
370
    25
100
AcDbLine
 10
1911.653572436926
 20
-970.4766457979967
 30
0.0
 11
2526.653572436926
 21
-970.4766457979967
 31
0.0
  0
LINE
  5
1194
330
21
100
AcDbEntity
  8
seihin
370
    25
100
AcDbLine
 10
2526.653572436926
 20
-970.4766457979967
 30
0.0
 11
2526.653572436926
 21
-820.4766457979967
 31
0.0
  0
LINE
  5
1195
330
21
100
AcDbEntity
  8
seihin
370
    25
100
AcDbLine
 10
1911.653572436926
 20
-800.4766457979966
 30
0.0
 11
1971.653572436926
 21
-800.4766457979966
 31
0.0
  0
LINE
  5
1196
330
21
100
AcDbEntity
  8
seihin
370
    25
100
AcDbLine
 10
1911.653572436926
 20
-970.4766457979967
 30
0.0
 11
1911.653572436926
 21
-800.4766457979966
 31
0.0
  0
LINE
  5
1197
330
21
100
AcDbEntity
  8
seihin
370
    25
100
AcDbLine
 10
603.4823393095084
 20
-970.3277528409708
 30
0.0
 11
603.4823393095084
 21
-800.3277528409707
 31
0.0
  0
LINE
  5
1198
330
21
100
AcDbEntity
  8
seihin
370
    25
100
AcDbLine
 10
1218.478329930845
 20
-970.3249040719201
 30
0.0
 11
1218.478329930845
 21
-820.3249040719201
 31
0.0
  0
LINE
  5
1199
330
21
100
AcDbEntity
  8
seihin
370
    25
100
AcDbLine
 10
603.4783299308456
 20
-970.3249040719201
 30
0.0
 11
1218.478329930845
 21
-970.3249040719201
 31
0.0
  0
ARC
  5
119A
330
21
100
AcDbEntity
  8
seihin
370
    25
100
AcDbCircle
 10
645.6319661728721
 20
-680.327790541105
 30
0.0
 40
30.0
100
AcDbArc
 50
90.0
 51
174.2894068625314
  0
ARC
  5
119B
330
21
100
AcDbEntity
  8
seihin
370
    25
100
AcDbCircle
 10
771.3287420568358
 20
-680.327790541105
 30
0.0
 40
30.0
100
AcDbArc
 50
5.710675011230134
 51
90.0
  0
ARC
  5
119C
330
21
100
AcDbEntity
  8
seihin
370
    25
100
AcDbCircle
 10
836.4377406195508
 20
-828.9217787162343
 30
0.0
 40
20.0
100
AcDbArc
 50
185.7106750112301
 51
274.2891487424466
  0
LINE
  5
119D
330
21
100
AcDbEntity
  8
seihin
370
    25
100
AcDbLine
 10
837.9335379879176
 20
-848.8657650337408
 30
0.0
 11
1218.478329930845
 21
-820.3249362710121
 31
0.0
  0
ARC
  5
119E
330
21
100
AcDbEntity
  8
seihin
370
    25
100
AcDbCircle
 10
836.4377406195508
 20
-828.9217787162343
 30
0.0
 40
20.0
100
AcDbArc
 50
185.7106750112301
 51
274.2891487424466
  0
LINE
  5
119F
330
21
100
AcDbEntity
  8
seihin
370
    25
100
AcDbLine
 10
837.8779562696418
 20
-848.8699336581376
 30
0.0
 11
1218.478329930845
 21
-820.3249362710121
 31
0.0
  0
LINE
  5
11A0
330
21
100
AcDbEntity
  8
seihin
370
    25
100
AcDbLine
 10
615.8423593080751
 20
-676.7275905554161
 30
0.0
 11
603.4823393095084
 21
-800.3277905411049
 31
0.0
  0
LINE
  5
11A1
330
21
100
AcDbEntity
  8
seihin
370
    25
100
AcDbLine
 10
801.1056413077877
 20
-676.600525127862
 30
0.0
 11
816.5369996591161
 21
-830.9118815341317
 31
0.0
  0
LINE
  5
11A2
330
21
100
AcDbEntity
  8
seihin
370
    25
100
AcDbLine
 10
645.2114495842888
 20
-650.327790541105
 30
0.0
 11
771.9080021663448
 21
-650.327790541105
 31
0.0
  0
LINE
  5
11A3
330
21
100
AcDbEntity
  8
seihin
370
    25
100
AcDbLine
 10
817.308074677925
 20
-838.6225204379771
 30
0.0
 11
818.4783299308456
 21
-850.3249040719202
 31
0.0
  0
LINE
  5
11A4
330
21
100
AcDbEntity
  8
seihin
370
    25
100
AcDbLine
 10
818.4783299308456
 20
-850.3249040719202
 30
0.0
 11
831.1902550127506
 21
-849.3715107140561
 31
0.0
  0
LINE
  5
11A5
330
21
100
AcDbEntity
  8
seihin
370
    25
100
AcDbLine
 10
818.4783299308456
 20
-850.3249040719202
 30
0.0
 11
831.1902550127506
 21
-849.3715107140561
 31
0.0
  0
LINE
  5
11A6
330
21
100
AcDbEntity
  8
seihin
370
    25
100
AcDbLine
 10
818.4783299308456
 20
-850.3249040719202
 30
0.0
 11
831.1902550127506
 21
-849.3715107140561
 31
0.0
  0
DIMENSION
  5
11A7
330
21
100
AcDbEntity
  8
sunpo
370
    20
100
AcDbDimension
  2
*D262
 10
2194.503222055
 20
-1842.552611408893
 30
0.0
 11
1594.503222055
 21
-1814.427611408893
 31
0.0
 70
    32
 71
     5
 42
1200.0
  3
20
100
AcDbAlignedDimension
 13
994.5032220550002
 23
-1665.709346171761
 33
0.0
 14
2194.503222055
 24
-1665.709346171761
 34
0.0
100
AcDbRotatedDimension
  0
TEXT
  5
11A8
330
21
100
AcDbEntity
  8
seihin
370
    25
100
AcDbText
 10
1609.580774940221
 20
-1346.565245462135
 30
0.0
 40
36.0
  1
ダミー目地
 41
0.8333333333333333
 11
1609.580774940221
 21
-1353.143925665181
 31
0.0
100
AcDbText
 73
     1
  0
POLYLINE
  5
11A9
330
21
100
AcDbEntity
  8
seihin
370
    25
100
AcDb2dPolyline
 66
     1
 10
0.0
 20
0.0
 30
0.0
  0
VERTEX
  5
11AA
330
11A9
100
AcDbEntity
  8
seihin
370
    25
100
AcDbVertex
100
AcDb2dVertex
 10
1594.307605095897
 20
-1420.684894051874
 30
0.0
  0
VERTEX
  5
11AB
330
11A9
100
AcDbEntity
  8
seihin
370
    25
100
AcDbVertex
100
AcDb2dVertex
 10
1609.580774940221
 20
-1355.543925665182
 30
0.0
  0
VERTEX
  5
11AC
330
11A9
100
AcDbEntity
  8
seihin
370
    25
100
AcDbVertex
100
AcDb2dVertex
 10
1789.580774940221
 20
-1355.543925665182
 30
0.0
  0
SEQEND
  5
11AD
330
11A9
100
AcDbEntity
  8
seihin
370
    25
  0
LINE
  5
11AE
330
21
100
AcDbEntity
  8
seihin
370
    25
100
AcDbLine
 10
1594.307605095897
 20
-1420.684894051874
 30
0.0
 11
1603.112259105455
 21
-1404.261124055687
 31
0.0
  0
LINE
  5
11AF
330
21
100
AcDbEntity
  8
seihin
370
    25
100
AcDbLine
 10
1594.307605095897
 20
-1420.684894051874
 30
0.0
 11
1593.720774141613
 21
-1402.059165004484
 31
0.0
  0
LINE
  5
11B0
330
21
100
AcDbEntity
  8
seihin
370
    25
100
AcDbLine
 10
1599.503222055
 20
-1421.334346171761
 30
0.0
 11
2169.493982011523
 21
-1515.709346171761
 31
0.0
  0
LINE
  5
11B1
330
21
100
AcDbEntity
  8
seihin
370
    25
100
AcDbLine
 10
1599.503222055
 20
-1421.334346171761
 30
0.0
 11
1599.503222055
 21
-1665.709346171761
 31
0.0
  0
LINE
  5
11B2
330
21
100
AcDbEntity
  8
seihin
370
    25
100
AcDbLine
 10
1589.503222055
 20
-1420.084346171761
 30
0.0
 11
1589.503222055
 21
-1665.709346171761
 31
0.0
  0
LINE
  5
11B3
330
21
100
AcDbEntity
  8
seihin
370
    25
100
AcDbLine
 10
994.5032220550002
 20
-1345.709346171761
 30
0.0
 11
2194.503222055
 21
-1495.709346171761
 31
0.0
  0
LINE
  5
11B4
330
21
100
AcDbEntity
  8
seihin
370
    25
100
AcDbLine
 10
2194.503222055
 20
-1665.709346171761
 30
0.0
 11
2194.503222055
 21
-1495.709346171761
 31
0.0
  0
LINE
  5
11B5
330
21
100
AcDbEntity
  8
seihin
370
    25
100
AcDbLine
 10
994.5032220550002
 20
-1515.709346171761
 30
0.0
 11
2194.503222055
 21
-1515.709346171761
 31
0.0
  0
LINE
  5
11B6
330
21
100
AcDbEntity
  8
seihin
370
    25
100
AcDbLine
 10
994.5032220550002
 20
-1665.709346171761
 30
0.0
 11
2194.503222055
 21
-1665.709346171761
 31
0.0
  0
LINE
  5
11B7
330
21
100
AcDbEntity
  8
seihin
370
    25
100
AcDbLine
 10
994.5032220550002
 20
-1665.709346171761
 30
0.0
 11
994.5032220550002
 21
-1345.709346171761
 31
0.0
  0
DIMENSION
  5
11B8
330
21
100
AcDbEntity
  8
sunpo
370
    20
100
AcDbDimension
  2
*D263
 10
727.7994846224665
 20
-1665.709346171761
 30
0.0
 11
699.6744846224666
 21
-1505.709346171761
 31
0.0
 70
    32
 71
     5
 42
320.0
  3
20
100
AcDbAlignedDimension
 13
994.5032220550002
 23
-1345.709346171761
 33
0.0
 14
994.5032220550002
 24
-1665.709346171761
 34
0.0
 50
90.0
100
AcDbRotatedDimension
  0
LINE
  5
11B9
330
21
100
AcDbEntity
  8
seihin
370
    25
100
AcDbLine
 10
618.4823393095085
 20
-650.3277905411014
 30
0.0
 11
617.027361260405
 21
-664.8775710321188
 31
0.0
  0
LINE
  5
11BA
330
21
100
AcDbEntity
  8
seihin
370
    25
100
AcDbLine
 10
618.4823393095394
 20
-650.327790541105
 30
0.0
 11
633.1046877344434
 21
-650.3277905411032
 31
0.0
  0
LINE
  5
11BB
330
21
100
AcDbEntity
  8
seihin
370
    25
100
AcDbLine
 10
798.4783299308455
 20
-650.327790541105
 30
0.0
 11
799.9333287710815
 21
-664.8775689529957
 31
0.0
  0
LINE
  5
11BC
330
21
100
AcDbEntity
  8
seihin
370
    25
100
AcDbLine
 10
783.8559815059107
 20
-650.327790541105
 30
0.0
 11
798.4783299308528
 21
-650.327790541105
 31
0.0
  0
LEADER
  5
11BD
330
21
100
AcDbEntity
  8
sunpo
370
    20
100
AcDbLeader
  3
20
 73
     0
 74
     0
 75
     1
 40
37.5
 41
68.90862944162435
 76
     3
 10
823.5819648616997
 20
-844.2426478059386
 30
0.0
 10
879.8623098981678
 20
-734.384912057947
 30
0.0
 10
909.8623098981679
 20
-734.384912057947
 30
0.0
340
11BE
1001
ACAD
1000
DSTYLE
1002
{
1070
   147
1040
0.625
1070
    77
1070
     1
1002
}
  0
MTEXT
  5
11BE
102
{ACAD_REACTORS
330
11BD
102
}
330
21
100
AcDbEntity
  8
sunpo
370
    20
100
AcDbMText
 10
919.2373098981679
 20
-725.009912057947
 30
0.0
 40
37.5
 41
0.0
 71
     7
 72
     1
  1
R20
 73
     1
 44
1.0
1001
ACAD
1000
MTEXTBEGIN
1070
    73
1070
     1
1070
    44
1040
1.0
1070
    74
1070
     0
1000
MTEXTEND
  0
DIMENSION
  5
11BF
330
21
100
AcDbEntity
  8
sunpo
370
    20
100
AcDbDimension
  2
*D264
 10
730.3214291615058
 20
-850.32490407192
 30
0.0
 11
702.1964291615061
 21
-910.32490407192
 31
0.0
 70
    32
 71
     5
 42
120.0
  3
20
100
AcDbAlignedDimension
 13
910.9783299308455
 23
-970.3249040719201
 33
0.0
 14
818.4783299308456
 24
-850.3249040719202
 34
0.0
 50
90.0
100
AcDbRotatedDimension
  0
LINE
  5
11C0
330
21
100
AcDbEntity
  8
sunpo
370
    20
100
AcDbLine
 10
1085.259128801406
 20
-818.936331607736
 30
0.0
 11
998.9368584473904
 21
-825.4105018842929
 31
0.0
  0
LINE
  5
11C1
330
21
100
AcDbEntity
  8
sunpo
370
    20
100
AcDbLine
 10
998.9368584473904
 20
-825.4105018842929
 30
0.0
 11
1018.613877738969
 21
-819.7606110983251
 31
0.0
  0
LINE
  5
11C2
330
21
100
AcDbEntity
  8
sunpo
370
    20
100
AcDbLine
 10
1018.613877738969
 20
-819.7606110983251
 30
0.0
 11
1017.859429645303
 21
-823.991309044446
 31
0.0
  0
TEXT
  5
11C3
330
21
100
AcDbEntity
  8
sunpo
370
    20
100
AcDbText
 10
1008.617718589163
 20
-818.1610891351525
 30
0.0
 40
40.0
  1
7.5%%%
 50
4.289153328794335
 11
1009.164406535697
 21
-825.4502617556573
 31
0.0
100
AcDbText
 73
     1
  0
LEADER
  5
11C4
330
21
100
AcDbEntity
  8
seihin
370
    25
100
AcDbLeader
  3
20
 76
     3
 10
1082.660860833677
 20
-1156.039595843702
 30
0.0
 10
994.5032220550002
 20
-1156.039595843702
 30
0.0
 10
994.5032220550002
 20
-1233.142177015545
 30
0.0
1001
ACAD
1000
DSTYLE
1002
{
1070
   147
1040
0.625
1070
    77
1070
     1
1002
}
  0
TEXT
  5
11C5
330
21
100
AcDbEntity
  8
seihin
370
    25
100
AcDbText
 10
1035.468314039253
 20
-1980.317976670938
 30
0.0
 40
50.0
  1
A
100
AcDbText
  0
LEADER
  5
11C6
330
21
100
AcDbEntity
  8
seihin
370
    25
100
AcDbLeader
  3
20
 76
     3
 10
1082.660860833677
 20
-2002.341698013975
 30
0.0
 10
994.5032220550002
 20
-2002.341698013975
 30
0.0
 10
994.5032220550002
 20
-1925.239116842132
 30
0.0
210
0.0
220
0.0
230
-1.0
1001
ACAD
1000
DSTYLE
1002
{
1070
   147
1040
0.625
1070
    77
1070
     1
1002
}
  0
TEXT
  5
11C7
330
21
100
AcDbEntity
  8
seihin
370
    25
100
AcDbText
 10
1035.468314039253
 20
-1228.307066364638
 30
0.0
 40
50.0
  1
A
100
AcDbText
  0
TEXT
  5
11C8
330
21
100
AcDbEntity
  8
seihin
370
    25
100
AcDbText
 10
2235.468314039254
 20
-1228.307066364638
 30
0.0
 40
50.0
  1
B
100
AcDbText
  0
LEADER
  5
11C9
330
21
100
AcDbEntity
  8
seihin
370
    25
100
AcDbLeader
  3
20
 76
     3
 10
2282.660860833678
 20
-1156.039595843702
 30
0.0
 10
2194.503222055
 20
-1156.039595843702
 30
0.0
 10
2194.503222055
 20
-1233.142177015545
 30
0.0
1001
ACAD
1000
DSTYLE
1002
{
1070
   147
1040
0.625
1070
    77
1070
     1
1002
}
  0
LEADER
  5
11CA
330
21
100
AcDbEntity
  8
seihin
370
    25
100
AcDbLeader
  3
20
 76
     3
 10
2282.660860833678
 20
-2002.341698013975
 30
0.0
 10
2194.503222055
 20
-2002.341698013975
 30
0.0
 10
2194.503222055
 20
-1925.239116842132
 30
0.0
210
0.0
220
0.0
230
-1.0
1001
ACAD
1000
DSTYLE
1002
{
1070
   147
1040
0.625
1070
    77
1070
     1
1002
}
  0
TEXT
  5
11CB
330
21
100
AcDbEntity
  8
seihin
370
    25
100
AcDbText
 10
2235.468314039254
 20
-1980.317976670938
 30
0.0
 40
50.0
  1
B
100
AcDbText
  0
TEXT
  5
11CC
330
21
100
AcDbEntity
  8
seihin
370
    25
100
AcDbText
 10
794.1842081402082
 20
-283.5258979435185
 30
0.0
 40
50.0
  1
A-A断面
100
AcDbText
  0
LINE
  5
11CD
330
21
100
AcDbEntity
  8
seihin
370
    25
100
AcDbLine
 10
763.5106820091078
 20
-295.9726552879583
 30
0.0
 11
1040.212685120035
 21
-295.9726552879583
 31
0.0
  0
LINE
  5
11CE
330
21
100
AcDbEntity
  8
seihin
370
    25
100
AcDbLine
 10
2071.683919825857
 20
-296.1243970140349
 30
0.0
 11
2348.385922936785
 21
-296.1243970140349
 31
0.0
  0
TEXT
  5
11CF
330
21
100
AcDbEntity
  8
seihin
370
    25
100
AcDbText
 10
2102.357445956958
 20
-283.677639669595
 30
0.0
 40
50.0
  1
B-B断面
100
AcDbText
  0
DIMENSION
  5
11D0
330
21
100
AcDbEntity
  8
sunpo
370
    20
100
AcDbDimension
  2
*D265
 10
875.7591712437333
 20
-1515.709346171761
 30
0.0
 11
847.6341712437335
 21
-1590.709346171761
 31
0.0
 70
    32
 71
     5
 42
150.0
  3
20
100
AcDbAlignedDimension
 13
994.5032220550002
 23
-1665.709346171761
 33
0.0
 14
994.5032220550002
 24
-1515.709346171761
 34
0.0
 50
90.0
100
AcDbRotatedDimension
  0
DIMENSION
  5
11D1
330
21
100
AcDbEntity
  8
sunpo
370
    20
100
AcDbDimension
  2
*D266
 10
2378.764991477065
 20
-1515.709346171761
 30
0.0
 11
2350.639991477065
 21
-1590.709346171761
 31
0.0
 70
    32
 71
     5
 42
150.0
  3
20
100
AcDbAlignedDimension
 13
2194.503222055
 23
-1665.709346171761
 33
0.0
 14
2194.503222055
 24
-1515.709346171761
 34
0.0
 50
90.0
100
AcDbRotatedDimension
  0
DIMENSION
  5
11D2
330
21
100
AcDbEntity
  8
sunpo
370
    20
100
AcDbDimension
  2
*D267
 10
2501.744397509529
 20
-1495.709346171761
 30
0.0
 11
2473.619397509529
 21
-1580.709346171761
 31
0.0
 70
    32
 71
     5
 42
170.0
  3
20
100
AcDbAlignedDimension
 13
2194.503222055
 23
-1665.709346171761
 33
0.0
 14
2194.503222055
 24
-1495.709346171761
 34
0.0
 50
90.0
100
AcDbRotatedDimension
  0
ENDSEC
  0
SECTION
  2
OBJECTS
  0
DICTIONARY
  5
C
330
0
100
AcDbDictionary
281
     1
  3
ACAD_COLOR
350
1C
  3
ACAD_GROUP
350
D
  3
ACAD_LAYOUT
350
1A
  3
ACAD_MATERIAL
350
1B
  3
ACAD_MLINESTYLE
350
17
  3
ACAD_PLOTSETTINGS
350
19
  3
ACAD_PLOTSTYLENAME
350
E
  3
ACDBHEADERROUNDTRIPXREC
350
1B0A
  3
AcDbVariableDictionary
350
1B05
  0
DICTIONARY
  5
1C
102
{ACAD_REACTORS
330
C
102
}
330
C
100
AcDbDictionary
281
     1
  0
DICTIONARY
  5
D
102
{ACAD_REACTORS
330
C
102
}
330
C
100
AcDbDictionary
281
     1
  0
DICTIONARY
  5
1A
102
{ACAD_REACTORS
330
C
102
}
330
C
100
AcDbDictionary
281
     1
  3
Model
350
24
  3
レイアウト1
350
20
  3
レイアウト2
350
28
  0
DICTIONARY
  5
1B
102
{ACAD_REACTORS
330
C
102
}
330
C
100
AcDbDictionary
281
     1
  0
DICTIONARY
  5
17
102
{ACAD_REACTORS
330
C
102
}
330
C
100
AcDbDictionary
281
     1
  3
Standard
350
18
  0
DICTIONARY
  5
19
102
{ACAD_REACTORS
330
C
102
}
330
C
100
AcDbDictionary
281
     1
  0
ACDBDICTIONARYWDFLT
  5
E
102
{ACAD_REACTORS
330
C
102
}
330
C
100
AcDbDictionary
281
     1
  3
Normal
350
F
100
AcDbDictionaryWithDefault
340
F
  0
DICTIONARY
  5
1B0A
102
{ACAD_REACTORS
330
C
102
}
330
C
100
AcDbDictionary
281
     1
  3
COLORDICT
350
1B0C
  3
MATERIALDICT
350
1B0B
  0
DICTIONARY
  5
1B05
102
{ACAD_REACTORS
330
C
102
}
330
C
100
AcDbDictionary
281
     1
  3
DIMASSOC
350
1B07
  3
HIDETEXT
350
1B06
  3
PROJECTNAME
350
1B08
  0
LAYOUT
  5
24
102
{ACAD_XDICTIONARY
360
1B0F
102
}
102
{ACAD_REACTORS
330
1A
102
}
330
1A
100
AcDbPlotSettings
  1

  2
KONICA MINOLTA C364SeriesPCL
  4

  6

 40
0.0
 41
0.0
 42
0.0
 43
0.0
 44
0.0
 45
0.0
 46
0.0
 47
0.0
 48
0.0
 49
0.0
140
0.0
141
0.0
142
1.0
143
1.0
 70
  1712
 72
     0
 73
     0
 74
     0
  7

 75
     0
147
1.0
148
0.0
149
0.0
100
AcDbLayout
  1
Model
 70
     1
 71
     0
 10
0.0
 20
0.0
 11
12.0
 21
9.0
 12
0.0
 22
0.0
 32
0.0
 14
0.0
 24
0.0
 34
0.0
 15
0.0
 25
0.0
 35
0.0
146
0.0
 13
0.0
 23
0.0
 33
0.0
 16
1.0
 26
0.0
 36
0.0
 17
0.0
 27
1.0
 37
0.0
 76
     0
330
21
  0
LAYOUT
  5
20
102
{ACAD_XDICTIONARY
360
1B0D
102
}
102
{ACAD_REACTORS
330
1A
102
}
330
1A
100
AcDbPlotSettings
  1

  2
KONICA MINOLTA C364SeriesPCL
  4

  6

 40
0.0
 41
0.0
 42
0.0
 43
0.0
 44
0.0
 45
0.0
 46
0.0
 47
0.0
 48
0.0
 49
0.0
140
0.0
141
0.0
142
1.0
143
1.0
 70
   688
 72
     0
 73
     0
 74
     5
  7

 75
    16
147
1.0
148
0.0
149
0.0
100
AcDbLayout
  1
レイアウト1
 70
     1
 71
     1
 10
0.0
 20
0.0
 11
420.0
 21
297.0
 12
0.0
 22
0.0
 32
0.0
 14
1.000000000000000E+20
 24
1.000000000000000E+20
 34
1.000000000000000E+20
 15
-1.000000000000000E+20
 25
-1.000000000000000E+20
 35
-1.000000000000000E+20
146
0.0
 13
0.0
 23
0.0
 33
0.0
 16
1.0
 26
0.0
 36
0.0
 17
0.0
 27
1.0
 37
0.0
 76
     0
330
1D
  0
LAYOUT
  5
28
102
{ACAD_XDICTIONARY
360
1B11
102
}
102
{ACAD_REACTORS
330
1A
102
}
330
1A
100
AcDbPlotSettings
  1

  2
KONICA MINOLTA C364SeriesPCL
  4

  6

 40
0.0
 41
0.0
 42
0.0
 43
0.0
 44
0.0
 45
0.0
 46
0.0
 47
0.0
 48
0.0
 49
0.0
140
0.0
141
0.0
142
1.0
143
1.0
 70
   688
 72
     0
 73
     0
 74
     5
  7

 75
    16
147
1.0
148
0.0
149
0.0
100
AcDbLayout
  1
レイアウト2
 70
     1
 71
     2
 10
0.0
 20
0.0
 11
12.0
 21
9.0
 12
0.0
 22
0.0
 32
0.0
 14
0.0
 24
0.0
 34
0.0
 15
0.0
 25
0.0
 35
0.0
146
0.0
 13
0.0
 23
0.0
 33
0.0
 16
1.0
 26
0.0
 36
0.0
 17
0.0
 27
1.0
 37
0.0
 76
     0
330
25
  0
MLINESTYLE
  5
18
102
{ACAD_REACTORS
330
17
102
}
330
17
100
AcDbMlineStyle
  2
STANDARD
 70
     0
  3

 62
   256
 51
90.0
 52
90.0
 71
     2
 49
0.5
 62
   256
  6
BYLAYER
 49
-0.5
 62
   256
  6
BYLAYER
  0
ACDBPLACEHOLDER
  5
F
102
{ACAD_REACTORS
330
E
102
}
330
E
  0
XRECORD
  5
1B0C
102
{ACAD_REACTORS
330
1B0A
102
}
330
1B0A
100
AcDbXrecord
280
     1
340
1C
  0
XRECORD
  5
1B0B
102
{ACAD_REACTORS
330
1B0A
102
}
330
1B0A
100
AcDbXrecord
280
     1
340
1B
  0
DICTIONARYVAR
  5
1B07
102
{ACAD_REACTORS
330
1B05
102
}
330
1B05
100
DictionaryVariables
280
     0
  1
2
  0
DICTIONARYVAR
  5
1B06
102
{ACAD_REACTORS
330
1B05
102
}
330
1B05
100
DictionaryVariables
280
     0
  1
1
  0
DICTIONARYVAR
  5
1B08
102
{ACAD_REACTORS
330
1B05
102
}
330
1B05
100
DictionaryVariables
280
     0
  1

  0
DICTIONARY
  5
1B0F
330
24
100
AcDbDictionary
280
     1
281
     1
  3
ACAD_XREC_ROUNDTRIP
360
1B10
  0
DICTIONARY
  5
1B0D
330
20
100
AcDbDictionary
280
     1
281
     1
  3
ACAD_XREC_ROUNDTRIP
360
1B0E
  0
DICTIONARY
  5
1B11
330
28
100
AcDbDictionary
280
     1
281
     1
  3
ACAD_XREC_ROUNDTRIP
360
1B12
  0
XRECORD
  5
1B10
102
{ACAD_REACTORS
330
1B0F
102
}
330
1B0F
100
AcDbXrecord
280
     1
102
SHADEPLOT
 70
     0
102
SHADEPLOTRESLEVEL
 70
     2
102
SHADEPLOTCUSTOMDPI
 70
   300
  0
XRECORD
  5
1B0E
102
{ACAD_REACTORS
330
1B0D
102
}
330
1B0D
100
AcDbXrecord
280
     1
102
SHADEPLOT
 70
     0
102
SHADEPLOTRESLEVEL
 70
     2
102
SHADEPLOTCUSTOMDPI
 70
   300
  0
XRECORD
  5
1B12
102
{ACAD_REACTORS
330
1B11
102
}
330
1B11
100
AcDbXrecord
280
     1
102
SHADEPLOT
 70
     0
102
SHADEPLOTRESLEVEL
 70
     2
102
SHADEPLOTCUSTOMDPI
 70
   300
  0
ENDSEC
  0
EOF
